#TITLE:see the lights;
#SUBTITLE:;
#ARTIST:StripE;
#TITLETRANSLIT:;
#SUBTITLETRANSLIT:;
#ARTISTTRANSLIT:;
#CREDIT:Xythar;
#BANNER:See the Lights.png;
#BACKGROUND:See the Lights-bg.png;
#LYRICSPATH:;
#CDTITLE:energetic trance.png;
#MUSIC:See the Lights.ogg;
#OFFSET:-0.072;
#SAMPLESTART:82.418;
#SAMPLELENGTH:12.520;
#SELECTABLE:YES;
#BPMS:0.000=153.000;
#STOPS:;
#BGCHANGES:;

//---------------dance-single - ----------------
#NOTES:
     dance-single:
     :
     Hard:
     9:
     0.550,0.635,0.165,0.083,0.380:
0000
0000
0000
0000
,
1000
0100
1000
0001
0100
0010
1000
0010
,
0100
0001
0010
0001
1000
0010
0100
0100
,
0001
0010
0100
0010
0001
1000
0100
0010
,
0100
0100
1000
1000
0001
0001
0100
0100
,
0101
0000
1010
0000
0100
0010
0001
0100
,
0010
0100
0001
0010
1000
0010
0001
0100
,
0110
0000
1010
0000
0100
1000
0001
1000
,
0010
0010
0100
0100
0001
0001
1000
1000
,
1001
0000
1001
0000
0001
0010
1000
0010
,
0001
0100
1000
0100
0001
0010
0100
1000
,
1010
0000
1001
0000
0010
0100
0001
1000
,
0100
0100
1000
0001
0100
0100
0010
1000
,
0001
0000
0001
0000
0100
0010
1000
0000
,
0100
0010
0001
0000
0100
0010
1000
0000
,
0100
0100
0010
0000
,
0000
0010
0002
0000
,
2003
0000
0000
0000
,
0000
3000
0100
1000
,
0020
0000
0000
0000
,
0000
0030
0100
0001
,
2000
0000
0000
0000
,
0000
3000
0010
0100
,
0002
0000
0000
2000
0000
0000
0003
0000
,
3100
0000
0000
0000
0000
0010
0000
0001
,
0100
0000
0000
0010
0000
1000
0000
0000
0100
0000
0000
1000
0000
0001
0000
0000
,
1000
0000
0000
0010
0000
0100
0000
0000
0001
0000
0000
1000
0000
0100
0000
0000
,
1000
0000
0000
0001
0000
0010
0000
0000
0100
0000
0000
1000
0000
0010
0000
0000
,
0100
0000
0000
0001
0000
1000
0000
0000
0100
0000
0000
1000
0000
0001
0000
0000
,
0100
0010
0000
1000
0000
1000
0000
0001
0000
0001
0000
1000
0000
0001
0000
0001
,
1000
0001
0000
0010
0000
0010
0000
0100
0000
0100
0000
0010
0000
0100
0000
0010
,
1000
0010
1000
0010
0100
0001
0100
0001
,
1000
0100
1000
0100
0010
0001
0010
0001
,
2000
0000
0000
0000
,
0002
0000
0000
0000
,
3003
0000
0000
0000
,
1000
0000
0000
0100
0000
1000
0000
0000
0001
0000
0100
0010
0000
0010
0000
0000
,
1000
0000
0000
0100
0000
0010
0000
0001
1000
0000
0001
1000
0000
0001
0000
0000
,
0010
0000
0000
0100
0000
1000
0000
0010
0100
0000
0010
0100
0000
0001
0000
0000
,
1000
0000
0000
0100
0000
1000
0000
0000
0001
0000
0001
0100
0000
0010
0000
0000
,
1000
0000
0000
0100
0000
0010
0000
0000
0100
0000
0000
0010
0000
0001
0000
0000
,
0100
0000
0000
0010
0000
1000
0000
0000
0010
0000
0000
0100
0000
0001
0000
0000
,
1000
0000
0000
0100
0000
1000
0000
0001
0100
0000
0001
0100
0000
0001
0000
0000
,
1000
0000
0000
0100
0000
1000
0000
0000
0001
0000
0010
0000
0100
0000
1000
0000
,
0010
0000
0000
0100
0000
0001
0000
0010
0100
0000
0010
0100
0000
1000
0000
0000
,
0010
0000
0000
0010
0000
1000
0000
0100
1000
0000
0100
1000
0000
0001
0000
0000
,
0100
0000
0000
0010
0000
1000
0000
0100
0010
0000
0100
0010
0000
0001
0000
0000
,
1000
0000
0000
0100
0000
1000
0000
0000
0001
0000
0010
0000
0100
0000
1000
0000
,
1010
0000
0000
0100
0000
0001
0000
1000
0001
0000
1000
0001
0000
0010
0000
0000
,
1100
0000
0000
0010
0000
0100
0000
0001
0100
0000
0001
0100
0000
0010
0000
0000
,
1001
0000
0100
0000
1001
0000
0010
0100
,
1001
0000
0000
0000
,
2000
0000
0000
0000
,
3001
0010
0100
0010
0001
0100
1000
0100
,
0001
0010
1000
0010
0001
0100
0010
1000
,
0100
1000
0001
0100
0010
0100
0001
0010
,
0100
0001
0100
1000
0010
0100
0010
0001
,
0010
1000
0100
0010
0100
0001
0100
1000
,
0010
0100
1000
0100
0001
0010
1000
0010
,
0001
0100
0010
1000
0001
1000
0100
1000
,
0010
0000
0100
0000
0001
0000
0010
0100
,
1000
0010
0000
0100
0000
0001
0000
1000
,
0000
0100
0000
1000
0010
0000
0100
0001
,
1000
0100
0000
0001
0000
0100
0000
1000
,
0000
0010
0000
0100
0001
0000
1000
0100
,
1000
0010
0000
0100
0000
0001
0000
1000
,
0000
0100
0000
1000
0010
0000
0101
0000
,
1001
0000
0100
0010
1001
0000
0010
0100
,
1001
1100
0101
1001
,
0001
0010
0100
1000
0010
0100
0001
0001
,
1000
0010
0100
0001
0010
0100
1000
1000
,
0010
0100
0001
0100
0010
1000
0100
0100
,
0010
0001
0100
0010
0100
0001
1000
1000
,
0001
0001
1000
1000
,
0001
0000
0001
0000
0100
0010
1000
0100
,
0010
0010
0100
0100
,
2000
0000
0000
0000
0000
0000
0000
3000
;

//---------------dance-single - ----------------
#NOTES:
     dance-single:
     :
     Challenge:
     11:
     0.863,1.000,0.174,0.149,1.000: // measure 1
0000
0000
0000
0000
,  // measure 2
1000
0100
1000
0100
1000
0000
0001
0100
0001
0100
0001
0100
0001
0000
1000
0010
,  // measure 3
1000
0010
1000
0010
1000
0000
0001
0010
0001
0010
0001
0010
0001
0000
1001
0000
,  // measure 4
0001
0100
0010
0100
0001
0000
1000
0100
1000
0001
1000
0010
1000
0000
0001
0010
,  // measure 5
0001
0010
0100
0010
0001
0000
1000
0010
0100
0010
1000
0100
0010
0000
1001
0000
,  // measure 6
0010
0100
0001
0100
0010
0000
1000
0100
0010
0100
1000
0010
0100
0000
0001
1000
,  // measure 7
0100
1000
0001
0100
0001
0000
1000
0100
1000
0100
0010
0001
0010
0000
1001
0000
,  // measure 8
0010
0100
0010
0100
0001
0000
1000
0100
1000
0100
0010
0001
0010
0000
1000
0010
,  // measure 9
1000
0010
0100
0001
0100
0000
0100
1000
0100
0010
0100
0010
0100
0000
1001
0000
,  // measure 10
0001
1000
0010
1000
0001
0000
0010
0001
0010
0100
0010
0001
0010
0000
0100
1000
,  // measure 11
0001
1000
0010
1000
0001
0000
1000
0010
0100
0010
1000
0100
0010
0000
1001
0000
,  // measure 12
0100
1000
0100
1000
0001
0000
0100
0010
1000
0010
0100
0001
0010
0000
0100
1000
,  // measure 13
0001
1000
0010
1000
0001
0000
0010
0100
0010
0100
1000
0010
0100
0000
1001
0000
,  // measure 14
0100
1000
0100
1000
0100
1000
0001
1000
,  // measure 15
0001
1000
0001
1000
0010
0100
0001
1000
,  // measure 16
0001
0001
0000
0000
,  // measure 17
0000
0000
2002
0000
,  // measure 18
0220
0000
0000
0000
,  // measure 19
3333
0000
2000
0200
,  // measure 20
0020
0000
0000
0000
,  // measure 21
3330
0000
0202
0000
,  // measure 22
0020
0000
0000
0000
,  // measure 23
0333
0000
0020
0200
,  // measure 24
0002
0000
0000
2000
0000
0000
0000
0000
,  // measure 25
3333
0000
0000
0000
,  // measure 26
1001
0000
0000
0100
0000
0010
0000
0000
1001
0000
0000
0010
0000
0100
0000
0000
,  // measure 27
0101
0000
0000
0010
0000
1000
0000
0000
1100
0000
0000
0010
0000
0001
0000
0000
,  // measure 28
0110
0000
0000
1000
0000
0001
0000
0000
0110
0000
0000
0001
0000
1000
0000
0000
,  // measure 29
1100
0000
0000
0010
0000
0001
0000
0000
0101
0000
0000
0010
0000
1000
0000
0000
,  // measure 30
0001
1000
0000
0001
0000
1000
0000
0001
0000
1000
0000
0001
0000
1000
0001
1000
,  // measure 31
0001
0100
0000
0010
0000
0100
0000
0010
0000
0100
0000
0010
0000
0100
0010
0100
,  // measure 32
0010
1000
0010
0000
1000
0100
1000
0000
0001
0010
0001
0000
1000
0010
1000
0000
,  // measure 33
0100
1000
0100
0000
0010
0001
0010
0000
0001
0100
0001
0000
1000
0001
1000
0001
,  // measure 34
2000
0000
0200
0020
,  // measure 35
0002
0000
0000
0000
,  // measure 36
3333
0000
0000
0000
,  // measure 37
1000
0000
0000
0100
0000
0010
0000
0001
0100
0000
0001
0100
0000
0010
0000
0010
,  // measure 38
1000
0000
0000
0100
0000
1000
0000
0001
1000
0000
0001
1000
0000
0010
0000
0010
,  // measure 39
0100
0000
0000
0001
0000
0010
0000
0100
1000
0000
0100
1000
0000
0001
0000
1000
,  // measure 40
0001
0000
0001
1000
0000
0001
0000
1000
0100
0000
0100
1000
0000
0001
0010
0100
,  // measure 41
1000
0000
1000
0010
0000
0010
0000
0100
0001
0000
0001
0100
0000
0010
0000
1000
,  // measure 42
0100
0000
0100
1000
0000
0001
0000
0100
0010
0000
0010
0100
0000
0001
0000
1000
,  // measure 43
0100
0000
0100
1000
0000
0010
0000
0100
0001
0000
0001
0100
0000
0010
0000
1000
,  // measure 44
0100
0000
0010
0001
0000
0100
0000
0010
1000
0000
0001
1000
0000
0001
0010
0100
,  // measure 45
1000
0100
1000
0100
0000
0100
0000
1000
0010
1000
0010
0100
0000
0001
0000
1000
,  // measure 46
0100
1000
0001
0100
0000
0010
0000
0010
1000
0001
1000
0100
0000
0010
0000
0001
,  // measure 47
0100
0001
0100
0010
0000
1000
0000
0100
0010
0100
0010
0001
0000
0100
0000
0010
,  // measure 48
1000
0010
1000
0001
0000
0010
0000
0100
1000
0100
1000
0001
0000
0001
0100
0010
,  // measure 49
1000
0100
1000
0100
0000
0010
0000
0001
0100
0001
0100
0010
0000
0010
0000
1000
,  // measure 50
0001
0100
0001
1000
0000
0010
0000
1000
0100
0010
0100
1000
0000
0010
0000
0100
,  // measure 51
0001
1000
0001
0100
0000
0010
0000
1000
0001
0010
0001
1000
0000
0000
0010
0000
,  // measure 52
1001
0000
0000
0000
0100
1000
0100
1000
0001
1000
0001
1000
0001
1000
0010
1000
,  // measure 53
0001
0000
0000
0000
,  // measure 54
1000
0100
1000
0010
0100
0010
1000
0000
0001
0010
0100
0010
0001
0100
0010
0000
,  // measure 55
1000
0001
0100
0001
1000
0100
0010
0000
0100
1000
0001
1000
0010
1000
0001
0000
,  // measure 56
0010
0100
1000
0010
0100
0010
1000
0000
0100
0010
0001
0010
0100
1000
0001
0000
,  // measure 57
0100
0010
1000
0010
0100
0001
1000
0000
0001
0010
0100
0010
0001
0100
0010
0000
,  // measure 58
1000
0100
0010
0100
1000
0010
0100
0000
0001
1000
0010
1000
0001
1000
0100
0000
,  // measure 59
1000
0010
1000
0001
1000
0100
1000
0000
0001
0100
0010
1000
0100
0010
0001
0000
,  // measure 60
1000
0010
0100
0001
0010
0100
1000
0000
0010
0100
0001
0100
0010
1000
0001
0000
,  // measure 61
0010
0100
1000
0010
0100
0001
1000
0000
0100
1000
0001
1000
0010
0100
0001
0000
,  // measure 62
1000
0100
0000
1000
0000
0010
0000
0100
,  // measure 63
0000
0001
0000
0010
0100
0000
1000
0010
,  // measure 64
0100
0001
0000
0010
0000
0100
0000
1000
,  // measure 65
0000
0010
0000
0100
0001
0000
1000
0100
,  // measure 66
1000
0001
0000
0100
0000
0010
0000
1000
,  // measure 67
0000
0100
0000
1000
0001
0000
1000
0000
,  // measure 68
1001
0000
0000
0010
0110
0000
0000
0001
,  // measure 69
1001
1000
0001
1000
,  // measure 70
0001
0010
0001
0010
0001
1000
0001
1000
0001
1000
0010
1000
0010
0100
0001
0100
,  // measure 71
0010
1000
0001
1000
0100
1000
0001
1000
0001
1000
0010
0100
0010
0100
0010
0000
,  // measure 72
1000
0001
0010
0001
1000
0001
1000
0001
0100
0001
0100
0010
0100
0010
1000
0010
,  // measure 73
1000
0001
1000
0100
0010
0001
1000
0001
1000
0010
1000
0100
1000
0001
1000
0000
,  // measure 74
0001
0000
0100
0000
0010
0000
1000
0100
0010
0000
0001
0000
0100
0000
0010
1000
,  // measure 75
0001
0000
0010
0000
0100
0000
1000
0001
0100
0000
0010
0000
1000
0000
0001
0000
,  // measure 76
1000
0000
0100
0000
0010
0000
0001
0100
0010
0000
1000
0000
0001
0000
0010
0100
,  // measure 77
1000
0000
0010
0000
0100
0000
0001
0000
1000
0001
1000
0001
1000
0001
1000
0000
;

//---------------dance-single - ----------------
#NOTES:
     dance-single:
     :
     Medium:
     7:
     0.482,0.508,0.174,0.231,0.000:
0000
0000
0000
0000
,
1000
0010
0100
0000
0001
0100
0010
0000
,
1000
0001
0010
0001
1000
0000
0010
0000
,
0100
0001
1000
0000
0100
1000
0001
0000
,
0100
0000
0100
0000
0010
1000
0001
1000
,
0010
0000
0100
0000
0001
0010
0100
0000
,
0010
0100
1000
0000
0010
0100
0001
0100
,
0010
1000
0001
1000
,
0020
0100
0100
1030
,
0100
1000
0100
1000
0001
0000
0100
0000
,
0010
0000
1000
0001
1000
0001
0010
0000
,
0100
0100
1000
0001
,
2000
0100
0001
3010
,
0100
0000
0100
0000
0001
0100
0010
0000
,
1000
0100
0010
0000
0100
1000
0001
1000
,
0010
0010
0000
0000
,
0000
0000
2000
0000
,
3200
0000
0000
0000
,
0000
0300
2000
0000
,
3020
0000
0000
0000
,
0000
0030
0200
0000
,
0302
0000
0000
0000
,
0000
0003
0020
0000
,
0230
0000
0000
2300
0000
0000
0000
0000
,
3000
0000
0000
0000
,
1100
0010
0101
0010
,
1001
0100
1001
0010
,
1100
0001
0110
1000
,
0110
0001
1010
0100
,
0011
0011
1010
1010
,
0101
0101
1100
1100
,
0001
0001
1000
1000
,
0001
1000
0001
1000
0001
1000
0001
1000
,
0002
0000
0000
0000
,
2000
0000
0000
0000
,
3003
0000
0000
0000
,
1000
0000
0100
1000
0010
0000
0100
0001
,
0010
0000
0100
1000
0001
1000
0010
1000
,
0100
0000
0010
0001
0100
0000
0010
1000
,
0100
0000
1000
0010
0100
0001
0010
0100
,
1000
0000
0010
0100
0001
0000
0010
0100
,
1000
0000
0010
0100
0001
0100
0010
1000
,
0100
0000
1000
0010
0100
0000
0001
1000
,
0100
1000
0110
0001
,
0110
0000
1000
0100
0010
0100
1000
0010
,
0100
0000
0001
0010
0100
1000
0010
0100
,
0001
0000
1000
0001
0010
0000
0100
1000
,
0001
0000
1000
0010
0100
0001
0010
0100
,
1000
0000
0010
0000
0100
0000
0001
0010
,
0100
0000
1000
0000
0001
0000
0100
0010
,
1000
0010
1001
0100
,
1001
0000
0010
0000
0100
0000
1000
0001
,
1001
0000
2000
0000
,
3010
0100
0001
0100
0010
0000
1000
0100
,
1000
0000
0001
0100
0002
0000
0023
0000
,
0130
1000
0100
1000
0001
0000
0100
0010
,
0100
0001
2000
3200
,
0310
0001
0010
0001
1000
0000
0010
0100
,
0001
0000
1000
0100
2000
0000
3020
0000
,
0130
0001
0100
0001
1000
0000
0100
1000
,
0001
0000
0100
0010
2000
0000
3002
0000
,
1003
0100
0000
1000
0000
0010
0000
0100
,
0000
0001
0000
1000
0200
0000
2300
0000
,
3010
0100
0000
0001
0000
1000
0000
0100
,
0000
1000
0000
0010
0100
0000
0002
1000
,
1003
0000
0100
1000
0000
0010
0000
0100
,
0000
0001
0000
1000
0200
0000
2300
0000
,
3020
0000
0000
0100
0130
0000
0000
0001
,
0001
1000
0100
1000
,
0010
0100
0001
0100
0010
0000
1000
0000
,
0100
0010
0001
0010
0100
0010
0001
0000
,
1000
0010
0100
0010
1000
0000
0001
0000
,
0010
0100
1000
0100
0010
0100
1000
0000
,
0010
0100
0010
0100
0010
0100
0010
0100
,
0001
1000
0001
1000
0001
1000
0001
1000
,
0001
0010
0100
1000
,
0001
0100
0010
1000
0100
0010
0001
1000
;

//---------------dance-single - ----------------
#NOTES:
     dance-single:
     :
     Easy:
     5:
     0.328,0.444,0.298,0.066,0.000:
0000
0000
0000
0000
,
1000
0100
1000
0010
,
0100
0001
0010
0010
,
0100
1000
0010
0100
,
0010
0010
1000
1000
,
0001
0010
0100
1000
,
0010
0100
0010
0010
,
1000
0100
1000
0100
,
1000
1000
1001
1001
,
0010
0100
0001
0010
,
0100
0100
1000
0010
,
0100
0100
0001
0001
,
1000
1000
1001
1001
,
0001
0010
0100
1000
,
0010
0100
0001
1000
,
0100
0000
0000
0000
,
0000
0000
2000
0000
,
3020
0000
0000
0000
,
0000
0030
0200
0000
,
0302
0000
0000
0000
,
0000
0003
2000
0000
,
3200
0000
0000
0000
,
0000
0300
2000
0000
,
3020
0000
0000
0000
,
0030
0000
0000
0000
,
1001
0000
1001
0000
,
0110
0000
0110
0000
,
1001
0000
1001
0000
,
0110
0000
0110
0000
,
1001
1000
1001
0001
,
1001
0010
0110
0100
,
0110
0010
0110
0100
,
1000
0001
1000
0001
,
1001
0000
0000
0000
,
0000
0000
0000
0000
,
0000
0000
0000
0000
,
1000
0100
0010
0001
,
0100
0010
0100
0001
,
0010
0100
1000
0010
,
0100
0001
1000
0100
,
1001
0010
0100
1000
,
0010
0100
0001
1000
,
0100
1000
0010
0100
,
0001
0001
1000
1000
,
1001
0001
0010
0100
,
1000
0010
0100
0010
,
1000
0100
0010
0001
,
0100
0010
1000
0001
,
1001
0001
1000
0100
,
1000
0010
0100
0010
,
0110
0000
1001
0000
,
0110
0110
0110
0110
,
0110
0000
0000
0000
,
1000
0010
0100
0010
,
1000
0100
1000
0001
,
0100
0100
0010
0010
,
1000
1000
0100
1000
,
0010
0100
0001
0010
,
0100
1000
0010
0100
,
0010
1000
0100
1000
,
0001
1000
0001
1000
,
0100
0000
0000
0000
,
1000
0000
0010
0100
,
0001
0000
0000
0000
,
0010
0000
0100
1000
,
0001
0000
0000
0000
,
1000
0000
0010
0000
,
1001
0000
1001
0000
,
1001
1001
1001
1001
,
1001
0001
0010
0100
,
1000
0010
0100
0001
,
1000
1000
0100
1000
,
0010
0100
0001
1000
,
0100
0100
0100
0100
,
0010
0010
0010
0010
,
0001
0001
0001
0001
,
1000
1000
1000
1000
;
