#TITLE:SCREAM;
#SUBTITLE:;
#ARTIST:AYAKA IKIO;
#TITLETRANSLIT:;
#SUBTITLETRANSLIT:;
#ARTISTTRANSLIT:;
#CREDIT:Xythar;
#BANNER:Scream.png;
#BACKGROUND:Scream-bg.png;
#LYRICSPATH:;
#CDTITLE:cdtitle.png;
#MUSIC:Scream.mp3;
#OFFSET:-0.149;
#SAMPLESTART:61.058;
#SAMPLELENGTH:14.720;
#SELECTABLE:YES;
#BPMS:0.000=130.000;
#STOPS:;
#BGCHANGES:;

//---------------dance-single - ----------------
#NOTES:
     dance-single:
     :
     Hard:
     7:
     0.459,0.456,0.114,0.019,0.052:
0000
0000
0000
0000
,
1000
0000
0010
0000
0000
0100
0010
0000
,
0100
0000
0001
0000
0000
0010
0001
0000
,
1000
0000
0010
0000
0000
1000
0001
0000
,
0100
0000
0010
0000
0200
0000
0300
0001
,
0010
0000
1000
0000
0000
0010
0001
0000
,
0100
0000
0010
0000
0000
0100
0001
0000
,
1000
0000
0010
0000
0000
1000
0001
0000
,
1000
0000
0001
0100
0000
0000
0010
0000
,
1000
0100
0000
1000
0010
1000
0001
0001
,
1000
0010
0000
0100
0001
1000
0001
0001
,
0100
0010
0000
1000
0100
1000
0010
0010
,
1000
0010
0000
1000
0002
0000
0003
1000
,
0100
1000
0000
0001
0100
0001
1000
1000
,
0001
0100
0000
0010
1000
0001
1000
1000
,
0010
1000
0000
0001
0010
0001
1000
0001
,
0100
0000
0000
0010
0000
0000
0000
0000
,
1000
0000
0000
0100
0000
0100
0000
0000
,
1000
0000
0000
0010
0000
0010
0000
0000
,
0100
0000
0000
0001
0000
0001
0000
0000
,
0010
0000
0000
0001
0000
0001
0000
0000
,
1000
0000
0000
0010
0000
0100
0000
0000
,
0010
0000
0000
1000
0000
0001
0000
0000
,
1000
0100
1000
0010
1000
0001
0100
0001
,
1000
0100
1000
0000
0001
0100
0001
0000
0100
0000
0000
0000
1001
0000
0000
0000
,
0001
0100
0010
0100
0001
0010
0100
1000
,
0000
1000
0001
0010
0000
0010
0001
1000
,
0010
1000
0001
1000
0100
1000
0001
0100
,
0000
1000
0100
0001
0010
0001
1000
0000
,
1001
0000
0001
0100
0010
0100
0001
0010
,
0000
1000
0010
0001
0000
0001
1000
0010
,
0100
0010
1000
0001
1000
0100
1000
0010
,
0000
0010
0100
0001
0010
0001
1000
0000
,
0101
0000
0001
1000
0100
0001
0100
1000
,
0000
0001
0100
1000
0000
1000
0100
0001
,
1000
0100
1000
0001
1000
0010
1000
0001
,
0000
0100
0010
0100
0001
1000
0100
0000
,
0101
0000
0100
1000
0010
0100
0010
0001
,
0000
0001
0010
1000
0000
1000
0100
0001
,
0100
1000
0010
1000
0001
1000
0100
1000
,
0000
0000
0000
1001
,
0100
1000
0010
1000
0100
1000
0010
0100
,
0001
0000
0000
0010
0100
0000
1000
0000
0000
0000
0001
0000
0100
0000
0001
0000
,
1000
0000
0000
0100
0010
0000
0001
0000
0000
0000
1000
0000
0000
0000
0001
0000
,
0100
0001
1000
0001
0000
1000
0000
0000
,
0001
0010
0100
1000
0010
0100
0001
1000
,
0001
0000
0000
1000
0010
0000
1000
0000
0000
0000
0001
0000
0010
0000
0001
0000
,
1000
0000
0000
0001
1000
0000
0010
0000
0000
0000
0100
0000
0000
0000
0001
0000
,
0100
1000
0100
0001
0000
1000
0000
0000
,
0001
0010
0001
1000
0010
1000
0001
0100
,
0010
0000
0000
1000
0001
0000
1000
0000
0000
0000
0001
0000
0010
0000
0000
0000
,
1100
0000
0101
0000
0010
1000
0001
1000
,
0100
0000
0000
0010
0001
0000
1000
0000
0000
0000
0001
0000
0100
0000
0001
0000
,
1000
0100
0001
0100
1000
0100
0001
0100
,
1000
0000
0000
0001
0100
0000
0010
0000
0000
0000
1000
0000
0100
0000
1000
0000
,
0010
0100
1000
0100
0010
0100
0001
1000
,
1100
0000
0000
0101
0000
0000
1010
0000
0000
0011
0000
0000
1001
0000
0000
0000
;

//---------------dance-single - ----------------
#NOTES:
     dance-single:
     :
     Medium:
     6:
     0.389,0.376,0.114,0.047,0.009: // measure 1
0000
0000
0000
0000
,  // measure 2
0001
0000
0100
0000
0000
0001
1000
0000
,  // measure 3
0001
0000
0010
0000
0000
0001
1000
0000
,  // measure 4
0010
0000
0100
0000
0000
0001
0100
0000
,  // measure 5
0010
1000
0002
0003
,  // measure 6
1000
0000
0010
0000
0000
1000
0001
0000
,  // measure 7
1000
0000
0100
0000
0000
0010
0001
0000
,  // measure 8
0100
0000
0010
0000
0000
0100
0001
0000
,  // measure 9
0020
0000
0000
0130
0000
1000
0001
0000
,  // measure 10
1000
0010
0000
1000
0100
1000
0001
0000
,  // measure 11
0100
0010
0000
0100
0001
0100
0001
0000
,  // measure 12
0010
0100
0000
1000
0010
1000
0001
0000
,  // measure 13
1000
0010
0000
1000
0002
0000
0003
0000
,  // measure 14
0010
0100
0000
1000
0010
1000
0001
0000
,  // measure 15
1000
0100
0000
0010
0001
1000
0001
0000
,  // measure 16
0100
0010
0000
0100
0001
0100
0001
0000
,  // measure 17
2000
0000
0000
3001
0000
0000
0000
0000
,  // measure 18
1000
0000
0000
0010
0000
0010
0000
0000
,  // measure 19
0100
0000
0000
0001
0000
0001
0000
0000
,  // measure 20
0010
0000
0000
0100
0000
0100
0000
0000
,  // measure 21
1000
0000
0000
0001
0000
0001
0000
0000
,  // measure 22
1000
0000
0000
0010
0000
0010
0000
0000
,  // measure 23
1000
0000
0000
0100
0000
0100
0000
0000
,  // measure 24
0010
0001
1000
0010
,  // measure 25
1000
0100
1000
0001
1000
0000
1001
0000
,  // measure 26
0001
0100
0001
1000
0000
1000
0001
0010
,  // measure 27
0000
0010
0001
1000
0000
0001
0000
1000
,  // measure 28
0000
0010
0100
0000
0001
0000
0100
0001
,  // measure 29
0000
1000
0100
0000
1000
0001
1000
0000
,  // measure 30
1001
0000
0001
0000
0100
0010
0100
0001
,  // measure 31
0000
1000
0100
1000
0000
0001
0100
0001
,  // measure 32
1000
0000
0010
0000
0100
0000
0001
1000
,  // measure 33
0000
0001
0010
0001
0000
1000
0010
0000
,  // measure 34
1010
0000
0001
0000
0100
0010
0100
0001
,  // measure 35
0000
1000
0100
1000
0000
0001
0100
0001
,  // measure 36
2000
0000
0100
0000
3010
0000
0001
1000
,  // measure 37
0000
0001
0100
0001
0000
0010
0000
0100
,  // measure 38
1000
0000
0001
0000
1000
0010
1000
0001
,  // measure 39
0000
0001
0100
1000
0000
1000
0100
0001
,  // measure 40
0100
0000
0010
0000
1000
0100
1000
0010
,  // measure 41
0000
0000
0000
0000
,  // measure 42
1000
0100
1000
0000
0001
0000
0100
0000
,  // measure 43
1010
0000
0100
0001
0000
1000
0100
1000
,  // measure 44
0010
0000
0100
0000
1000
0100
0001
0000
,  // measure 45
1000
0100
1000
0010
0000
0100
0001
0000
,  // measure 46
1100
0000
0001
0100
1000
0000
0100
0000
,  // measure 47
1001
0000
0001
0010
0000
0001
1000
0010
,  // measure 48
1000
0000
0001
0000
1000
0100
1000
0001
,  // measure 49
1000
0000
0001
0100
0000
0010
1000
0000
,  // measure 50
0011
0100
1000
0001
,  // measure 51
1000
0010
1000
0001
0000
0001
1000
0000
,  // measure 52
0100
0000
1001
0000
0100
1000
0001
0000
,  // measure 53
1000
0010
1000
0001
0000
1000
0100
0000
,  // measure 54
0010
1001
1100
0101
,  // measure 55
0010
1000
0001
1000
0000
0001
0010
0001
,  // measure 56
1000
0000
0010
0000
0100
0000
0001
1000
,  // measure 57
0001
0000
0000
0100
0000
0000
0010
0000
0000
1000
0000
0000
1001
0000
0000
0000
;

//---------------dance-single - ----------------
#NOTES:
     dance-single:
     :
     Easy:
     3:
     0.215,0.268,0.066,0.000,0.000: // measure 1
0000
0000
0000
0000
,  // measure 2
1001
0000
0000
0000
,  // measure 3
0001
1000
0000
1000
,  // measure 4
0001
0100
0000
0000
,  // measure 5
0010
0000
0000
0000
,  // measure 6
1001
0000
0000
0000
,  // measure 7
0001
1000
0000
0001
,  // measure 8
0010
0001
0000
0000
,  // measure 9
1000
0000
0010
0000
,  // measure 10
1000
0100
0000
1000
,  // measure 11
0010
1000
0000
0001
,  // measure 12
0100
0001
0000
0010
,  // measure 13
0001
1000
0000
0001
,  // measure 14
0010
0100
0000
1000
,  // measure 15
0010
1000
0000
0001
,  // measure 16
1000
0001
0000
1000
,  // measure 17
0001
0000
1000
0000
,  // measure 18
0001
0000
0000
0000
,  // measure 19
1000
0000
0000
0000
,  // measure 20
0010
0000
0000
0000
,  // measure 21
0100
0000
0000
0000
,  // measure 22
0001
0000
0000
0000
,  // measure 23
0010
0000
0000
0000
,  // measure 24
0100
1000
0001
1000
,  // measure 25
0010
0010
0010
0000
,  // measure 26
0100
0001
1000
0001
,  // measure 27
0010
0000
0100
0000
,  // measure 28
1000
0010
1000
0001
,  // measure 29
1000
0000
0001
0000
,  // measure 30
1000
0010
0100
0001
,  // measure 31
0010
0000
0001
0000
,  // measure 32
1000
0100
1000
0010
,  // measure 33
1000
0000
0001
0000
,  // measure 34
0010
0001
0100
0010
,  // measure 35
1000
0000
0100
1000
,  // measure 36
0010
0100
0001
0010
,  // measure 37
0001
0000
1000
0001
,  // measure 38
0100
0000
0001
0010
,  // measure 39
0100
1000
0010
0100
,  // measure 40
0001
1000
0000
0001
,  // measure 41
1000
0000
0000
0000
,  // measure 42
0010
0100
0001
1000
,  // measure 43
0001
0000
0001
0000
,  // measure 44
1000
0100
0000
1000
,  // measure 45
0010
0100
0001
0000
,  // measure 46
1000
0001
1000
0001
,  // measure 47
1001
0000
1001
0000
,  // measure 48
0010
0100
0001
0100
,  // measure 49
0010
0010
0010
0000
,  // measure 50
1000
0100
1000
0010
,  // measure 51
1000
0000
1001
0000
,  // measure 52
0001
0100
0001
0010
,  // measure 53
0001
0000
1000
0000
,  // measure 54
0001
0010
0100
1000
,  // measure 55
0010
0100
0001
1000
,  // measure 56
1001
0001
1000
0001
,  // measure 57
1000
0000
0001
1001
;
