#TITLE:SUMMER DAYS;
#SUBTITLE:;
#ARTIST:Do As Infinity;
#TITLETRANSLIT:;
#SUBTITLETRANSLIT:;
#ARTISTTRANSLIT:;
#CREDIT:Xythar;
#BANNER:SUMMER DAYS.png;
#BACKGROUND:SUMMER DAYS-bg.png;
#LYRICSPATH:SUMMER DAYS.lrc;
#CDTITLE:daiseries.png;
#MUSIC:SUMMER DAYS.mp3;
#OFFSET:-2.026;
#SAMPLESTART:71.870;
#SAMPLELENGTH:12.000;
#SELECTABLE:YES;
#BPMS:0.000=174.860;
#STOPS:;
#BGCHANGES:;

//---------------dance-single - ----------------
#NOTES:
     dance-single:
     :
     Easy:
     5:
     0.351,0.453,0.121,0.000,0.000:
0000
0000
0000
0000
,
1000
0000
0100
0010
,
0001
0000
0100
0001
,
0010
0000
0100
1000
,
0010
0100
0010
1000
,
0100
0000
0010
0001
,
0010
0000
0100
1000
,
0100
1000
0010
1000
,
1001
1001
0101
0101
,
0110
0000
0100
0010
,
1000
0100
0010
0001
,
0100
0000
0001
0010
,
0100
0010
0001
0100
,
0110
0000
1000
0100
,
1100
0000
0100
0010
,
0001
0100
0010
0100
,
0001
0000
0010
0100
,
1000
0100
1000
0010
,
1000
0100
1000
0001
,
1000
0010
1000
0100
,
1000
0001
0010
0001
,
0001
0100
0001
0010
,
0001
0100
0001
0010
,
0001
0100
0001
1000
,
0001
0010
0001
0100
,
0010
0000
0010
1000
,
0100
0000
0100
0010
,
0001
0000
0001
0100
,
0010
0000
0010
1000
,
0100
0000
0100
1000
,
0001
0000
0001
0010
,
0100
0000
0100
0010
,
0001
1000
0010
0100
,
0001
0010
0001
0100
,
0010
0100
0010
0100
,
0001
0010
0100
0010
,
0001
0000
1000
0010
,
0100
0000
0001
0010
,
0100
0000
0010
0001
,
0100
0000
0001
1000
,
0100
1000
0001
0010
,
0100
0000
0100
0010
,
0100
0000
1000
0000
,
0001
0000
0100
0010
,
1000
0100
0010
0001
,
0100
0010
1000
0000
,
0001
1000
0001
1000
,
0001
0000
0010
0000
,
0100
0000
1000
0000
,
0001
0100
0001
0100
,
0101
0101
0110
0110
,
1010
0000
0100
0010
,
0001
0000
1000
0010
,
0100
0000
0001
0010
,
0100
0000
1000
0001
,
0100
0000
0001
1000
,
0010
0000
0100
0001
,
0010
0000
0100
1000
,
0010
1000
0100
0010
,
0001
0000
0100
0010
,
1000
0000
0100
0010
,
0001
0000
0100
0010
,
1000
0000
0100
1000
,
0010
0000
0100
0000
,
0001
0000
0010
0001
,
0100
0010
0100
0001
,
0010
0000
0100
0010
,
0001
1000
0100
1000
,
0001
0100
0010
0100
,
0001
0010
0100
0010
,
0001
1000
0100
1000
,
0010
1000
0100
1000
,
0001
0100
0010
0100
,
0001
0010
0100
1000
,
0100
0010
0100
1000
,
1001
0000
0000
0000
;

//---------------dance-single - ----------------
#NOTES:
     dance-single:
     :
     Hard:
     8:
     0.614,0.592,0.446,0.000,0.009:
0000
0000
0000
0000
,
1000
0000
0001
1000
0000
1000
0001
0000
,
0010
0000
0100
0010
0000
0010
0100
0000
,
1000
0000
0010
0100
0000
0100
0010
0000
,
0100
0001
0010
0100
0000
0100
0010
0000
,
0001
0000
0100
0001
0000
0001
0100
0000
,
0010
0000
1000
0100
0000
0100
1000
0000
,
0001
0010
0100
1000
0001
0100
0010
1000
,
0001
0000
0001
0000
0010
0000
0010
0000
0100
0000
0100
0000
1000
0100
1000
0000
,
1100
0000
0100
0010
0000
0010
0001
0000
,
0011
0000
0001
0100
0000
0100
0010
0000
,
0110
0000
0010
1000
0000
1000
0100
0000
,
1000
0100
0010
0011
0000
0010
0100
0000
,
1001
0000
0001
0101
0000
0100
0000
0010
,
0100
0001
0010
0100
0000
0000
1000
0100
,
0010
0100
0000
1000
0001
0000
0001
0100
,
0001
0010
0110
0011
,
1001
0010
0100
1000
,
1100
0100
0010
0001
,
0101
0100
0010
1000
,
1010
0000
1000
0000
0100
0010
0001
0000
,
0011
0010
0100
1000
,
1100
0100
1000
0001
,
1001
1000
0001
0100
,
0101
0000
0001
0000
1000
0010
1000
0000
,
0100
0000
0010
0001
0000
0010
0001
0010
,
0001
0000
0100
0001
0000
0100
0010
0100
,
0010
0000
1000
0010
0000
1000
0001
1000
,
0001
0000
1000
0100
0000
1000
0010
1000
,
0010
0000
0100
0001
0000
0100
0010
0100
,
0010
0000
0100
1000
0000
0100
0001
0100
,
0001
0000
0010
0100
0000
0010
0001
0010
,
0001
0000
1000
0010
0000
1000
0100
0010
,
0100
0000
0010
0001
0000
0100
0000
0010
,
0000
1000
0000
0100
0000
0010
0000
0001
,
1000
0000
0010
1000
0000
0010
0100
0010
,
0100
0000
1000
0100
0000
0001
0010
0100
,
0010
0000
0001
1000
0000
0100
0010
0100
,
1000
0000
0001
1000
0000
0100
0010
0000
,
0001
0100
0010
1000
0000
0100
0000
0010
,
0001
0010
0100
1000
0001
0100
0010
1000
,
1001
0000
0001
0010
0000
0010
0100
0000
,
0110
0000
0100
1000
0000
1000
0001
0000
,
1001
0000
1000
0010
0100
0001
0000
0011
,
0000
0010
0100
1000
0000
0001
0100
0000
,
0101
0000
0100
0001
0000
0001
1000
0000
,
1100
0000
0000
0110
0000
0000
0011
0000
,
1000
0100
0010
0000
0001
0100
0010
0000
,
1000
0100
0010
0001
0100
0010
1000
0000
,
0001
0010
0100
0010
0000
0001
0000
1000
,
0010
0000
0010
0000
0100
0000
0100
0000
0001
0000
0001
0000
1000
0001
1000
0000
,
1001
0000
1000
0100
0000
0100
0001
0000
,
0101
0000
0100
1000
0000
1000
0010
0000
,
1010
0000
0010
0100
0000
0100
0001
0000
,
1000
0010
0100
0101
0000
0001
0010
0000
,
0110
0000
0100
1100
0000
0001
0000
1000
,
0010
0100
0001
0010
0000
0000
0100
1000
,
0001
0010
0100
0010
0001
1000
0000
0010
,
0100
0001
1000
0100
0000
1000
0010
1000
,
1001
0000
0001
0010
0000
0010
0100
0000
,
0110
0000
0001
0100
0000
0100
1000
0000
,
1010
0000
0100
0001
0000
0001
0010
0000
,
1000
0010
0001
0011
0000
0001
0100
0000
,
0110
0000
0010
1010
0000
1000
0000
0100
,
0010
0001
0100
0010
0000
0010
0100
0001
,
0010
0100
0000
1000
0010
0000
0100
0001
,
0000
0010
0100
1000
1001
0000
0110
0000
,
0011
0000
0010
0100
0010
0000
0110
0000
,
1100
0000
1000
0001
1000
0000
1001
0000
,
0101
0000
0100
0010
0100
0000
0110
0000
,
1010
0000
1000
0100
1000
0000
1100
0000
,
1001
0000
0100
0001
0100
0000
0101
0000
,
1000
0100
1000
0100
0010
0001
0010
0001
,
0100
0001
0100
0001
1000
0010
1000
0010
,
1000
0001
1000
0001
0100
0010
0100
0001
,
1000
0000
0000
0000
;

//---------------dance-single - ----------------
#NOTES:
     dance-single:
     :
     Medium:
     7:
     0.453,0.487,0.223,0.000,0.000:
0000
0000
0000
0000
,
1000
0000
0000
0100
0000
0000
0010
0000
,
0100
0000
0000
0010
0000
0000
0001
0000
,
0100
0000
0000
0010
0000
0000
0100
0000
,
0001
0000
0000
0010
0000
0000
0100
0000
,
1000
0000
0000
0010
0000
0000
1000
0000
,
0001
0000
0000
0100
0000
0000
0001
0000
,
0010
0000
0000
1000
0000
0000
0010
0000
,
0001
0010
0001
0010
0001
0010
0100
0010
,
0100
0000
1000
0100
0000
0000
1000
0000
,
0010
0000
0100
0010
0000
0000
0100
0000
,
0001
0000
0010
0001
0000
0000
0010
0000
,
0100
0000
0001
0100
0000
0000
1000
0000
,
0110
0000
0100
0010
0000
0000
0100
0000
,
1001
0000
0010
0100
0000
0000
0010
0001
,
0010
0000
0001
0100
0001
0000
0100
0010
,
0000
1000
0100
0000
0010
0000
0001
0000
,
1000
0100
0010
0001
,
1000
0010
0100
0001
,
1000
0100
0010
0001
,
1000
0000
0010
0000
0100
0010
0100
0000
,
0001
0010
0100
1000
,
0001
0100
0010
1000
,
0001
0010
0100
1000
,
0001
0000
0010
0000
0100
0010
0100
0000
,
1000
0000
0000
0100
0000
1000
0000
0010
,
0000
0100
0000
0001
0000
0010
0000
0000
,
0001
0000
0100
0000
0010
0100
0000
0010
,
0000
0000
0100
0001
0000
0001
0010
0000
,
0100
0000
1000
0100
0000
0000
1000
0000
,
0010
0000
0000
0100
0000
0000
0001
0000
,
0010
0000
0000
0100
0000
0000
0010
0000
,
0001
0000
0100
0001
0000
0100
0010
0100
,
0010
0000
1000
0100
0000
1000
0000
0100
,
0000
0001
0000
0100
0000
1000
0000
0000
,
0010
0000
0010
0000
0100
0000
0001
0100
,
0001
0000
0000
0010
0000
0000
0001
0000
,
0100
0000
0000
1000
0000
0000
0100
0000
,
0001
0000
0000
1000
0000
0000
0010
0000
,
0100
0000
0000
0001
0000
0010
0000
0110
,
0000
0100
1000
0100
0000
0010
0100
0010
,
0100
0000
0000
0010
0000
0000
0001
0000
,
0101
0000
0000
0110
0000
0000
1000
0000
,
0100
0000
0000
0010
0001
0010
0000
0001
,
0000
1000
0100
1000
0000
0001
0100
0000
,
0101
0000
0000
1000
0000
0000
0100
0000
,
0110
0000
0000
0011
0000
0000
1001
0000
,
0001
0010
0100
1000
,
0100
1000
0100
0000
1000
0010
1000
0000
,
0001
0000
0010
0100
0000
0010
0000
0001
,
0100
0001
0100
0001
0100
0010
0100
0010
,
1000
0000
0100
0010
0000
0000
0001
0000
,
0101
0000
0001
0010
0000
0000
0100
0000
,
0110
0000
0100
1000
0000
0000
0001
0000
,
0101
0000
0001
1000
0000
0100
1000
0100
,
1000
0000
0000
0101
0000
0000
0010
0000
,
1010
0000
0000
1100
0000
0000
0100
0000
,
0010
0001
0100
0010
,
1000
0100
1000
0100
0010
0001
0010
0001
,
1000
0000
1000
0100
0000
0000
0001
0000
,
0100
0000
0100
0010
0000
0000
0001
0000
,
0100
0000
0100
0010
0000
0000
0100
0000
,
0001
0100
0001
0010
0000
0010
0100
0000
,
1100
0000
0000
0101
0000
0000
0010
0000
,
0100
0000
0001
0010
0000
0000
0100
0010
,
0100
0000
0010
0001
0010
0000
0001
0100
,
0000
0010
1000
0000
1100
0000
0110
0000
,
0011
0010
0100
1000
,
1100
0100
0010
0001
,
1001
1000
0010
0100
,
0110
0010
0100
0001
,
0101
0001
0010
0100
,
1000
0000
0100
1000
0100
0000
1000
0001
,
1000
0000
0010
1000
0010
0000
0100
0010
,
0100
0000
0001
0100
0001
0000
0010
0001
,
1000
0000
0000
0000
;

//---------------dance-single - ----------------
#NOTES:
     dance-single:
     :
     Beginner:
     2:
     0.207,0.278,0.121,0.000,0.000:
0000
0000
0000
0000
,
1000
0000
0001
0000
,
1000
0000
0010
0000
,
0100
0000
0001
0000
,
1000
0000
0001
0000
,
0010
0000
0100
0000
,
0010
0000
0001
0000
,
0100
0000
0010
0000
,
1000
1000
1000
1000
,
1000
0000
0001
0000
,
0100
0000
0010
0000
,
0100
0000
0001
0000
,
0010
0000
0100
0000
,
1001
0000
0100
0000
,
0110
0000
0010
0000
,
1000
0000
0100
0000
,
0010
0000
0001
0000
,
1000
0000
0000
0000
,
0100
0000
0000
0000
,
0010
0000
0000
0000
,
0001
0000
0000
0000
,
1000
0000
0000
0000
,
0010
0000
0000
0000
,
0100
0000
0000
0000
,
0001
0000
0000
0000
,
1000
0000
0100
0000
,
1000
0000
0100
0000
,
1000
0000
0010
0000
,
0100
0000
0010
0000
,
0100
0000
0001
0000
,
0010
0000
0100
0000
,
0010
0000
0001
0000
,
1000
0000
0100
0000
,
1000
0000
0001
0000
,
1000
0000
0001
0000
,
0100
0000
0001
0000
,
0010
0000
0100
0000
,
0010
0000
0001
0000
,
0100
0000
0010
0000
,
1000
0000
0100
0000
,
1000
0000
1001
0000
,
0110
0000
0100
0000
,
1000
0000
0010
0000
,
0100
0000
0010
0000
,
0110
0000
0000
0000
,
1001
0000
0000
0000
,
1001
0000
0110
0000
,
1001
0000
0010
0000
,
0100
0000
0010
0000
,
0001
0000
0100
0000
,
0010
0010
0010
0010
,
0010
0000
1000
0000
,
0010
0000
0100
0000
,
0001
0000
0100
0000
,
0010
0000
0100
0000
,
0001
0000
0010
0000
,
0110
0000
0100
0000
,
1000
0000
0001
0000
,
0100
0100
0100
0000
,
0010
0000
0100
0000
,
0001
0000
0010
0000
,
0001
0000
1000
0000
,
0100
0000
0110
0000
,
0010
0000
1001
0000
,
1000
0000
0110
0000
,
0100
0000
0001
0000
,
0010
0000
0100
0000
,
0010
0000
0000
0000
,
0001
0000
0000
0000
,
1000
0000
0000
0000
,
0100
0000
0100
0000
,
1000
0000
1000
0000
,
0010
0000
0010
0000
,
0100
0000
0100
0000
,
0001
0001
0001
0001
,
0001
0000
0000
0000
;
