#TITLE:STOP;
#SUBTITLE:;
#ARTIST:3rd Coast;
#TITLETRANSLIT:;
#SUBTITLETRANSLIT:;
#ARTISTTRANSLIT:;
#CREDIT:Xythar;
#BANNER:STOP.png;
#BACKGROUND:STOP-bg.png;
#LYRICSPATH:;
#CDTITLE:cdtitle.png;
#MUSIC:STOP.ogg;
#OFFSET:0.359;
#SAMPLESTART:36.478;
#SAMPLELENGTH:11.840;
#SELECTABLE:YES;
#BPMS:0.000=90.000,20.000=162.000;
#STOPS:84.000=1.111
,89.000=1.111
,94.000=1.111
,99.001=0.185
,100.001=0.185
,100.501=0.185
,101.501=0.185
,102.501=0.185
,103.001=0.185
,232.000=1.111
;
#BGCHANGES:0.535=STOP.avi=1.000=1=1=0,
99999=-nosongbg-=1.000=0=0=0 // don't automatically add -songbackground-
;

//---------------dance-single - ----------------
#NOTES:
     dance-single:
     :
     Hard:
     8:
     0.537,0.549,0.308,0.139,0.010: // measure 1
0000
0000
0000
0000
,  // measure 2
0000
0000
0000
0000
,  // measure 3
0000
0000
0000
0000
,  // measure 4
0000
0000
0000
0000
,  // measure 5
0000
0000
0000
0000
,  // measure 6
1001
0000
0010
1000
0001
0000
0010
0100
,  // measure 7
0000
1000
0000
0001
0100
0000
0010
0000
,  // measure 8
1001
0000
0100
0010
0001
0000
1000
0010
,  // measure 9
0000
0100
0000
0001
1000
0000
0011
0000
,  // measure 10
0100
1000
0010
0100
0001
0010
0100
0000
,  // measure 11
1000
0010
0100
0010
1000
0001
0010
0000
,  // measure 12
0100
1000
0001
1000
0010
0100
0001
0000
,  // measure 13
1000
0100
1000
0100
0010
0001
0010
0001
,  // measure 14
2000
0000
0010
3010
0000
0100
0001
0010
,  // measure 15
0200
0000
1000
1300
0001
0100
0000
0010
,  // measure 16
1000
0001
0010
0001
1000
0010
0100
0010
,  // measure 17
2000
0000
0100
3100
0010
0001
0000
0100
,  // measure 18
0020
0000
1000
1030
0001
0010
0000
1000
,  // measure 19
0010
0000
0001
0100
0010
1000
0000
0001
,  // measure 20
1000
0000
0100
0010
0100
0010
0001
0100
,  // measure 21
0020
0001
0100
1030
,  // measure 22
1001
0000
0001
0100
0010
0100
0001
0010
,  // measure 23
0100
1000
1001
0000
0001
0100
1000
0100
,  // measure 24
0001
0010
0100
1000
1001
0000
1000
0100
,  // measure 25
0010
0001
0100
0010
1000
0001
1001
0000
,  // measure 26
1100
0101
0000
0110
0000
0011
1010
0000
,  // measure 27
0001
0000
0100
0000
0010
0000
0000
1000
0000
0000
0100
0000
0010
0000
0100
0000
,  // measure 28
1000
0000
0001
0000
1000
0010
0100
0000
,  // measure 29
1000
0000
0100
0010
0000
1000
0001
0000
,  // measure 30
0010
0100
0010
0100
1000
0001
1000
0001
,  // measure 31
1000
0100
0011
0000
0001
0100
1010
0000
,  // measure 32
0001
0010
1100
0000
1000
0010
0101
0000
,  // measure 33
0010
0100
1001
0000
0100
0010
1001
0000
,  // measure 34
1000
0001
0110
0000
0001
1000
0110
0000
,  // measure 35
0001
0000
0100
0000
0010
0000
0000
0000
1000
0000
0000
0001
0000
0000
1000
0000
,  // measure 36
0100
1000
0010
0000
0100
0001
0010
0000
,  // measure 37
0100
1000
0010
0000
0100
0001
1000
0000
,  // measure 38
0001
0010
0001
0010
0100
1000
0100
1000
,  // measure 39
0010
0100
1001
0000
0100
0010
1001
0000
,  // measure 40
1000
0010
0101
0000
1000
0100
1001
0000
,  // measure 41
0100
1000
0101
0000
0010
0001
1010
0000
,  // measure 42
0001
0010
1100
0000
0001
0100
1001
0000
,  // measure 43
0100
0000
1000
0000
0001
0100
0010
0000
,  // measure 44
2000
3200
0320
0032
,  // measure 45
1003
0000
0010
0000
0100
0001
1000
0000
,  // measure 46
0100
0000
1000
0010
0100
0001
0010
0100
,  // measure 47
1000
0001
0100
0001
1000
0010
1000
0001
,  // measure 48
1000
0100
1000
0001
0010
0001
1000
0010
,  // measure 49
0100
0001
0010
0100
1000
0010
0100
0001
,  // measure 50
1000
0100
0010
0001
0100
0010
1000
0001
,  // measure 51
0020
0000
0000
0100
0130
0000
1000
0010
,  // measure 52
0000
0100
0000
0001
0010
0000
1100
0000
,  // measure 53
0101
0000
0010
1000
0002
0000
0010
0013
,  // measure 54
0000
0100
0000
1000
0020
0000
0100
0130
,  // measure 55
0001
0010
0100
1000
0010
0100
0001
0000
,  // measure 56
1000
0001
0100
0001
1000
0100
1000
0000
,  // measure 57
0001
0100
1000
0100
0001
0010
0100
0000
,  // measure 58
1000
0010
1000
0010
0100
0001
0100
0001
,  // measure 59
2002
3003
0000
0000
0000
0000
0000
0000
;

//---------------dance-single - ----------------
#NOTES:
     dance-single:
     :
     Medium:
     6:
     0.415,0.492,0.269,0.289,0.000: // measure 1
0000
0000
0000
0000
,  // measure 2
0000
0000
0000
0000
,  // measure 3
0000
0000
0000
0000
,  // measure 4
0000
0000
0000
0000
,  // measure 5
0000
0000
0000
0000
,  // measure 6
1001
0000
0000
0001
0100
0000
0010
0000
,  // measure 7
1000
0100
0000
1000
0010
0000
0100
0000
,  // measure 8
1001
0000
0000
0100
1000
0000
0001
0000
,  // measure 9
0000
1000
0000
0001
0100
0000
0010
1000
,  // measure 10
0000
0001
1000
0000
1001
0000
1100
0000
,  // measure 11
0000
1000
0010
0000
1010
0000
0101
0000
,  // measure 12
0000
0001
0010
0000
1100
0000
0101
0000
,  // measure 13
1000
0000
1000
0000
0001
0100
0001
0100
,  // measure 14
0010
0000
1000
0100
0000
1000
0010
0000
,  // measure 15
0100
0000
0001
0010
0000
0000
0100
0000
,  // measure 16
1001
1000
0010
0100
,  // measure 17
0001
0000
0010
0100
0000
0000
1000
0000
,  // measure 18
1010
0000
0001
0100
0000
0000
0010
0000
,  // measure 19
1000
0000
0001
0010
0000
0000
0100
0000
,  // measure 20
1000
0000
0001
0100
0001
0000
1000
0000
,  // measure 21
0020
0000
0000
0030
,  // measure 22
1001
0001
0010
0100
,  // measure 23
1000
1001
1000
0010
,  // measure 24
0100
0001
1001
1000
,  // measure 25
0010
0100
0010
2000
,  // measure 26
0001
3001
0000
0020
0000
0100
0130
0000
,  // measure 27
1000
0000
0001
0000
0100
0010
0100
0000
,  // measure 28
0001
1000
1100
0101
,  // measure 29
1000
0010
0100
0001
,  // measure 30
0010
1001
0100
1001
,  // measure 31
0001
0100
0010
0000
1000
0100
0010
0000
,  // measure 32
0001
1000
0010
0000
0100
0001
1000
0000
,  // measure 33
0010
1000
0100
0000
0010
0001
0100
0000
,  // measure 34
0010
1000
0001
1000
0010
0000
0100
0000
,  // measure 35
1001
1000
0010
0100
,  // measure 36
0001
0000
0010
0000
0001
1000
0001
0000
,  // measure 37
1000
0010
0100
0001
,  // measure 38
1000
1100
0001
0101
,  // measure 39
1000
0010
0100
0000
0001
0010
0100
0000
,  // measure 40
1000
0001
0100
0000
0010
1000
0001
0000
,  // measure 41
1000
0100
0001
0000
0001
0100
1000
0000
,  // measure 42
0001
0100
1000
0000
1000
0100
0001
0000
,  // measure 43
2000
0000
0000
0000
0001
3100
0000
0000
,  // measure 44
0020
2030
3200
0320
,  // measure 45
0032
0000
0000
0000
0100
0013
0000
0000
,  // measure 46
0000
2000
3200
0320
,  // measure 47
0032
0203
0320
2030
,  // measure 48
3200
0302
0203
2300
,  // measure 49
3020
0032
0023
2030
,  // measure 50
3002
0023
0230
0000
,  // measure 51
1300
0000
0000
0001
0100
0000
0010
0000
,  // measure 52
1000
0001
0000
1000
0100
0000
0010
0000
,  // measure 53
1001
0000
0000
0001
0100
0000
0010
1000
,  // measure 54
0000
0001
0000
1000
0100
0000
1001
0000
,  // measure 55
0000
0001
0100
0000
0010
1000
0010
0000
,  // measure 56
0000
1000
0100
0000
0010
0001
0010
0000
,  // measure 57
0000
0100
0010
0000
0001
1000
0001
0000
,  // measure 58
1001
1100
0110
0011
,  // measure 59
2002
3003
0000
0000
0000
0000
0000
0000
;

//---------------dance-single - ----------------
#NOTES:
     dance-single:
     :
     Easy:
     4:
     0.254,0.289,0.199,0.030,0.000: // measure 1
0000
0000
0000
0000
,  // measure 2
0000
0000
0000
0000
,  // measure 3
0000
0000
0000
0000
,  // measure 4
0000
0000
0000
0000
,  // measure 5
0000
0000
0000
0000
,  // measure 6
1000
0000
0001
0001
,  // measure 7
0000
1000
0010
0010
,  // measure 8
1000
0000
0100
0100
,  // measure 9
0000
1000
0010
0010
,  // measure 10
0000
0100
0001
0100
,  // measure 11
0000
0010
1000
0010
,  // measure 12
0000
1000
0100
1000
,  // measure 13
0001
0001
0001
0001
,  // measure 14
0001
0000
1000
0000
,  // measure 15
0010
0100
0010
0100
,  // measure 16
0010
0000
1000
0000
,  // measure 17
0001
0100
0001
0000
,  // measure 18
1000
0000
0100
0000
,  // measure 19
0010
0001
0010
0001
,  // measure 20
0010
0000
0001
0000
,  // measure 21
2000
0000
3000
0000
,  // measure 22
1001
0000
0100
0010
,  // measure 23
0100
0110
0000
0001
,  // measure 24
1000
0001
1001
0000
,  // measure 25
0100
0010
0100
0001
,  // measure 26
2000
3000
0000
0001
0000
0200
0300
0000
,  // measure 27
0010
1000
0010
0000
,  // measure 28
0000
0001
0100
0100
,  // measure 29
0010
0000
1000
0000
,  // measure 30
0001
0001
0001
0001
,  // measure 31
1000
1001
0000
0110
,  // measure 32
0000
1001
0000
0110
,  // measure 33
0000
1100
0000
0101
,  // measure 34
0000
1100
0000
0101
,  // measure 35
0001
0100
0010
0010
,  // measure 36
1000
0100
1000
1000
,  // measure 37
0001
0000
1000
0000
,  // measure 38
0001
0001
0001
0001
,  // measure 39
0000
1001
0000
0110
,  // measure 40
0000
0101
0000
1100
,  // measure 41
0000
0011
0000
1010
,  // measure 42
0000
1001
0000
0110
,  // measure 43
0001
0000
1000
0000
,  // measure 44
0010
0100
0010
1000
,  // measure 45
0001
0000
0100
0000
,  // measure 46
0000
0010
1000
0100
,  // measure 47
0010
0001
0100
0010
,  // measure 48
0100
0001
0010
0100
,  // measure 49
1000
0001
1000
0001
,  // measure 50
0100
0010
1000
0001
,  // measure 51
1000
0000
0001
0000
,  // measure 52
1000
1000
1000
0000
,  // measure 53
0010
0000
0100
0000
,  // measure 54
0001
0001
0001
0000
,  // measure 55
1000
0100
1000
0010
,  // measure 56
0000
0100
0001
0010
,  // measure 57
0000
0001
1000
0010
,  // measure 58
0100
0100
0100
0100
,  // measure 59
1001
0000
0000
0000
;
