#TITLE:STICKY, TRICKY AND BANG;
#SUBTITLE:;
#ARTIST:STICKY TRICKY AND BANG;
#TITLETRANSLIT:;
#SUBTITLETRANSLIT:;
#ARTISTTRANSLIT:;
#CREDIT:Xythar;
#BANNER:STICKY, TRICKY AND BANG BN.png;
#BACKGROUND:STICKY, TRICKY AND BANG BG.png;
#LYRICSPATH:STICKY, TRICKY AND BANG.lrc;
#CDTITLE:SUPER EUROBEAT.png;
#MUSIC:STICKY, TRICKY AND BANG.mp3;
#OFFSET:-0.448;
#SAMPLESTART:73.827;
#SAMPLELENGTH:15.995;
#SELECTABLE:YES;
#BPMS:0.000=147.000;
#STOPS:;
#BGCHANGES:;

//---------------dance-single - ----------------
#NOTES:
     dance-single:
     :
     Easy:
     4:
     0.264,0.263,0.019,0.000,0.000:
0000
0000
0000
0000
,
1000
0000
0000
0000
,
0001
0000
0000
0000
,
1000
0010
0100
0001
,
0010
0100
0010
0001
,
0100
0000
0010
0010
,
1000
0000
0100
0100
,
0010
0000
0001
0001
,
0100
0000
0001
0001
,
0010
0000
0100
0000
,
1000
0100
0010
0001
,
1000
0100
1000
0010
,
0100
0000
0101
0000
,
0001
0000
0010
0000
,
0001
0100
0010
0000
,
1000
0000
0100
0000
,
0010
0100
1000
0000
,
0001
0000
0100
0000
,
0010
0100
0001
0000
,
0010
0100
0010
0001
,
0100
0000
0000
0000
,
0010
0010
0010
0010
,
0000
1000
1000
0000
,
0100
0100
0100
0100
,
0000
0010
0010
0000
,
0001
0001
0001
0001
,
0000
0100
0100
0000
,
0010
1000
0100
0010
,
0001
1000
0001
1000
,
0001
0001
0010
0100
,
0010
0010
0001
0100
,
0010
1000
0100
1000
,
0010
1000
0100
1000
,
0001
0001
0100
0100
,
0010
0010
1000
1000
,
0100
0010
0100
0010
,
0100
0000
1000
1000
,
0010
0100
0001
0000
,
0100
0010
1000
0000
,
0100
0010
0100
0000
,
1000
0010
1000
0001
,
1000
1000
0100
0000
,
0010
0010
0001
0000
,
0100
0010
0100
0010
,
1000
0100
0010
0000
,
0001
0100
0010
1000
,
0100
0010
0001
0000
,
1000
0001
0010
0001
,
0100
1000
0100
0001
,
1000
0100
1000
0001
,
0100
0010
1000
0100
,
1000
0010
1000
0010
,
0100
0001
0010
0000
,
0100
0000
1000
0000
,
0001
0010
0100
0000
,
1000
0000
0010
0000
,
0100
0001
0010
0000
,
0100
0000
1000
0000
,
0010
0100
0001
0000
,
0010
0100
0010
0001
,
1000
1000
0001
0001
,
1001
0000
0000
0000
;

//---------------dance-single - ----------------
#NOTES:
     dance-single:
     :
     Medium:
     7:
     0.464,0.409,0.105,0.077,0.139:
0000
0000
0000
0000
,
1001
0000
1000
0100
,
0010
0000
0001
1000
,
0100
1100
0100
0110
,
0010
0001
0010
0000
0001
0100
0001
0000
,
1000
0000
0000
0100
0000
0000
0010
0000
0001
0000
0100
0000
0000
0000
0010
0000
,
0100
0000
0000
0001
0000
0000
0010
0000
0001
0000
0000
1000
0000
0000
0001
0000
,
0100
0000
0000
0010
0000
0000
1000
0000
0100
0000
0000
1000
0000
0000
0010
0000
,
0100
0000
0000
0001
0000
0000
1000
0000
0100
0000
0010
0000
0100
0000
0010
0000
,
0001
0000
0000
0100
0000
0000
0010
0000
0100
0000
0001
0000
0000
0000
0010
0000
,
0001
0011
0010
0110
,
1000
0100
0010
0000
0001
0100
0010
0000
,
1000
0100
0000
2002
0000
0000
0000
3003
,
1000
0000
0000
0001
0000
0000
0100
0000
0010
0000
0100
0000
0000
0000
0000
0000
,
0001
0010
0100
0010
0001
0000
1000
0000
,
0010
0000
0000
0100
0000
0000
0001
0000
0010
0000
0100
0000
0000
0000
0000
0000
,
1000
0000
0000
0010
0000
0000
0100
0000
0001
0000
0000
0000
1000
0000
0000
0000
,
0001
0000
0000
0100
0000
0000
0010
0000
0100
0000
0001
0000
0000
0000
0000
0000
,
1000
0100
0001
0100
1000
0000
0010
0000
,
0100
0000
0000
0001
0000
0000
0001
0000
1000
0000
0000
0100
0000
0000
0100
0000
,
1000
0010
0100
0000
0001
1000
0100
0000
,
1000
0000
0100
0000
0010
0001
0100
0000
,
0010
1000
0100
1000
0001
0100
0000
0001
,
0010
0000
0100
0000
1000
0010
0100
0000
,
0001
1000
0100
1000
0001
0000
1000
0100
,
0010
0000
0001
0000
0100
0001
0010
0000
,
0100
0010
0001
0100
0010
1000
0000
0001
,
0000
0010
0100
0000
0010
0000
0100
1000
,
0010
0100
0010
0000
0100
0001
0100
0001
,
1000
0000
0100
0000
0010
0000
0100
0010
,
0001
0000
0010
0001
0000
0100
0000
0000
,
0001
1000
0100
1000
0000
0000
0001
0100
,
0010
0100
0000
0001
0010
0000
0100
0000
,
0010
0000
0001
0000
0100
0000
0010
1000
,
0100
0000
1000
0010
0000
0100
0000
0000
,
0001
0010
0100
0000
0100
0010
0001
0000
,
0100
0001
0000
0202
0000
0000
0000
0303
,
1000
0000
0000
0001
0000
0000
0010
0000
0001
0000
0100
0000
0000
0000
0001
0000
,
0100
0000
0000
1000
0000
0000
0100
0000
0001
0000
0000
0000
1000
0000
0100
0000
,
0010
0000
0000
0001
0000
0000
0100
0000
0010
0000
0000
0000
0100
0000
0010
0000
,
1000
0000
0100
1000
0000
0010
0000
0000
,
0001
0000
0000
0010
0000
0000
1000
0000
0100
0000
1000
0000
0000
0000
0001
0000
,
0100
0000
0000
0010
0000
0000
0100
0000
0001
0000
0000
0000
0000
0000
0000
0000
,
1000
0100
0010
0000
0100
0010
0001
0000
,
1000
0001
0000
2002
0000
0000
0000
3003
,
0001
0000
0000
0010
0000
0000
0001
0000
0100
0000
0010
0000
0000
0000
1000
0000
,
0100
0000
0000
0010
0000
0000
0001
0000
0100
0000
0000
0000
0010
0000
0000
0000
,
0100
0000
0000
0001
0000
0000
1000
0000
0100
0000
0000
0000
0010
0000
0100
0000
,
0010
0001
0100
0010
0000
1000
0000
0000
,
0001
0000
0000
0010
0000
0000
0001
0000
1000
0000
0100
0000
0000
0000
1000
0000
,
0010
0000
0000
0100
0000
0000
0010
0000
1000
0000
0000
0000
0001
0000
0000
0000
,
1000
0100
0001
0000
0001
0100
1000
0000
,
0010
0100
0000
0220
0000
0000
0000
0330
,
1000
0000
0000
0001
0000
0000
1000
0000
0010
0000
0100
0000
0000
0000
0000
0000
,
0010
1000
0100
1000
0001
0000
1001
0000
,
1000
0000
0000
0100
0000
0000
1000
0000
0001
0000
0100
0000
0000
0000
0000
0000
,
0001
0000
0000
0010
0000
0000
0100
0000
1000
0000
0000
0000
1100
0000
0000
0000
,
1000
0000
0000
0010
0000
0000
0100
0000
0001
0000
0100
0000
0000
0000
0000
0000
,
0010
1000
0100
1000
0010
0000
1000
0000
,
0100
0000
0000
0010
0000
0000
0010
0000
0001
0000
0000
0100
0000
0000
0100
0000
,
0010
1000
0010
1000
0001
1000
0100
1000
,
0100
0000
0000
0000
;

//---------------dance-single - ----------------
#NOTES:
     dance-single:
     :
     Hard:
     9:
     0.681,0.671,0.345,0.115,0.349: // measure 1
0000
0000
0000
0000
,  // measure 2
1000
0000
0000
0100
0000
0000
0010
0000
0001
0000
0100
0000
0001
0000
0010
0000
,  // measure 3
0100
0000
0000
1000
0000
0000
0010
0000
0100
0000
0001
0000
0100
0000
0010
0000
,  // measure 4
0110
0101
1001
1100
,  // measure 5
1000
0100
1000
0000
0001
0000
0100
0000
1000
0000
0100
0000
0001
0000
1000
0000
,  // measure 6
0100
0000
0000
0010
0000
0000
0100
0000
1000
0000
0001
1000
0000
0000
0100
0000
,  // measure 7
0010
0000
0001
0010
0000
0000
0100
0000
1000
0000
0001
0100
0000
0000
0010
0000
,  // measure 8
0100
0000
0001
1000
0000
0000
0100
0000
0001
0000
0100
0010
0000
0001
0000
0100
,  // measure 9
0010
0000
1000
0010
0000
0000
0100
0000
0001
0000
0010
0000
0001
0000
0100
0000
,  // measure 10
0010
0000
1000
0010
0000
0000
1000
0000
0100
0000
1000
0001
0000
0000
0100
0000
,  // measure 11
0110
1010
1001
0101
,  // measure 12
1000
0100
0001
0100
1000
0010
0001
0010
,  // measure 13
1000
1020
0000
0200
0000
0000
0000
0330
,  // measure 14
0001
0000
0010
0001
0000
0000
1000
0000
0100
0000
0010
0000
0000
0000
0100
0000
,  // measure 15
1000
0100
1000
0100
0010
0001
0010
0001
0100
0000
0010
0000
0100
0000
0001
0000
,  // measure 16
0010
0000
0100
0010
0000
0000
0001
0000
0100
0000
0010
0000
0000
0000
0100
0000
,  // measure 17
0001
0000
1000
0100
0000
0100
1000
0000
0010
0000
0100
0001
0000
0000
0100
0000
,  // measure 18
0001
0000
1000
0100
0000
0000
1000
0000
0001
0000
0100
0000
0000
0000
0010
0000
,  // measure 19
1000
0010
1000
0010
0100
0001
0100
0001
0010
0000
0000
0000
0001
0000
0010
0000
,  // measure 20
0100
0000
1000
0100
0000
0100
1000
0000
0001
0000
0100
0001
0000
0001
0100
0000
,  // measure 21
0020
0100
0100
1030
,  // measure 22
1100
0000
0110
0000
1000
0001
1001
0000
,  // measure 23
0001
0010
0100
1000
0010
0100
0001
1000
,  // measure 24
1001
0000
0011
0000
0010
0100
0110
0000
,  // measure 25
0100
1000
0001
0100
0010
0100
0001
0010
,  // measure 26
0011
0000
0110
0000
0100
1000
1100
0000
,  // measure 27
1000
0100
0010
0001
0100
0010
1000
0010
,  // measure 28
0100
0001
0100
0001
1000
0100
0010
0001
,  // measure 29
0100
0001
0100
0000
0001
0000
0010
0001
0010
0000
0100
0000
1000
0000
0010
0000
,  // measure 30
1000
0100
0001
0100
1000
0000
0001
0100
,  // measure 31
0010
1000
0100
2000
0000
3010
0000
0000
,  // measure 32
0100
0001
1000
0100
0010
0100
1000
0001
,  // measure 33
0100
0010
0100
0001
1000
0100
1000
0010
,  // measure 34
1000
0010
0100
0010
1000
0000
0001
0010
,  // measure 35
0100
1000
0001
0200
0000
0310
0000
0000
,  // measure 36
1000
0100
0010
0100
1000
0100
0010
0100
,  // measure 37
1000
1002
0000
0200
0000
0000
0000
0303
,  // measure 38
0101
0000
0000
0110
0000
0000
1000
0000
0010
0000
1010
0000
0000
0000
0100
0000
,  // measure 39
0101
0000
0000
0010
0000
0000
0100
0000
1100
0000
0000
0110
0000
0000
0011
0000
,  // measure 40
0001
0000
0100
0001
0000
0000
0100
0000
0010
0000
1000
0000
0100
0000
0010
0000
,  // measure 41
0001
0100
0010
0200
0000
0301
0000
0000
,  // measure 42
1001
0000
0000
0011
0000
0000
0100
0000
1000
0000
1100
0000
0000
0000
0100
0000
,  // measure 43
0110
0000
0000
0010
0000
0000
0001
0000
0101
0000
0000
0110
0000
0000
1010
0000
,  // measure 44
1000
0100
1000
0010
0100
0010
0100
0001
,  // measure 45
0010
0210
0000
2000
0000
0000
0000
3300
,  // measure 46
1000
0000
0100
0010
0000
0000
0100
0000
1000
0000
0001
0000
1001
0000
1000
0000
,  // measure 47
0010
0000
0100
0010
0000
0000
0100
0000
0001
0000
0010
0000
0100
0000
1000
0000
,  // measure 48
0001
0000
0100
0001
0000
0000
1000
0000
0001
0000
1000
0001
1000
0001
1000
0000
,  // measure 49
0001
0000
0100
0000
0010
0000
1000
0000
0100
0010
0100
0010
0001
0010
0001
0000
,  // measure 50
0100
0000
0001
0100
0000
0100
0001
0000
1000
0000
0100
0000
1000
0000
0010
0000
,  // measure 51
0100
0000
0001
0100
0000
0100
0001
0000
0010
0000
0100
0000
0010
0000
0001
0000
,  // measure 52
1000
0010
0001
0010
1000
0100
0001
0100
,  // measure 53
1000
1002
0000
0020
0000
0000
0000
0033
,  // measure 54
0100
0000
1000
0100
0000
0100
1000
0000
0001
0000
0100
0000
0010
0000
0100
0000
,  // measure 55
0001
0010
0001
0010
0100
0010
0100
0010
0001
0000
1000
0000
0100
0000
0010
0000
,  // measure 56
0100
0000
1000
0001
0000
0001
1000
0000
0010
0000
0100
0000
0001
0000
0010
0000
,  // measure 57
0001
0000
0010
0001
0000
0001
0100
0000
0010
0000
1000
0000
0100
0000
0010
0000
,  // measure 58
0100
0000
1000
0010
0000
0010
1000
0000
0010
0000
0100
0000
0001
0000
1000
0000
,  // measure 59
0100
0010
0100
0010
0100
1000
0100
1000
0010
0000
0100
0000
0001
0000
1000
0000
,  // measure 60
0001
0000
1000
0100
0000
0100
0010
0000
0001
0000
0100
0010
0000
0010
1000
0000
,  // measure 61
0001
0010
1000
0010
0001
0100
1000
0100
,  // measure 62
0001
0000
0000
0000
;

//---------------dance-single - ----------------
#NOTES:
     dance-single:
     :
     Beginner:
     1:
     0.168,0.172,0.029,0.000,0.000:
0000
0000
0000
0000
,
0001
0000
0000
0000
,
0100
0000
0000
0000
,
0010
0010
0010
0010
,
0000
0000
0000
0000
,
1000
0000
0100
0000
,
1000
0000
0010
0000
,
0100
0000
0010
0000
,
1000
0000
0001
0000
,
0010
0000
0100
0000
,
1000
1000
1000
1000
,
0000
0000
0001
0000
,
0010
0000
0001
0000
,
1000
0000
0100
0000
,
1000
0000
0010
0000
,
0100
0000
0001
0000
,
0100
0000
0010
0000
,
1000
0000
0100
0000
,
0010
0000
0001
0000
,
1000
0000
0001
0000
,
1000
0000
0000
0000
,
0100
0100
0100
0100
,
0000
0000
0000
0000
,
0010
0010
0010
0010
,
0000
0000
0000
0000
,
0001
0001
0001
0001
,
0000
0000
0000
0000
,
1000
0000
0010
0000
,
0100
0000
0000
0000
,
0001
0000
1000
0000
,
0100
0000
1000
0000
,
0010
0000
0100
0000
,
0010
0000
0100
0000
,
0001
0000
1000
0000
,
0100
0000
0010
0000
,
0100
0000
0100
0000
,
0010
0000
0110
0000
,
0001
0000
1000
0000
,
0100
0000
1000
0000
,
0010
0010
0010
0000
,
0100
0000
0001
0000
,
1000
0000
0100
0000
,
0010
0000
0100
0000
,
1000
0000
0010
0000
,
0100
0000
1001
0000
,
0100
0000
0010
0000
,
0100
0000
1000
0000
,
0001
0000
0100
0000
,
0010
0000
0100
0000
,
0001
0000
0010
0000
,
0100
0000
1000
0000
,
0001
0000
0100
0000
,
0001
0000
0110
0000
,
1000
0000
0100
0000
,
1000
1000
1000
0000
,
0001
0000
0100
0000
,
0001
0001
0001
0000
,
0100
0000
0010
0000
,
1000
1000
1000
0000
,
0100
0000
0010
0000
,
0100
0000
0000
0000
;
