#TITLE:STELLAR WIND;
#SUBTITLE:;
#ARTIST:L.E.D.;
#TITLETRANSLIT:;
#SUBTITLETRANSLIT:;
#ARTISTTRANSLIT:;
#CREDIT:Xythar;
#BANNER:STELLAR WIND.png;
#BACKGROUND:STELLAR WIND-bg.png;
#LYRICSPATH:;
#CDTITLE:jubeat.png;
#MUSIC:STELLAR WIND.ogg;
#OFFSET:-0.685;
#SAMPLESTART:75.678;
#SAMPLELENGTH:12.000;
#SELECTABLE:YES;
#BPMS:0.000=160.000,132.000=80.000,148.000=160.000;
#STOPS:179.750=1.500
;
#BGCHANGES:;

//---------------dance-single - ----------------
#NOTES:
     dance-single:
     :
     Hard:
     9:
     0.646,0.650,0.186,0.017,0.570:
0000
0000
0000
0000
,
0001
1000
0100
1000
0001
1000
0100
1000
,
0001
1000
0100
1000
0001
0100
1000
0100
,
0001
1000
0010
1000
0001
1000
0010
1000
,
0001
0100
0010
0100
0001
1000
0100
1000
,
0001
0100
1000
0100
0001
0100
1000
0100
,
0001
0100
1000
0100
0001
0010
0100
1000
,
0010
0100
1000
0100
0010
0100
0001
1000
,
1001
0000
0000
1100
0000
0000
0101
0000
0000
1010
0000
0000
0011
0000
0100
0000
,
1000
0000
0000
1000
0000
0000
0010
0000
0000
0100
0000
0000
0001
0000
0010
0000
,
0001
0000
0000
1000
0000
0000
1000
0000
0010
0000
0000
0100
0000
0000
0100
0000
,
0001
0000
0000
0010
0000
0000
0100
0000
0000
1000
0000
0000
0001
0000
0100
0000
,
0010
0000
0000
1000
0000
0000
0100
0000
0000
1000
0000
0000
0001
0000
0100
0000
,
0010
0000
0000
1000
0000
0000
0001
0000
0000
0010
0000
0000
0001
0000
1000
0000
,
0010
0000
0000
0100
0000
0000
0100
0000
0001
0000
0000
0010
0000
0000
0010
0000
,
0100
1000
0010
0100
1000
0100
0010
0100
,
0101
0000
0000
1100
0000
0000
1001
0000
0001
0100
0000
0010
1000
0000
0001
0000
,
1000
0000
0100
0010
0000
0100
0010
0000
0001
1000
0000
0001
1000
0000
0010
0000
,
0100
0000
0001
0010
0000
0001
0010
0000
0100
1000
0000
0100
1000
0000
0001
0000
,
0100
0000
0000
0010
0000
0000
0010
0000
1000
0000
0000
0100
0000
0000
0100
0000
,
0010
0000
0000
0001
0000
0000
0001
0000
1000
0000
0000
0010
0000
0000
0100
0000
,
0001
0000
1000
0010
0000
1000
0010
0000
0100
0001
0000
0100
0001
0000
1000
0000
,
0010
0000
0100
0010
0000
0100
0010
0000
0100
0001
0000
0100
0001
0000
1000
0000
,
0100
0000
0000
0010
0000
0000
0010
0000
0001
0000
0000
0100
0000
0000
0100
0000
,
0010
0000
0000
1000
0000
0000
1000
0000
0001
0010
0001
0000
1000
0000
0010
0000
,
0100
0000
0001
0100
0000
0001
0100
0000
0010
1000
0000
0010
1000
0000
0001
0000
,
0010
0000
0100
0010
0000
0100
0010
0000
0001
0100
0000
0001
0100
0000
0010
0000
,
1000
0000
0000
0100
0000
0000
0010
0000
0001
0000
0000
0100
0000
0000
0010
0000
,
1000
0000
0000
0001
0000
0000
0010
0000
0001
0000
0000
1000
0000
0000
0010
0000
,
0100
1000
0100
0010
1000
0100
1000
0010
,
0100
1000
0100
0010
0100
0001
0010
0100
,
1001
0000
0000
1100
0000
0000
0101
0000
0010
1000
0000
0001
0000
1000
0100
0000
,
0010
0000
0001
0000
0100
0000
0010
0000
1000
0010
1000
0000
0001
0010
0001
0000
,
1000
0000
0000
0100
0000
0000
0010
0000
0000
0001
0000
0000
0100
0000
0000
0010
,
1000
0000
0000
0001
0000
0000
0010
0000
0000
0100
0000
0000
1000
0000
0000
0000
,
0001
0000
0000
0100
0000
0000
1000
0000
0000
0100
0000
0000
0001
0000
0000
1000
,
0100
0000
0000
0010
0000
0000
0001
0000
0000
0100
0000
0000
0010
0000
0000
1000
,
0100
1000
0010
0000
0100
0000
0001
0010
,
0100
0010
0001
0000
1000
0000
0001
0100
,
0010
1000
0100
0000
0010
0000
0001
0100
,
0010
0100
0001
0000
1000
0000
0100
0010
,
1001
0000
0100
0000
1000
0000
0010
0100
,
1001
0000
0100
0000
0010
0000
0001
0100
,
1010
0000
1000
0100
0011
0000
0100
1000
,
0001
0100
1000
0100
0001
0010
0100
1000
,
0001
0000
0000
1000
0000
0000
0100
0000
0000
0010
0000
0000
0001
0000
0000
0100
,
0000
0000
0010
0000
0000
1000
0000
0000
0001
0000
0000
0001
0000
0000
1000
0000
,
0010
0000
0000
0100
0000
0000
1000
0000
0000
0100
0000
0000
0001
0000
0000
1000
,
0000
0000
0100
0000
0000
1000
0000
0000
0010
0000
0000
0010
0000
0000
0100
0000
,
0001
0000
0000
0010
0000
0000
0100
0000
0000
1000
0000
0000
0001
0000
0000
0100
,
0000
0000
0010
0000
0000
0100
0000
0000
0001
0000
0000
0001
0000
0000
1000
0000
,
0010
0000
0000
0100
0000
0000
0001
0000
0000
0010
0000
0000
0100
0000
0000
1000
,
0000
0000
0001
0000
0000
0100
0000
0000
0010
0000
1000
0000
0001
0000
0010
0000
,
0100
0000
1000
0001
0000
0001
1000
0000
0001
0100
0000
0100
0001
0000
1000
0010
,
0000
0010
1000
0000
0001
0010
0000
0010
0001
0000
1000
0000
0010
0000
0100
0000
,
0001
0000
0010
0100
0000
0100
1000
0000
1000
0010
0000
0010
1000
0000
1000
0100
,
0000
0100
0010
0000
0010
0001
0000
0001
0010
0000
0100
0000
1000
0000
0001
1000
,
0001
0000
1000
0010
0000
0010
1000
0000
1000
0100
0000
0100
0010
0000
0010
0001
,
0000
0001
1000
0000
1000
0100
0000
0100
1000
0000
0001
0000
0100
0000
0010
0000
,
1000
0100
0010
0001
1000
0010
0100
0001
,
0010
0100
1000
0001
0100
0010
1000
0001
,
1000
0100
0000
1000
0001
0000
0100
0010
0000
1000
0010
0000
0100
0000
0001
0000
,
1001
0000
1100
0000
0001
0100
0010
1000
,
0100
0010
0000
0100
1000
0000
0001
0100
0000
0001
0010
0000
0100
0000
1000
0000
,
1001
0000
1010
0000
0001
0100
0010
1000
,
0001
0010
0000
0100
1000
0000
0001
0100
0000
0010
1000
0000
0100
0000
0010
0000
,
1001
0000
0110
0000
1000
0100
0010
0001
,
1000
0010
1000
0010
0100
0000
0001
0010
0001
0010
0100
0000
1000
0001
1000
0000
,
0001
0100
0000
0010
1000
0000
0001
0010
0000
0100
1000
0000
0100
0000
0010
0000
,
2002
0000
0000
0000
,
3003
0000
0000
0000
;

//---------------dance-single - ----------------
#NOTES:
     dance-single:
     :
     Challenge:
     12:
     1.000,1.000,0.186,0.017,1.000:
0000
0000
0000
0000
,
1000
0100
1000
0100
0010
0000
0001
0000
1000
0010
1000
0010
0100
0000
1000
0000
,
0100
0001
0100
0001
1000
0000
0001
0000
0010
0100
0010
0100
1000
0000
0001
0000
,
1000
0010
0100
0010
1000
0000
0001
0010
0100
0010
0001
1000
0001
0000
1000
0010
,
1000
0000
0000
0000
0000
0000
0001
0000
0000
0010
0000
0000
0001
0000
0000
0000
0000
0000
1000
0000
0000
0100
0000
0000
0010
0000
0000
0100
0000
0000
1000
0000
0000
0000
0000
0000
0001
0000
0000
1000
0000
0000
0001
0000
1000
0000
0001
0000
,
1000
0100
0010
0001
1000
0000
0001
0100
0010
1000
0100
0010
0001
0000
1000
0000
,
0001
0010
0100
0010
0001
0000
1000
0010
0100
0010
1000
0000
0001
0010
0001
0000
,
1000
0100
0010
0001
1000
0010
0100
0001
1000
0100
0010
0100
1000
0001
1000
0000
,
1010
0000
0000
0000
0000
0000
0000
0000
0000
0101
0000
0000
0000
0000
0000
0000
0000
0000
1100
0000
0000
0000
0000
0000
0000
0000
0000
0011
0000
0000
0000
0000
0000
0000
0000
0000
1000
0000
0100
0000
0010
0000
0001
0000
1000
0000
0100
0000
,
0010
0000
0001
0100
0000
0010
1000
0000
0001
0010
0000
0100
1000
0001
1000
0010
,
0100
0000
0000
1001
0000
0000
0100
0010
0100
0000
0000
1001
0000
0000
0001
0000
,
0100
0000
0010
1000
0000
0100
0010
0000
0100
1000
0000
0010
0100
0010
1000
0001
,
0010
0000
0000
0000
0000
0000
0000
0000
0000
1100
0000
0000
0000
0000
0000
0000
0000
0000
0001
0000
0000
0100
0000
0000
0001
0000
0000
0000
0000
0000
0000
0000
0000
1010
0000
0000
0000
0000
0000
0000
0000
0000
0001
0000
0100
0000
0010
0000
,
1000
0000
0001
0100
0000
0010
1000
0000
0001
0010
0000
0100
1000
0010
0100
0001
,
0010
0000
0000
1100
0000
0000
0001
0100
0010
0000
0000
1001
0000
0000
1000
0100
,
1000
0100
0010
0001
1000
0100
0010
0001
1000
0010
0100
0001
1000
0010
0100
0001
,
1000
0000
0000
0000
0000
0000
0000
0000
0000
0101
0000
0000
0000
0000
0000
0000
0000
0000
1001
0000
0000
0000
0000
0000
0100
0000
0000
0010
0000
0000
0000
0000
0000
0001
0000
0000
0100
0000
0000
0010
0000
0000
1000
0000
0100
0000
0010
0000
,
0001
0000
1000
0010
0000
0100
0001
0000
1000
0100
0000
0010
0001
1000
0010
1000
,
0001
0000
0010
0100
0000
1000
0010
0000
0100
0010
0000
1000
0100
0010
0001
0100
,
0010
0000
0100
0001
0000
1000
0100
1000
0010
0000
0100
0001
0000
0010
0100
1000
,
0010
0000
0000
0000
0000
0000
0100
0000
0000
0010
0000
0000
0000
0000
0000
1000
0000
0000
0100
0000
0000
0010
0000
0000
0001
0000
0000
0000
0000
0000
1000
0000
0000
0010
0000
0000
1000
0000
0000
0001
0000
0000
0010
0000
0100
0000
1000
0000
,
0001
0000
0100
0010
0000
1000
0010
0000
1000
0100
0000
1000
0010
0100
0010
1000
,
0001
0000
0010
0100
0000
1000
0010
0000
0100
0010
0000
1000
0100
1000
0001
0100
,
0010
0000
1000
0100
0000
1000
0010
1000
0001
0000
0100
0010
0000
1000
0100
1000
,
0010
0000
0000
0000
0000
0000
0100
0000
0000
0001
0000
0000
0000
0000
0000
1000
0000
0000
0100
0000
0000
1000
0000
0000
0001
0000
0000
0000
0000
0000
0100
0000
0000
0010
0000
0000
1000
0000
0000
0100
0000
0000
1000
0000
0100
0000
0010
0000
,
0001
0000
1000
0010
0000
0100
1000
0000
0100
0010
0000
1000
0100
1000
0001
0100
,
0010
0000
1000
0100
0000
0001
0100
0000
1000
0001
0000
1000
0010
1000
0001
0010
,
0001
0000
1000
0010
0000
0100
0001
0100
0010
0000
1000
0100
0000
0010
0001
1000
,
0001
0000
0000
0000
0000
0000
0100
0000
0000
0010
0000
0000
0000
0000
0000
1000
0000
0000
0100
0000
0000
1000
0000
0000
0010
0000
0000
0000
0000
0000
0100
0000
0000
0001
0000
0000
0010
0000
0000
0100
0000
0000
1000
0000
0001
0000
0010
0000
,
0100
1000
0001
1000
0010
1000
0001
1000
0100
1000
0001
1000
0010
1000
0001
1000
,
0001
0000
0000
0100
0000
0000
0010
0000
0000
1000
0000
0000
0001
0000
0000
0010
0000
0000
0100
0000
0000
1000
0000
0000
0001
0000
0000
0100
0000
0000
0010
0000
0000
1000
0000
0000
0001
0000
0000
0010
0000
0000
0100
0000
1000
0000
0001
0000
,
0010
0000
0000
0100
0000
0000
1000
0000
0000
0010
0000
0000
0100
0000
0000
0010
0000
0000
1000
0000
0000
0100
0000
0000
0010
0000
0000
0001
0000
0000
1000
0000
0000
0010
0000
0000
1000
0000
0000
0001
0000
0000
1000
0000
0100
0000
0010
0000
,
0001
0000
0000
0000
0000
0000
0000
0000
0000
0000
0000
0000
1000
0000
0000
0000
0000
0000
0000
0000
0000
0000
0000
0000
0010
0000
0000
0000
0000
0000
0000
0000
0000
0000
0000
0000
0100
0000
0000
0000
0000
0000
0000
0000
0000
0000
0000
0000
0010
0000
0000
0000
0000
0000
0000
0000
0000
0000
0000
0000
1000
0000
0000
0000
0000
0000
0000
0000
0000
0000
0000
0000
0001
0000
0000
0000
0000
0000
0000
0000
0010
0000
0000
0000
0000
0000
0000
0000
0100
0000
0000
0000
0000
0000
0000
0000
1000
0000
0000
0000
0000
0000
0000
0000
0001
0000
0000
0000
0000
0000
0000
0000
0010
0000
0000
0000
0000
0000
0000
0000
0100
0000
0000
0000
0000
0000
0000
0000
1000
0000
0000
0000
0000
0000
0000
0000
0001
0000
0000
0000
0000
0000
0000
0000
0010
0000
0000
0000
0000
0000
0000
0000
0000
0000
0000
0000
0100
0000
0000
0000
0000
0000
0000
0000
0000
0000
0000
0000
1000
0000
0000
0000
0000
0000
0001
0000
0000
0000
0000
0000
1000
0000
0000
0000
0000
0000
0001
0000
0000
0000
0000
0000
,
1000
0000
0000
1000
0000
0000
0010
0000
0000
0010
0000
0000
0100
0000
0000
0100
0000
0000
0001
0000
0000
0001
0000
0000
1000
0000
0000
1000
0000
0000
0010
0000
,
0100
0000
0000
0100
0000
0000
0001
0000
0000
0001
0000
0000
0010
0000
0000
0010
0000
0000
0100
0000
0000
0100
0000
0000
1000
0000
0000
1000
0000
0000
0001
0000
,
0100
0000
0000
0100
0000
0000
0010
0000
0000
0010
0000
0000
1000
0000
0000
1000
0000
0000
0100
0000
0000
0100
0000
0000
0010
0000
0000
0010
0000
0000
0001
0000
,
1000
0000
0000
0000
0000
0000
0000
0000
0000
0000
0000
0000
0000
0000
0000
0000
0000
0000
1000
0000
0000
0000
0000
0000
0000
0000
0000
0000
0000
0000
0000
0000
0000
0000
0000
0000
0010
0000
0000
0000
0000
0000
0000
0000
0000
0000
0000
0000
0000
0000
0000
0000
0000
0000
0010
0000
0000
0000
0000
0000
0000
0000
0000
0000
0000
0000
0000
0000
0000
0000
0000
0000
1000
0000
0000
0000
0000
0000
0000
0000
0000
0000
0000
0000
0000
0000
0000
0000
0000
0000
1000
0000
0000
0000
0000
0000
0000
0000
0000
0000
0000
0000
0000
0000
0000
0000
0000
0000
0001
0000
0000
0000
0000
0000
0000
0000
0000
0000
0000
0000
0000
0000
0000
0000
0000
0000
0001
0000
0000
0000
0000
0000
0000
0000
0000
0000
0000
0000
0000
0000
0000
0000
0000
0000
1000
0000
0000
0000
0000
0000
0000
0000
0000
0000
0000
0000
0000
0000
0000
0000
0000
0000
1000
0000
0000
0000
0000
0000
0000
0000
0000
0000
0000
0000
0000
0000
0000
0000
0000
0000
1000
0000
0000
0000
0100
0000
0000
0000
0010
0000
0000
0000
,
0001
0000
0001
1000
0000
1000
0010
0000
0010
0100
0000
0100
0001
0000
0001
0010
,
0000
0010
0100
0000
0100
1000
0000
1000
0001
0000
0001
0100
0000
0100
0010
0000
,
1000
0000
0001
0100
0000
0010
0100
0000
0001
0010
0000
0001
1000
0000
0100
0010
,
0000
0100
1000
0000
0010
0100
0000
0010
1000
0000
0001
0010
0000
0001
1000
0000
,
0001
0100
0010
1000
0001
0010
0100
1000
0001
0100
0010
1000
0001
0010
0100
1000
,
0001
0100
0001
1000
0100
1000
0001
0010
0001
1000
0010
1000
0001
0100
0010
0100
,
0001
0000
0000
1000
0000
0000
0100
0000
0000
1000
0000
0000
0001
0000
0000
0010
0000
0000
0001
0000
0010
0000
0100
0000
1000
0000
0000
0010
0000
0000
0100
0000
0000
0010
0000
0000
1000
0000
0000
0100
0000
0000
1000
0000
0100
0000
0010
0000
,
0001
1000
0010
0100
0010
0100
0001
0100
0010
1000
0001
0010
0001
1000
0010
0100
,
0001
0000
0100
0010
0000
1000
0100
0000
1000
0010
0000
0100
0010
0100
0001
0010
,
0100
0000
1000
0010
0000
0100
1000
0000
0100
0001
0000
1000
0100
1000
0001
0100
,
0010
0000
1000
0100
0000
0010
0001
0000
1000
0010
0000
0100
1000
0100
0010
0100
,
0001
0000
0000
0000
0000
0000
0010
0000
0000
0100
0000
0000
0000
0000
0000
1000
0000
0000
0010
0000
0000
0000
0000
0000
0100
0000
0000
0010
0000
0000
0000
0000
0000
1000
0000
0000
0100
0000
0000
1000
0000
0000
0010
0000
0100
0000
0001
0000
,
1000
0000
0100
0010
0000
0001
0100
0000
0010
1000
0000
0001
0010
0001
1000
0010
,
1000
0000
0001
0100
0000
0010
1000
0000
0001
0010
0000
0100
1000
0001
1000
0010
,
1000
0000
0100
0010
0000
0001
0100
0000
0010
1000
0000
0001
0010
0001
1000
0100
,
0010
0000
0001
0100
0000
0001
0010
0000
0100
1000
0000
0001
0100
0010
1000
0100
,
0010
0001
1000
0001
0010
0000
0001
0100
0010
0100
0001
0000
1000
0100
0010
0100
,
1000
0000
0001
0100
0010
1000
0100
0000
1000
0010
0100
0001
0100
0010
0100
0001
,
1000
0100
0010
0100
1000
0000
0001
0100
0010
0100
0001
0000
1000
0001
0010
0001
,
1000
0000
0000
0000
0000
0000
0001
0000
0000
1000
0000
0000
0100
0000
0000
1000
0000
0000
0001
0000
0000
0000
0000
0000
1000
0000
0000
0010
0000
0000
0100
0000
0000
0010
0000
0000
1000
0000
0000
0100
0000
0000
1000
0000
0100
0000
0010
0000
,
0001
1000
0010
0100
0010
1000
0100
0010
0001
1000
0010
1000
0001
1000
0100
0010
,
0001
0100
0010
0100
0001
0010
0001
1000
0010
0100
0001
0010
0100
1000
0001
0100
,
0010
1000
0100
0010
0001
1000
0010
1000
0001
0010
0100
1000
0001
0100
0010
1000
,
0001
0000
0010
0000
0001
0000
1000
0000
0100
0000
0010
0000
0001
0000
1000
0000
0010
0000
1000
0000
0001
0000
1000
0000
0001
0100
0001
0100
0010
1000
0010
1000
,
0001
0010
0100
1000
0010
0000
1000
0100
0010
0001
0100
0000
0010
1000
0001
1000
,
1001
0000
0000
0000
0000
0000
0000
0000
0000
1100
0000
0000
0000
0000
0000
0000
0000
0000
0001
0000
0000
0000
0000
0000
1010
0000
0000
0000
0000
0000
0100
0000
0000
0000
0000
0000
0011
0000
0000
0000
0000
0000
0001
0000
0010
0000
0100
0000
,
1000
0010
0100
0001
0010
0000
0100
1000
0010
0100
0001
0000
1000
0010
0100
0010
,
0110
0000
0000
0000
0000
0000
0000
0000
0000
0101
0000
0000
0000
0000
0000
0000
0000
0000
1000
0000
0000
0000
0000
0000
0011
0000
0000
0000
0000
0000
1000
0000
0100
0000
0010
0000
0001
0000
0000
1000
0000
0000
0001
0000
0010
0000
0100
0000
,
1000
0100
0010
0001
0010
0100
1000
0001
1000
0010
0100
0001
0100
0010
1000
0001
,
0010
0100
1000
0010
0100
0001
1000
0001
1000
0010
0100
0001
0010
0100
1000
0001
,
1000
0000
0100
0000
0010
0000
0001
0000
0100
0000
0000
0000
0001
0000
0100
0000
0010
0000
1000
0000
0100
0000
0000
0000
1000
0000
0010
0000
1000
0001
0010
0100
,
1000
0010
0000
0100
0001
0000
1000
0100
0000
0010
0001
0000
1100
0000
0101
0000
,
2002
0000
0000
0000
,
3003
0000
0000
0000
;

//---------------dance-single - ----------------
#NOTES:
     dance-single:
     :
     Medium:
     8:
     0.571,0.532,0.608,0.135,0.059:
0000
0000
0000
0000
,
0001
0100
0010
1000
0100
0000
0011
0000
,
0100
1000
0010
0000
0100
0001
0010
0001
,
1000
0000
0102
0000
1000
0000
0013
0100
,
1000
0000
0001
0100
1000
0100
0001
0000
,
1000
0100
0010
0100
1000
0000
0101
0000
,
0010
1000
0001
0000
1100
0000
0101
0000
,
0010
1000
0001
1000
0100
1000
0010
1000
,
0001
0000
0000
0100
0000
0000
0010
0000
0000
1000
0000
0000
1001
0000
0000
0000
,
0001
0100
1000
0100
0001
0000
1000
0100
,
0010
0000
0001
0000
1100
0000
0001
0100
,
0010
1000
0100
0010
0001
0000
1000
0010
,
0100
0000
2001
0000
0100
0000
3010
0100
,
0001
1000
0100
1000
0010
0000
0100
0001
,
0010
0000
0100
1000
0010
0000
0100
0000
,
1001
0001
0100
0010
1000
0100
1000
0010
,
0100
0000
0000
0001
0000
0000
1000
0000
0000
0000
0001
0000
1000
0000
0000
0000
,
1001
0000
1100
0000
0001
0100
0010
0000
,
1100
0000
0011
0000
0100
1000
0010
0000
,
0102
0013
2100
3010
,
0100
0001
0010
0001
1000
0010
1000
0000
,
0101
0000
1010
0000
0001
0010
0100
0000
,
1010
0000
0101
0000
1000
0100
0010
0000
,
2100
3001
0102
1003
,
0210
0000
0301
0000
1000
0100
0010
0001
,
1001
0000
1010
0000
0100
0001
0010
0000
,
1100
0000
1001
0000
0010
0100
0001
0000
,
0020
0000
0130
1000
0020
0000
0130
0001
,
0020
0000
0130
1000
0001
0000
1100
0000
,
0001
0100
0010
0100
0001
0010
0100
1000
,
0001
0100
1000
0100
0001
0010
0100
1000
,
0001
0000
0000
1000
0000
0000
0010
0000
0100
0000
0000
0001
0000
0000
1000
0000
,
0100
0000
0000
0010
0000
0000
0001
0000
1000
0000
0000
0000
1001
0000
0000
0000
,
0020
0000
0000
0100
0000
0000
0100
0000
0000
1000
0000
0000
1030
0000
0000
0000
,
0200
0000
0000
0001
0000
0000
0001
0000
0000
1000
0000
0000
1300
0000
0000
0000
,
0002
0000
0000
0100
0000
0000
0100
0000
0000
0010
0000
0000
0013
0000
0000
0000
,
0200
0000
0000
1000
0000
0000
1000
0000
0000
0010
0000
0000
0310
0000
0000
0000
,
1000
0000
0001
0000
0100
0000
0010
1000
,
0001
0000
0010
0100
1000
0000
0000
0000
,
0001
0000
0100
0000
0010
0000
1000
0100
,
0010
0000
0001
0100
0010
0000
1000
0000
,
0101
0000
0010
1000
,
0110
0000
0001
0100
,
1010
0001
1100
0010
,
1001
1100
0101
1010
,
0001
0100
0010
0000
1001
0000
0100
0010
,
0001
0000
1010
0000
0011
0000
0100
1000
,
0010
0100
0001
0000
1100
0000
0001
0010
,
0100
0000
1010
0000
0101
0000
0010
1000
,
0100
0010
0001
0000
1010
0000
0001
0100
,
0010
0000
1100
0000
0011
0000
0100
1000
,
0010
0100
0001
0000
1010
0000
0001
0100
,
0010
1000
0100
1000
0010
0100
0001
1000
,
0010
0000
0101
0000
1100
0000
0001
0100
,
0010
0000
1100
0000
0011
0000
0100
1000
,
0010
0000
0100
0000
1001
0000
0100
1000
,
0010
0100
0001
0000
1100
0000
0101
0000
,
1010
0001
1000
0100
1000
0001
1000
0010
,
1000
0001
1000
0100
1000
0010
1000
0001
,
1000
0100
0010
0001
1000
0010
0100
0001
,
1000
0100
0001
0100
1000
0100
0001
0100
,
1000
0000
0101
0000
0010
1000
0100
0010
,
1001
1100
0101
1010
,
0001
0100
0010
1000
0100
1000
0010
0100
,
1001
1010
0011
1100
,
0001
0100
0010
1000
0100
1000
0010
0100
,
1001
1100
0101
1010
,
0001
0100
0010
1000
0100
1000
0010
0100
,
1001
1100
0101
1010
,
2002
0000
0000
0000
,
3003
0000
0000
0000
;

//---------------dance-single - ----------------
#NOTES:
     dance-single:
     :
     Easy:
     5:
     0.350,0.414,0.363,0.051,0.000:
0000
0000
0000
0000
,
2000
0100
0001
3010
,
0100
0001
0010
0001
,
2000
0010
0001
3100
,
0010
0100
0010
0100
,
0002
0100
1000
0013
,
0100
1000
0010
0100
,
0002
0010
1000
0103
,
1001
0110
1001
0110
,
0001
0000
0010
1000
,
0100
0100
1000
1000
,
0010
0100
0001
0010
,
0001
0001
1000
1000
,
0010
0100
0010
0100
,
0001
0010
0100
1000
,
0001
1000
0001
1000
,
1001
0110
1001
0110
,
0001
0100
0010
1000
,
0001
0010
0100
1000
,
0001
0001
0100
0100
,
0010
0010
1000
1000
,
0001
0010
0100
1000
,
0001
0100
0010
1000
,
0001
0001
1000
1000
,
0010
0010
0100
0100
,
0001
0010
0100
1000
,
0010
0100
0010
1000
,
0100
0100
0010
0010
,
0001
0001
1000
1000
,
0001
0100
0010
1000
,
0001
0010
0100
1000
,
1001
0000
0110
0000
,
1001
0110
1001
0110
,
1001
0000
0000
1000
,
0001
0000
0000
0100
,
0010
0000
0000
1000
,
0100
0000
0000
0010
,
0001
0100
0010
0000
,
1000
0100
0010
0000
,
0001
1000
0010
0000
,
0100
0001
1000
0000
,
1001
0010
0100
0010
,
1001
0100
0010
0100
,
1001
0000
1100
0000
,
0101
1000
0010
0100
,
0001
0010
0001
0100
,
0010
0100
0001
0000
,
1000
0100
1000
0010
,
0100
0001
0010
0000
,
0100
1000
0010
0100
,
0001
0010
0100
0000
,
1000
0010
1000
0001
,
0010
0100
1000
0001
,
1001
0001
0100
0010
,
1000
0100
1000
0000
,
1001
1000
0010
1000
,
0001
1000
1001
0000
,
0101
0000
1100
0000
,
0101
0000
1100
0000
,
0001
0100
0010
1000
,
1001
0110
1001
0110
,
0001
0010
0100
1000
,
1001
0000
0110
0000
,
1000
0100
0010
0001
,
1001
0000
0110
0000
,
0010
0100
0001
1000
,
0110
0000
1001
0000
,
1100
0011
0101
1010
,
1001
0010
0100
0010
,
2002
0000
0000
0000
,
3003
0000
0000
0000
;

//---------------dance-single - ----------------
#NOTES:
     dance-single:
     :
     Beginner:
     2:
     0.203,0.266,0.093,0.118,0.000: // measure 1
0000
0000
0000
0000
,  // measure 2
2000
0000
0000
0000
,  // measure 3
0000
0000
3020
0000
,  // measure 4
0230
0000
0000
0000
,  // measure 5
0302
0000
2003
0000
,  // measure 6
3020
0000
0000
0000
,  // measure 7
0000
0000
0230
0000
,  // measure 8
0302
0000
0000
0000
,  // measure 9
1003
1000
1000
1000
,  // measure 10
1000
0000
0001
0000
,  // measure 11
0100
0000
0010
0000
,  // measure 12
1000
0000
0000
0000
,  // measure 13
0001
0000
0000
0000
,  // measure 14
1000
0000
0000
0000
,  // measure 15
0010
0000
0100
0000
,  // measure 16
0001
0001
0001
0001
,  // measure 17
0001
0000
1000
0000
,  // measure 18
0001
0000
1000
0000
,  // measure 19
0010
0000
0100
0000
,  // measure 20
0001
0000
0001
0000
,  // measure 21
0010
0000
0010
0000
,  // measure 22
0100
0000
1000
0000
,  // measure 23
0001
0000
1000
0000
,  // measure 24
0010
0000
0010
0000
,  // measure 25
0100
0000
0100
0000
,  // measure 26
0001
0000
0010
0000
,  // measure 27
0100
0000
1000
0000
,  // measure 28
0010
0000
0010
0000
,  // measure 29
0100
0000
0100
0000
,  // measure 30
0001
0001
0001
0000
,  // measure 31
1000
1000
1000
0000
,  // measure 32
0010
0010
0010
0000
,  // measure 33
0100
0100
0100
0000
,  // measure 34
0002
0000
0000
0000
,  // measure 35
2003
0000
0000
0000
,  // measure 36
3002
0000
0000
0000
,  // measure 37
2003
0000
0000
0000
,  // measure 38
3010
0000
0100
0000
,  // measure 39
0001
0000
0100
0000
,  // measure 40
0010
0000
1000
0000
,  // measure 41
0001
0000
1000
0000
,  // measure 42
0001
0001
0001
0000
,  // measure 43
1000
1000
1000
0000
,  // measure 44
0010
0010
0010
0000
,  // measure 45
0100
0100
0100
0000
,  // measure 46
0001
0000
1000
0000
,  // measure 47
0010
0000
1000
0000
,  // measure 48
0001
0000
0010
0000
,  // measure 49
0100
0000
1000
0000
,  // measure 50
0010
0000
0100
0000
,  // measure 51
0001
0000
1000
0000
,  // measure 52
0001
0000
0010
0000
,  // measure 53
0100
0000
1000
0000
,  // measure 54
0001
0000
0100
0000
,  // measure 55
0010
0000
1000
0000
,  // measure 56
0001
0000
0010
0000
,  // measure 57
0001
0000
1000
0000
,  // measure 58
0001
0001
0001
0000
,  // measure 59
1000
1000
1000
0000
,  // measure 60
0010
0010
0010
0000
,  // measure 61
0100
0100
0100
0000
,  // measure 62
1001
0000
1001
0000
,  // measure 63
0010
0010
0010
0000
,  // measure 64
0110
0000
0110
0000
,  // measure 65
1000
1000
1000
0000
,  // measure 66
1001
0000
0110
0000
,  // measure 67
0001
0001
0001
0000
,  // measure 68
0110
0000
1001
0000
,  // measure 69
0110
0000
1001
0000
,  // measure 70
2002
0000
0000
0000
,  // measure 71
3003
0000
0000
0000
;
