#TITLE:SPARK!;
#SUBTITLE:;
#ARTIST:SILVER FOX PRODUCTIONS feat.星野奏子;
#TITLETRANSLIT:;
#SUBTITLETRANSLIT:;
#ARTISTTRANSLIT:SILVER FOX PRODUCTIONS feat. Kanako Hoshino;
#CREDIT:Steps by Xythar, graphics by MazriM TaiM;
#BANNER:SPARK!.png;
#BACKGROUND:SPARK!-bg.png;
#LYRICSPATH:;
#CDTITLE:beatmania IIDX.png;
#MUSIC:SPARK!.mp3;
#OFFSET:0.791;
#SAMPLESTART:23.250;
#SAMPLELENGTH:12.000;
#SELECTABLE:YES;
#BPMS:0.000=126.000;
#STOPS:;
#BGCHANGES:2.000=SPARK!.avi=1.000=0=0=1,
99999=-nosongbg-=1.000=0=0=0 // don't automatically add -songbackground-
;

//---------------dance-single - ----------------
#NOTES:
     dance-single:
     :
     Hard:
     6:
     0.403,0.410,0.256,0.143,0.005: // measure 1
0000
0000
0000
0000
,  // measure 2
1000
0001
0010
0000
,  // measure 3
0001
1000
0010
0100
,  // measure 4
0001
0000
0010
0100
1000
0000
0010
0000
,  // measure 5
0100
0001
0100
0001
0100
0000
0010
0000
,  // measure 6
0110
1000
0100
0010
,  // measure 7
0000
0100
0010
0001
,  // measure 8
0000
0010
0100
1000
,  // measure 9
1000
0100
1000
0100
0010
0001
0010
0001
,  // measure 10
1001
0010
0100
1000
,  // measure 11
0100
0001
0100
0110
,  // measure 12
0001
0000
0100
0010
1000
0000
0100
0000
,  // measure 13
1000
0001
1000
0001
1000
0000
1001
0000
,  // measure 14
1000
0010
0100
0000
0001
0000
0010
0000
,  // measure 15
0100
1000
0010
0000
0100
0000
0001
0000
,  // measure 16
0100
1000
0100
0000
0001
0000
0010
0000
,  // measure 17
0100
1000
0001
1001
,  // measure 18
0010
0000
0001
0000
1000
0100
0001
0000
,  // measure 19
0100
0000
1000
0000
0001
0100
1000
0000
,  // measure 20
0100
0000
0001
0000
0010
0001
0100
0000
,  // measure 21
0001
1000
0010
1010
,  // measure 22
1000
0000
0100
0000
0010
0001
0010
0000
,  // measure 23
0100
0000
0010
0000
0001
0100
0001
0000
,  // measure 24
0100
0000
0010
0000
1000
0100
0100
0000
,  // measure 25
1000
0100
0010
0001
0010
0100
1000
0000
,  // measure 26
0000
1100
0110
0011
,  // measure 27
0101
0000
0010
0000
0100
0001
0010
0100
,  // measure 28
1000
0000
0010
0000
0100
0001
0010
0001
,  // measure 29
0100
0000
0010
0000
0100
0001
0010
0000
,  // measure 30
0000
0011
0110
1100
,  // measure 31
1001
0000
1000
0000
0100
1000
0100
0000
,  // measure 32
0010
0000
0001
0010
0100
0000
1000
0100
,  // measure 33
0010
0000
0100
0010
0001
1001
0000
0000
,  // measure 34
1010
0000
1000
0001
0010
0000
0100
0000
,  // measure 35
1000
0001
0010
0100
1000
0000
1100
0000
,  // measure 36
1000
0100
0010
0001
0010
0000
0011
0000
,  // measure 37
0001
0100
1000
0100
0001
0100
0010
0000
,  // measure 38
0110
0000
0100
0001
0100
0000
0010
0000
,  // measure 39
1000
0100
0010
0100
1000
0000
0010
0000
,  // measure 40
0110
0000
0000
0000
0101
0000
0000
0000
1001
0000
0000
1010
0000
0000
0110
0000
,  // measure 41
0000
0010
0001
0010
0001
0000
0010
0000
,  // measure 42
0200
1300
2000
3010
,  // measure 43
0020
0031
0002
0013
,  // measure 44
0020
0130
0200
1300
,  // measure 45
1000
0100
0001
0100
1000
0000
1001
0000
,  // measure 46
2000
3100
0200
0301
,  // measure 47
0002
0013
0020
1030
,  // measure 48
2000
3001
0002
0013
,  // measure 49
0100
1000
0001
1000
0010
0000
2000
0000
,  // measure 50
0002
0000
0000
0000
,  // measure 51
3003
0000
0000
0000
;

//---------------dance-single - ----------------
#NOTES:
     dance-single:
     :
     Medium:
     4:
     0.271,0.333,0.072,0.102,0.005:
0000
0000
0000
0000
,
1000
0000
0010
0000
,
1000
0000
0001
0000
,
0010
0100
1000
0000
,
0001
0100
0010
0000
,
1000
0000
0100
0000
,
0010
0000
0100
0000
,
1000
0000
0001
0000
,
0010
0100
0010
0001
,
1001
1000
0010
0000
,
1010
0010
0100
0001
,
0010
0100
1000
0000
,
0100
0010
0100
1000
,
1000
0100
0010
0100
,
1000
0010
0100
0010
,
1000
0001
0010
0001
,
0010
0100
1000
1001
,
0001
0000
0010
0001
,
0100
0000
0010
1000
,
0100
0000
1000
0100
,
0001
0000
0100
0000
0010
0000
0001
0010
,
0001
0000
0001
0010
,
1000
0000
1000
0010
,
0100
0000
0100
1000
,
0100
0000
0010
0000
0100
0001
0100
0000
,
1000
0200
0320
0032
,
0203
0000
0300
0000
1000
0100
1000
0000
,
0100
0001
0010
1000
,
0010
0000
0001
0000
0100
0000
0010
1000
,
0010
2000
3200
0320
,
0032
0003
1000
0000
,
0110
0000
1100
0000
,
1001
0000
0010
0001
0010
0100
0000
0000
,
1000
0100
0010
0000
,
0100
0010
0001
0000
,
0100
0010
0100
0010
,
1000
0000
0001
0000
1000
0001
1000
0000
,
0010
0000
0100
0000
,
0001
0000
0010
0001
0010
0000
0000
0100
,
1000
0000
0000
0000
0010
0000
0000
0000
0100
0000
0000
0001
0000
0000
0010
0000
,
0000
0000
0100
0000
0010
0000
0001
1000
,
0001
0100
0010
1000
,
0000
0100
0010
0001
,
0000
0100
1000
0100
,
0000
0000
0001
0100
0001
0000
0010
0000
,
0000
0001
0100
1000
,
0000
0001
0010
1000
,
0000
0010
0001
0100
,
0010
0100
0010
0000
1000
0000
0001
0000
,
2002
0000
0000
0000
,
3003
0000
0000
0000
;

//---------------dance-single - ----------------
#NOTES:
     dance-single:
     :
     Easy:
     1:
     0.136,0.154,0.051,0.061,0.000:
0000
0000
0000
0000
,
0001
0000
0010
0000
,
0001
0000
0100
0000
,
0010
0000
1000
0000
,
0100
0000
0000
0000
,
0010
0000
0100
0000
,
1000
0000
0100
0000
,
0010
0000
0001
0000
,
1000
0000
0100
0000
,
0010
0000
0010
0000
,
0000
0000
0001
0000
,
0100
0000
0010
0000
,
1000
0000
1000
0000
,
0010
0000
0000
0000
,
1001
0000
0000
0000
,
0110
0000
0000
0000
,
0001
0010
0001
0000
,
0000
0000
0010
0000
,
0100
0000
0010
0000
,
0001
0000
1000
0000
,
0100
0000
0010
0100
,
0010
0000
0001
0000
,
0100
0000
0010
0000
,
0100
0000
0001
0000
,
0010
0000
0100
0000
,
1001
0000
0000
0000
,
1001
0000
0000
0000
,
0010
0000
0100
0000
,
1000
0000
0100
0000
,
0010
0000
0000
0000
,
0110
0000
0000
0000
,
1000
0000
0001
0000
,
0010
0000
0000
0000
,
1000
0000
0001
0000
,
1000
0000
0100
0000
,
0010
0000
0100
0000
,
0010
0000
0001
0000
,
0000
0000
0100
0000
,
0010
0000
1000
0000
,
0001
0000
0100
0000
,
0010
0000
0000
1000
,
0200
0000
0300
0000
,
0020
0000
0030
0000
,
0001
0000
0100
0000
,
0001
0000
0010
0000
,
0020
0000
0030
0000
,
0200
0000
0300
0000
,
2000
0000
3000
0000
,
1000
0000
0100
0000
,
0020
0000
0000
0000
,
0030
0000
0000
0000
;

//---------------dance-single - ----------------
#NOTES:
     dance-single:
     :
     Beginner:
     1:
     0.097,0.126,0.072,0.000,0.000:
0000
0000
0000
0000
,
0010
0000
0000
0000
,
1000
0000
0000
0000
,
0100
0000
0010
0000
,
0001
0000
0000
0000
,
1000
0000
0000
0000
,
0001
0000
0000
0000
,
1000
0000
0100
0000
,
0010
0000
0000
0000
,
1001
0000
0000
0000
,
1000
0000
0000
0000
,
0100
0000
0000
0000
,
0010
0000
0100
0000
,
1000
0000
0000
0000
,
1000
0000
0000
0000
,
0001
0000
0000
0000
,
0001
0000
0000
1001
,
0000
0000
0000
0000
,
0100
0000
0000
0000
,
0010
0000
0000
0000
,
0001
0000
0010
0000
,
0100
0000
0000
0000
,
0010
0000
0000
0000
,
0100
0000
0000
0000
,
1000
0000
0100
0000
,
0010
0000
0000
0000
,
1001
0000
0000
0000
,
0010
0000
0100
0000
,
1000
0000
0000
0000
,
1001
0000
0000
0000
,
1001
0000
0000
0000
,
0001
0000
1000
0000
,
0010
0000
0000
0000
,
1000
0000
0000
0000
,
0010
0000
0000
0000
,
0100
0000
0000
0000
,
0001
0000
0100
0000
,
0010
0000
0000
0000
,
1000
0000
0000
0000
,
1001
0000
0000
0000
,
1001
0000
0000
0000
,
1000
0000
0000
0000
,
0001
0000
0000
0000
,
1000
0000
0000
0000
,
0001
0000
0010
0000
,
0100
0000
0000
0000
,
0010
0000
0000
0000
,
0100
0000
0000
0000
,
0010
0000
0100
0000
,
1000
0000
0000
0000
;
