#TITLE:琉球ランデブー;
#SUBTITLE:;
#ARTIST:亜熱帯マジ-SKA爆弾 feat. MAKI;
#TITLETRANSLIT:Ryukyu Rendezvous;
#SUBTITLETRANSLIT:;
#ARTISTTRANSLIT:Anettai Maji-SKA Bakudan feat. MAKI;
#CREDIT:Xythar;
#BANNER:Ryukyu Rendezvous.png;
#BACKGROUND:Ryukyu Rendezvous-bg.png;
#LYRICSPATH:;
#CDTITLE:gfdm.png;
#MUSIC:Ryukyu Rendezvous.mp3;
#OFFSET:-1.053;
#SAMPLESTART:58.250;
#SAMPLELENGTH:11.140;
#SELECTABLE:YES;
#BPMS:0.000=171.980;
#STOPS:;
#BGCHANGES:;

//---------------dance-single - ----------------
#NOTES:
     dance-single:
     :
     Hard:
     8:
     0.584,0.556,0.231,0.037,0.176:
0000
0000
0000
0000
,
1000
0001
0000
0000
0000
0000
0000
0010
,
0000
0100
0000
1000
0010
0000
0100
0000
,
0001
1000
0000
0000
0000
0000
0000
0100
,
0000
0010
0000
0001
1000
0000
0010
0000
,
0100
0011
0100
1010
,
0100
1001
0010
0101
,
1000
0110
0001
0110
,
1000
0000
0001
0000
1000
0100
0010
0001
,
1000
0010
0100
0001
0000
0010
0100
0010
,
0000
0001
0100
0010
0000
0010
1000
0000
,
0001
0010
0100
1000
0000
0010
0100
0001
,
0100
0000
0010
1000
0001
0000
1100
0000
,
0010
0100
0001
0100
0000
0010
1000
0001
,
0000
0010
0100
0010
0000
0001
1000
0000
,
0110
0000
0100
0001
0000
0001
1000
0100
,
0000
1100
0000
0011
0000
1000
0001
1000
,
0010
0100
0000
0001
0000
0010
0100
1000
,
0000
0010
0100
0001
0000
0001
1000
0000
,
0010
0100
0001
0100
0000
0010
1000
0001
,
1000
0000
0100
0010
0001
0000
1001
0000
,
0010
0100
0001
1000
0100
0000
1000
0001
,
0100
0000
0010
1000
0001
1000
0100
0000
,
2000
0000
0010
0000
3010
0000
0100
0001
,
0010
0000
0100
0000
1000
0000
0000
0000
0010
0000
0000
0100
0000
0000
0010
0000
,
1000
0000
0100
1000
0000
0001
1000
0001
,
1000
0000
0010
0100
0000
0001
0100
0001
,
0100
0000
0001
0000
0010
0100
1000
0000
,
0010
0100
0001
0000
1000
0000
0001
0000
,
1000
0010
0100
0010
0000
0100
1000
0100
,
0001
0000
0010
0100
0000
0100
0010
0000
,
0001
0000
1000
0000
0010
0100
0001
0000
,
1000
0000
0000
0100
0000
0000
0010
0000
0001
0000
0000
0100
0000
0000
0010
0000
,
1000
0000
0001
1000
0000
0100
0010
0100
,
0010
0000
0001
0100
0000
0010
0100
0010
,
1000
0100
0001
0100
,
1000
0001
0100
0000
0010
1000
0001
0000
,
0010
0000
0100
1000
0000
0001
0100
0010
,
0100
0000
0001
1000
0100
0000
0010
0000
,
1001
0010
0101
0010
,
1100
0000
0000
0000
,
0001
0010
0100
1000
0000
1000
0000
0110
,
0000
0101
0000
0010
1000
0001
0100
0000
,
0010
1000
0100
1000
0000
0001
0100
0010
,
0000
1100
0000
0011
0000
0100
1000
0001
,
0100
0010
1000
0100
0000
0010
0001
1000
,
0000
0010
0100
0001
0100
0000
1010
0000
,
0100
0010
0001
0100
0000
0010
1000
0001
,
0000
0000
0000
0011
0000
0000
0000
0000
0000
1100
0000
0000
0000
0000
0000
0001
0000
0000
1000
0000
0000
0000
1000
0000
,
0001
0000
0001
1000
0000
1000
0001
0000
0001
1000
0000
1000
,
0001
0000
0001
0100
0000
0100
0010
0000
0010
1000
0000
0010
,
1000
0000
0001
1000
0000
0100
0000
0000
0010
0001
0000
0001
,
0010
0000
0000
0100
0000
0000
0000
0000
1000
0001
0000
1000
,
0001
0000
0100
0001
0000
0010
0000
0000
0100
1000
0000
0100
,
1000
0000
0000
0001
0000
0000
0000
0000
0100
0010
0000
0100
,
0010
0000
1000
0010
0000
1000
0000
0000
0100
1000
0000
0100
,
1000
0000
0001
1000
0000
0010
0000
0000
0100
0001
0000
0001
,
0000
0000
1000
0100
0000
0100
0000
0000
1000
0010
0000
0010
,
0000
0000
0000
0000
0100
0000
0010
0000
0000
0000
0010
0000
0000
0000
0000
1000
0000
0000
0100
0000
0000
0010
0000
0000
,
0100
0010
0001
0100
0010
0000
1000
0010
,
0100
0001
0010
0100
0000
1000
0010
0100
,
0010
0100
0001
0010
0100
0000
1000
0001
,
0100
0000
1010
0000
0000
0100
0010
0100
,
0010
0000
0001
0100
0010
0000
0010
1000
,
0000
0001
1000
0001
0000
1000
0100
0010
,
0000
0001
0100
0010
0000
0101
0000
1010
,
0000
0001
1000
0001
2000
0000
0100
0000
,
3001
0000
0100
0010
0000
1000
0010
0100
,
0001
0000
0010
0000
1000
0000
0010
0001
,
1000
0000
0010
0100
0000
0001
1000
0100
,
1000
0001
0000
1000
0100
0010
0100
0010
,
0001
1000
0000
0010
0100
0001
1000
0100
,
1000
0001
0000
0100
0000
1000
0100
1000
,
0000
0100
0001
0100
0000
0001
0000
1000
,
0000
2002
0000
0000
0000
0000
0000
0000
,
0000
3003
0000
0000
0000
0000
0000
0000
;

//---------------dance-single - ----------------
#NOTES:
     dance-single:
     :
     Medium:
     6:
     0.421,0.486,0.250,0.203,0.074:
0000
0000
0000
0000
,
1001
0000
0000
0000
0000
0000
0000
0020
,
0000
0000
0230
0000
,
1300
0000
0000
0000
0000
0000
0000
0002
,
0000
0000
0203
0000
,
0310
1000
0010
1000
,
0100
0010
0100
0010
,
0001
0100
0010
1000
,
0001
0010
0100
1000
,
0001
0000
0000
0100
0000
0010
0000
0100
,
0000
0001
0000
0010
0000
0100
1000
0000
,
0010
0000
0000
0100
0000
0001
0000
1000
,
0000
0000
0001
0000
,
1000
0000
0000
0010
0000
0100
0000
0001
,
0000
0010
0000
0100
0000
1000
0010
0000
,
0200
0000
0000
0001
0000
0000
0301
0000
,
0000
1000
0000
0001
0000
1000
0000
0001
,
0100
0000
0000
0010
0000
1000
0000
0100
,
0000
0001
0000
0100
0000
1000
0100
0000
,
1000
0000
0000
0010
0000
0100
0000
0001
,
1000
0100
0011
0100
,
1000
0000
0000
0010
0000
0100
0000
0001
,
0000
1000
0000
0100
0000
1000
0001
0000
,
0200
0000
0000
0010
0000
0000
0310
0000
,
0000
2000
0000
0000
0000
0000
3000
0000
,
0200
0000
0000
0010
0000
0000
1000
0000
,
2300
0000
0000
0010
0000
0000
0001
0000
,
3002
0000
0000
1000
0000
0000
0100
0000
,
0103
0010
1000
0100
,
0021
0000
0000
0100
0000
0000
0001
0000
,
0032
0000
0000
0100
0000
0000
1000
0000
,
1003
0000
0000
0010
0000
0000
0100
0000
,
0001
0000
0000
0010
0100
0000
0000
0100
,
0020
0000
0000
0001
0000
0000
0100
0000
,
0230
0000
0000
1000
0000
0000
0010
0000
,
0320
0000
0000
0100
0000
0000
1000
0000
,
1030
0100
0010
0001
,
2001
0000
0000
0010
0000
0000
0100
0000
,
3200
0000
0000
0001
0000
0000
0010
0000
,
0310
0100
0110
0001
,
1001
0000
0000
0000
,
1001
0000
0000
0010
0000
0100
0000
1000
,
0000
1100
0000
0010
0100
0000
0001
0000
,
1000
0000
0000
0100
0000
0010
0000
0100
,
0000
1000
0000
0001
0000
1001
0000
1000
,
0001
0000
0000
0010
0000
0100
0000
0010
,
0000
1010
0000
0100
0001
0000
1000
0000
,
0100
0000
0000
0010
0000
0001
0000
1000
,
0000
1001
0000
1001
0000
0000
1100
0000
,
0001
0101
1000
1100
,
0001
0101
1000
0010
,
0010
0000
0100
0001
0000
0100
0000
0000
0000
0010
0000
0000
,
0010
1010
0000
0001
,
0001
0000
0010
0001
0000
0010
0000
0000
0000
0100
0000
0000
,
0100
1100
0000
1001
,
1001
0000
1000
0001
0000
1000
0000
0000
0000
0110
0000
0000
,
0110
0000
0100
0010
0000
0100
0000
0000
0001
0100
0000
0001
,
0000
0000
1000
0100
0000
1000
0000
0000
0001
1000
0000
0001
,
0000
0000
0000
0000
1000
0000
0001
0000
0000
0000
1000
0000
0000
0000
0000
0001
0000
0000
1000
0000
0000
0001
0000
0000
,
1000
0010
0200
0001
,
0301
0000
1000
0100
0000
0010
0100
0010
,
0100
1000
0002
0100
,
0103
0000
0010
0000
1010
0000
0100
0010
,
0100
0000
0010
0001
0010
0000
0001
1000
,
0000
0010
0000
0100
0000
0001
0000
1000
,
0000
0001
0000
1001
0000
0000
0000
0000
,
0000
0000
0020
0100
,
0100
0000
0000
0130
0000
1000
0000
0001
,
0000
1000
0000
0000
0010
0000
0100
0000
,
0001
0000
0000
1000
0000
0100
0000
1000
,
0000
0001
0000
0010
0100
0000
1000
0000
,
1001
0000
0000
0010
0100
0000
0001
0000
,
1001
0000
1000
0000
0000
0001
1000
0001
,
0000
1000
0001
1000
0000
0001
0000
1000
,
0000
2002
0000
0000
0000
0000
0000
0000
,
0000
3003
0000
0000
0000
0000
0000
0000
;

//---------------dance-single - ----------------
#NOTES:
     dance-single:
     :
     Easy:
     4:
     0.300,0.308,0.129,0.000,0.000: // measure 1
0000
0000
0000
0000
,  // measure 2
1000
0000
0000
0000
,  // measure 3
0001
0000
0010
0000
,  // measure 4
0100
0000
0000
0000
,  // measure 5
1000
0000
0010
0000
,  // measure 6
0100
0001
0100
0001
,  // measure 7
0100
0001
1000
0001
,  // measure 8
1000
0100
1000
0100
,  // measure 9
1000
0000
0001
0000
,  // measure 10
1000
0100
0010
0000
,  // measure 11
0100
1000
0001
0000
,  // measure 12
0100
0010
1000
0000
,  // measure 13
0100
0000
0010
0000
,  // measure 14
0001
0100
0010
0000
,  // measure 15
1000
0100
0010
0000
,  // measure 16
0001
1000
0100
1000
,  // measure 17
0001
0100
0010
1000
,  // measure 18
0100
0000
0010
0001
,  // measure 19
1000
0000
0010
1000
,  // measure 20
0001
0000
0100
0010
,  // measure 21
1000
0000
1001
0000
,  // measure 22
0100
0010
0001
0000
,  // measure 23
0001
0010
0100
0000
,  // measure 24
1000
0010
0100
0001
,  // measure 25
1000
0100
1000
0000
,  // measure 26
0001
0000
0000
1000
,  // measure 27
0001
0000
0000
0100
,  // measure 28
0010
0000
0100
0000
,  // measure 29
0001
0010
0100
1000
,  // measure 30
0010
0000
0000
0100
,  // measure 31
0001
0000
0000
1000
,  // measure 32
0100
0000
1000
0000
,  // measure 33
0010
0100
0001
0100
,  // measure 34
0010
0000
0000
1000
,  // measure 35
0100
0000
0000
1000
,  // measure 36
0010
0000
0000
0100
,  // measure 37
0001
1000
0100
1000
,  // measure 38
0010
0000
0000
0100
,  // measure 39
0001
0000
0000
0100
,  // measure 40
0110
0000
1001
0000
,  // measure 41
0110
0000
0000
0000
,  // measure 42
0100
1000
0001
0100
,  // measure 43
0010
0010
1000
0100
,  // measure 44
0010
0001
1000
0100
,  // measure 45
1000
0000
0000
0000
,  // measure 46
0001
0010
0100
1000
,  // measure 47
0010
0010
0100
0001
,  // measure 48
0100
0010
1000
0001
,  // measure 49
1000
0000
0000
1000
,  // measure 50
0001
1000
0001
1000
,  // measure 51
0001
1000
0001
1000
,  // measure 52
1000
1001
0000
0100
,  // measure 53
0100
0110
0000
0001
,  // measure 54
0001
0101
0000
0010
,  // measure 55
0010
1010
0000
0100
,  // measure 56
0100
0110
0000
0001
,  // measure 57
0001
1001
0000
0110
,  // measure 58
0000
1001
0000
1100
,  // measure 59
0000
0101
0000
0010
,  // measure 60
1000
0100
0010
0001
,  // measure 61
0100
0010
0000
1000
,  // measure 62
0100
0010
0001
0100
,  // measure 63
0010
0000
0100
0001
,  // measure 64
0001
1000
0100
1000
,  // measure 65
0001
0010
0100
1000
,  // measure 66
0010
0100
0001
0000
,  // measure 67
0000
0000
1000
0001
,  // measure 68
0001
0001
1000
0000
,  // measure 69
0010
0000
0100
0000
,  // measure 70
0001
0000
1000
0100
,  // measure 71
0010
0001
0100
0010
,  // measure 72
1000
0000
0100
0010
,  // measure 73
0001
0000
1000
0010
,  // measure 74
0100
0001
1000
0001
,  // measure 75
1000
0000
0000
0000
;

//---------------dance-single - ----------------
#NOTES:
     dance-single:
     :
     Beginner:
     2:
     0.181,0.274,0.092,0.000,0.000: // measure 1
0000
0000
0000
0000
,  // measure 2
1000
0000
0000
0000
,  // measure 3
0001
0000
1000
0000
,  // measure 4
0001
0000
0000
0000
,  // measure 5
0010
0000
0100
0000
,  // measure 6
0010
0000
0001
0000
,  // measure 7
0100
0000
0010
0000
,  // measure 8
1000
0000
0100
0000
,  // measure 9
1000
0000
0010
0000
,  // measure 10
0100
0000
0000
0000
,  // measure 11
0001
0000
1000
0000
,  // measure 12
0100
0000
0000
0000
,  // measure 13
1000
0000
0001
0000
,  // measure 14
1000
0000
0000
0000
,  // measure 15
0010
0000
0100
0000
,  // measure 16
0001
0000
1000
0000
,  // measure 17
0100
0000
0010
0000
,  // measure 18
0001
0000
0000
0000
,  // measure 19
1000
0000
0010
0000
,  // measure 20
0100
0000
0010
0000
,  // measure 21
1000
0000
0100
0000
,  // measure 22
1000
0000
0000
0000
,  // measure 23
0001
0000
0010
0000
,  // measure 24
0100
0000
0000
0000
,  // measure 25
1000
0000
0010
0000
,  // measure 26
0100
0000
0000
0000
,  // measure 27
0001
0000
0000
0000
,  // measure 28
1000
0000
0000
0000
,  // measure 29
0100
0000
1000
0000
,  // measure 30
0010
0000
0000
0000
,  // measure 31
0100
0000
0000
0000
,  // measure 32
0010
0000
0000
0000
,  // measure 33
1000
0000
0100
0000
,  // measure 34
0010
0000
0000
0000
,  // measure 35
0001
0000
0000
0000
,  // measure 36
0100
0000
0000
0000
,  // measure 37
0010
0000
1000
0000
,  // measure 38
0100
0000
1000
0000
,  // measure 39
0001
0000
1000
0000
,  // measure 40
1001
0000
1001
0000
,  // measure 41
1001
0000
0000
0000
,  // measure 42
0010
0000
0100
0000
,  // measure 43
0001
0001
0001
0000
,  // measure 44
1000
0000
0100
0000
,  // measure 45
1000
0000
0000
0000
,  // measure 46
0010
0000
0100
0000
,  // measure 47
0001
0001
0001
0000
,  // measure 48
1000
0000
0010
0000
,  // measure 49
0100
0000
0000
1000
,  // measure 50
0000
0001
0000
1000
,  // measure 51
0000
0001
0000
1000
,  // measure 52
0000
1001
0000
0001
,  // measure 53
0000
1001
0000
1000
,  // measure 54
0000
1001
0000
0001
,  // measure 55
0000
1001
0000
0010
,  // measure 56
0000
0110
0000
0100
,  // measure 57
0000
0110
0000
0010
,  // measure 58
0000
0110
0000
0100
,  // measure 59
0000
0001
0001
0000
,  // measure 60
1000
0000
0100
0000
,  // measure 61
1000
0000
0010
0000
,  // measure 62
0100
0000
0001
0000
,  // measure 63
1000
0000
0100
0000
,  // measure 64
0100
0000
0010
0000
,  // measure 65
0010
0000
0001
0000
,  // measure 66
0001
0000
1000
0000
,  // measure 67
0000
0000
0001
0000
,  // measure 68
0000
0000
0100
0000
,  // measure 69
0010
0000
1000
0000
,  // measure 70
0000
0000
0100
0000
,  // measure 71
0010
0000
0001
0000
,  // measure 72
1000
0000
0001
0000
,  // measure 73
1000
0000
0001
0000
,  // measure 74
1000
0000
0001
0000
,  // measure 75
1000
0000
0000
0000
;
