#TITLE:Robot;
#SUBTITLE:;
#ARTIST:Do As Infinity;
#TITLETRANSLIT:;
#SUBTITLETRANSLIT:;
#ARTISTTRANSLIT:;
#CREDIT:Xythar;
#BANNER:RobotAnim.avi;
#BACKGROUND:Robot-bg.png;
#LYRICSPATH:Robot.lrc;
#CDTITLE:daiseries.png;
#MUSIC:Robot.mp3;
#OFFSET:-11.034;
#SAMPLESTART:51.346;
#SAMPLELENGTH:12.000;
#SELECTABLE:YES;
#BPMS:0.000=122.000;
#STOPS:;
#BGCHANGES:-21.000=Robot.avi=1.000=1=1=0,
99999=-nosongbg-=1.000=0=0=0 // don't automatically add -songbackground-
;

//---------------dance-single - ----------------
#NOTES:
     dance-single:
     :
     Easy:
     3:
     0.200,0.207,0.027,0.020,0.000: // measure 1
0000
0000
0000
0000
,  // measure 2
1000
0000
0010
0000
,  // measure 3
0100
0000
0001
0000
,  // measure 4
1000
0000
0100
0000
,  // measure 5
0010
0001
0010
0100
,  // measure 6
0010
0000
0001
0000
,  // measure 7
0100
0000
0010
0000
,  // measure 8
1000
0000
0100
0000
,  // measure 9
1000
0010
0100
0001
,  // measure 10
1000
0000
0100
0000
,  // measure 11
1000
0010
0100
0000
,  // measure 12
0001
0000
1000
0000
,  // measure 13
0100
0010
0001
0010
,  // measure 14
0001
0000
1000
0000
,  // measure 15
0010
0000
0100
0000
,  // measure 16
0001
0100
0001
1000
,  // measure 17
0100
0010
0100
1000
,  // measure 18
0010
0000
0000
0100
0000
0001
0000
0100
,  // measure 19
0000
0001
0000
0000
1000
0000
0100
0000
,  // measure 20
0010
0000
0000
0001
0000
0100
0000
0002
,  // measure 21
0000
0000
0000
0000
0000
0003
0000
0000
,  // measure 22
1000
0100
0010
0000
,  // measure 23
0001
0100
0010
0000
,  // measure 24
1000
0000
0100
0000
,  // measure 25
1000
0010
0100
0001
,  // measure 26
1000
0000
0100
0000
,  // measure 27
0010
0001
0100
0000
,  // measure 28
0110
0000
1001
0000
,  // measure 29
1000
0001
1000
0001
,  // measure 30
1000
0000
0010
0000
,  // measure 31
0100
0000
0001
0000
,  // measure 32
1000
0100
1000
0010
,  // measure 33
0100
0001
0100
0010
,  // measure 34
1000
0000
0100
1000
,  // measure 35
0010
0000
0100
0001
,  // measure 36
0010
0000
0010
0000
,  // measure 37
0100
0100
0100
0100
,  // measure 38
1000
0000
1000
0010
,  // measure 39
0100
0000
0100
0001
,  // measure 40
1000
0000
1000
0010
,  // measure 41
0100
0001
0010
0100
,  // measure 42
1000
0000
1000
0010
,  // measure 43
0100
0000
0100
0001
,  // measure 44
0010
0000
0100
1000
,  // measure 45
0010
0100
0001
1000
,  // measure 46
0001
0000
0000
1000
0000
0010
0000
1000
,  // measure 47
0000
0010
0000
0000
1000
0000
0100
0000
,  // measure 48
0010
0000
0000
0001
0000
0010
0000
0002
,  // measure 49
0000
0000
0000
0000
0000
0003
0000
0000
,  // measure 50
1000
0010
0100
0000
,  // measure 51
0100
0001
0010
0000
,  // measure 52
0100
1000
0100
1000
,  // measure 53
0010
0100
0000
0001
,  // measure 54
0100
0010
1000
0000
,  // measure 55
1000
0100
0010
0000
,  // measure 56
0001
1000
0010
1000
,  // measure 57
0001
0100
0000
0001
,  // measure 58
0010
0100
1000
0000
,  // measure 59
1000
0010
0100
0000
,  // measure 60
0001
1000
0001
1000
,  // measure 61
0100
0010
0000
0001
,  // measure 62
0010
0100
1000
0010
,  // measure 63
0100
0001
1000
0000
,  // measure 64
1001
0000
0110
0000
,  // measure 65
0001
1000
0001
1000
,  // measure 66
0001
1000
0001
1000
,  // measure 67
0010
0100
0010
0100
,  // measure 68
0010
0100
0010
0100
,  // measure 69
0002
0000
0000
0000
,  // measure 70
0003
0000
0000
0000
;

//---------------dance-single - ----------------
#NOTES:
     dance-single:
     :
     Hard:
     8:
     0.432,0.437,0.053,0.167,0.110:
0000
0000
0000
0000
,
1001
0000
0000
0010
0100
1000
0000
0010
,
0100
0000
0000
0001
0010
0100
0000
1000
,
0010
0000
0000
0100
0001
1000
0000
0001
,
0010
0100
1000
0010
0100
0001
1000
0001
,
1000
0000
0000
0010
0100
0001
0000
0010
,
0100
0000
0000
1000
0010
0100
0000
0001
,
0010
0000
0000
0100
1000
0010
0000
0100
,
0001
1000
0100
0010
0001
0100
0010
1000
,
0001
0000
0010
0100
0010
0000
0001
1000
,
0001
0000
1000
0010
0100
0000
0001
0000
,
0010
0000
0000
0100
0000
0000
1000
0000
0010
0000
0000
0100
0000
0000
0001
0000
,
0010
0100
1000
0010
0100
0010
1000
0100
,
0010
0000
0001
0100
0010
0000
1000
0100
,
0010
0001
1001
1000
,
0010
0000
0000
0100
0000
0000
0001
0000
0100
0000
0000
0010
0000
0000
1000
0000
,
0100
0010
0100
1000
0001
0100
0010
1000
,
0100
0000
0010
0001
0000
0100
0000
0010
,
0000
1000
0000
0100
0010
0100
0010
0001
,
0100
0000
0010
1000
0000
0001
0000
2002
,
0000
0000
0000
3003
0000
0100
0010
0001
,
0010
0000
0000
0000
0100
0000
0010
0100
0000
0000
1000
0000
0010
0000
0100
0000
,
0001
0000
0000
0000
0100
0000
0001
0100
0000
0000
0010
0000
1000
0000
0000
0000
,
1000
0100
0001
0000
0001
0100
1000
0000
,
1000
0010
0100
0000
0001
1000
0100
0010
,
0001
0000
0000
0000
1000
0000
0010
0100
0000
0000
0001
0000
0010
0000
0100
0000
,
1000
0000
0000
0000
0010
0000
0100
0001
0000
0000
1000
0000
0000
0000
0100
0000
,
1000
1100
0000
0001
0100
0101
0000
0001
,
2000
3002
2003
3002
,
1003
0010
0100
0001
0100
0010
0100
0001
,
0010
0100
1000
0100
0010
0001
0010
0000
,
0100
1000
0010
0100
0001
0100
0010
1000
,
0001
1000
0100
1000
0010
1000
0001
0000
,
1000
0000
0010
0000
0000
0100
0000
0000
0001
0000
0100
0000
0001
0000
1000
0000
,
0001
0000
0010
0000
0000
0100
0000
0000
0010
0000
0001
0000
1000
0000
0100
0000
,
0010
0001
0100
0010
0100
0001
1000
0000
,
0001
1000
0000
0001
1000
0000
0001
1000
0000
0001
1000
0001
1000
0001
1000
0000
,
0001
0000
0010
0100
1000
0010
0000
0100
,
0001
0000
0100
0010
1000
0100
0000
0100
,
1000
0000
1000
0010
0100
0001
0000
0100
,
0010
1000
0100
1000
0001
0010
0100
1000
,
0001
0000
0001
1000
0010
0100
0000
0100
,
1000
0000
1000
0100
0001
1000
0000
0100
,
0010
0000
0010
0001
0100
0010
0000
1000
,
0100
0010
0001
0100
1000
0100
0001
1000
,
0100
0000
1000
0001
0000
1000
0000
0010
,
0000
0100
0000
0001
0010
0100
1000
0010
,
0100
0000
0001
1000
0000
0100
0000
0220
,
0000
0000
0000
0330
0000
0010
0001
0100
,
0010
0000
0000
0000
0100
0000
0001
0100
0000
0000
0010
0000
1000
0000
0100
0000
,
0010
0000
0000
0000
0001
0000
1000
0001
0000
0000
1000
0000
0010
0000
0000
0100
,
0001
0000
0100
0000
0010
0000
0000
1000
0100
0000
0010
0000
0001
0000
0000
0010
,
0100
1000
0001
0000
0100
1000
0100
0001
,
1000
0000
0000
0000
0010
0000
0100
0001
0000
0000
1000
0000
0100
0000
0010
0000
,
0001
0000
0000
0000
0100
0000
0010
1000
0000
0000
0001
0000
0100
0000
0000
0010
,
0100
0000
0001
0000
0100
0000
0000
0010
0100
0000
1000
0000
0100
0000
0000
0010
,
0100
0001
1000
0000
0100
0010
0001
1000
,
0010
0000
0000
0000
0100
0000
0001
0100
0000
0000
0010
0000
1000
0000
0100
0000
,
0010
0000
0000
0000
0100
0000
1000
0001
0000
0000
0100
0000
0010
0000
0000
1000
,
0100
0000
1000
0000
0001
0000
0000
0100
0001
0000
1000
0000
0010
0000
0000
0100
,
0010
1000
0100
0000
0010
0001
0100
0010
,
1000
0000
0000
0000
0001
0000
0100
0001
0000
0000
1000
0000
0100
0000
0010
0000
,
0100
0000
0000
0000
0001
0000
0100
0010
0000
0000
0001
0000
1000
0000
0010
0000
,
0100
0110
0000
0001
1000
1001
0000
0000
,
2000
3002
2003
3002
,
0203
0302
0203
0302
,
0203
0320
0230
0320
,
2030
3020
2030
3002
,
2003
0000
0000
0000
,
3000
0000
0000
0000
;

//---------------dance-single - ----------------
#NOTES:
     dance-single:
     :
     Medium:
     5:
     0.315,0.276,0.020,0.007,0.007:
0000
0000
0000
0000
,
1000
0000
0000
0100
0010
0000
0000
0001
,
0100
0000
0000
0010
0100
0000
0000
0001
,
1000
0000
0000
0100
0010
0000
0000
0001
,
0100
0000
0010
0000
1000
0000
0100
0010
,
0100
0000
0000
0010
0001
0000
0000
1000
,
0010
0000
0000
0100
0001
0000
0000
1000
,
0100
0000
0000
0010
0100
0000
0000
0010
,
0001
0000
1000
0000
0010
0000
0100
0001
,
0100
0000
0010
0000
1000
0000
0100
1000
,
0100
1000
0010
0100
,
0100
0001
0100
0000
0010
1000
0010
0000
,
0010
0100
0010
0000
0100
0000
0001
1000
,
0001
0000
1000
0000
0100
0000
0010
0100
,
0010
0001
1000
0100
,
1000
0010
1000
0000
0001
0100
0001
0000
,
1000
0100
0010
0001
,
1000
0000
0010
1000
0000
0001
0000
0100
,
0000
0010
0000
0100
0001
0000
1000
0001
,
1000
0000
0100
1000
0000
0010
0000
0110
,
0000
0000
0000
0000
0100
0000
0001
1000
,
0001
0000
0010
0000
0100
0000
1000
0100
,
1000
0001
0100
0010
,
1000
0010
1000
0000
0001
0100
0001
0000
,
1000
0001
1000
0000
0100
0000
0010
0001
,
0010
0000
0100
0000
0010
0000
0001
0100
,
0001
0000
0100
0000
0010
0000
1000
0001
,
1000
0001
0000
1000
0001
1000
0000
0010
,
0100
0001
1000
0100
,
0010
0000
0001
0010
0001
0000
0100
0000
,
0010
0000
1000
0010
1000
0000
0001
0000
,
0100
0000
0010
0100
0010
0000
1000
0000
,
0100
0000
0010
0001
0010
0001
0010
0000
,
0100
1000
0100
0000
1000
0000
0010
0000
,
0100
0001
0100
0000
0010
0000
1000
0000
,
0100
1000
0100
0000
0010
0001
0010
0000
,
0100
0000
0000
1000
0000
0000
0010
0000
0000
0100
0000
0000
0001
0000
1000
0000
,
0001
0000
0000
1000
0010
0100
0000
0001
,
1000
0000
0000
0100
0010
0100
0000
0010
,
0001
0000
0000
0100
0010
1000
0000
0001
,
0100
0010
1000
0100
,
0011
0000
0000
0100
1000
0001
0000
0100
,
0001
0000
0000
0100
0010
0100
0000
0001
,
1000
0000
0000
0100
1000
0001
0000
1000
,
0010
0100
0001
1000
,
0100
0000
0010
0001
0000
0100
0000
1000
,
0000
0100
0000
0001
1000
0000
0100
1000
,
0100
0000
1000
0010
0000
0100
0000
0101
,
0000
0000
0000
1000
,
0100
0000
1000
0010
0100
0000
0001
0000
,
0100
0000
0010
0100
0001
0000
1000
0000
,
0100
1000
0001
0000
0100
0001
1000
0000
,
0100
0010
0001
0000
1000
0000
0010
0100
,
0010
0000
0100
0000
0001
0000
1000
0010
,
0100
0001
1000
0100
,
0010
0001
0100
0000
0010
1000
0100
0000
,
1000
0001
0100
0000
0010
0000
1000
0100
,
0010
0000
0001
0000
0100
0000
0010
1000
,
0001
1000
0100
0010
,
0001
0100
0010
0000
1000
0100
0010
0000
,
0001
1000
0100
0000
1000
0000
0010
0100
,
0001
0000
1000
0000
0100
0000
0010
0100
,
1000
0000
0010
0000
0100
0000
0001
0010
,
0100
1000
0000
0010
0100
0001
0000
1000
,
0100
1000
0010
0100
,
0001
0010
0100
1000
,
0100
0010
0001
1000
,
0010
0100
0001
1000
,
0002
0000
0000
0000
,
0003
0000
0000
0000
;

//---------------dance-single - ----------------
#NOTES:
     dance-single:
     :
     Beginner:
     1:
     0.123,0.159,0.027,0.000,0.000: // measure 1
0000
0000
0000
0000
,  // measure 2
0001
0000
0010
0000
,  // measure 3
0100
0000
1000
0000
,  // measure 4
0010
0000
0100
0000
,  // measure 5
0001
0000
0000
0000
,  // measure 6
1000
0000
0010
0000
,  // measure 7
0100
0000
0001
0000
,  // measure 8
0010
0000
0100
0000
,  // measure 9
1000
0000
0000
0000
,  // measure 10
0001
0000
1000
0000
,  // measure 11
0010
0000
0100
0000
,  // measure 12
0001
0000
1000
0000
,  // measure 13
0001
0000
1000
0000
,  // measure 14
0010
0000
0100
0000
,  // measure 15
0010
0000
1000
0000
,  // measure 16
0100
0000
0010
0000
,  // measure 17
0001
0000
1000
0000
,  // measure 18
0010
0000
0000
0000
,  // measure 19
0000
0000
0100
0000
,  // measure 20
0001
0000
1000
0000
,  // measure 21
0000
0000
0000
0000
,  // measure 22
0100
0000
0010
0000
,  // measure 23
0001
0000
0100
0000
,  // measure 24
0010
0000
1000
0000
,  // measure 25
0010
0000
1000
0000
,  // measure 26
0100
0000
0010
0000
,  // measure 27
0100
0000
0010
0000
,  // measure 28
1001
0000
1001
0000
,  // measure 29
0010
0000
0100
0000
,  // measure 30
0010
0000
1000
0000
,  // measure 31
0100
0000
1000
0000
,  // measure 32
0001
0000
0100
0000
,  // measure 33
0001
0000
1000
0000
,  // measure 34
0010
0000
0000
0000
,  // measure 35
0100
0000
0000
0000
,  // measure 36
0001
0000
1000
0000
,  // measure 37
0001
0001
0001
0001
,  // measure 38
0001
0000
0010
0000
,  // measure 39
0100
0000
0010
0000
,  // measure 40
0001
0000
0100
0000
,  // measure 41
0010
0000
1000
0000
,  // measure 42
0001
0000
1000
0000
,  // measure 43
0100
0000
0010
0000
,  // measure 44
0001
0000
1000
0000
,  // measure 45
0010
0000
0100
0000
,  // measure 46
0001
0000
0000
0000
,  // measure 47
0000
0000
1000
0000
,  // measure 48
0100
0000
0010
0000
,  // measure 49
0000
0000
0000
0000
,  // measure 50
0001
0000
1000
0000
,  // measure 51
0010
0000
0100
0000
,  // measure 52
0001
0000
1000
0000
,  // measure 53
0001
0000
1000
0000
,  // measure 54
0100
0000
0010
0000
,  // measure 55
0001
0000
0100
0000
,  // measure 56
0010
0000
1000
0000
,  // measure 57
0010
0000
1000
0000
,  // measure 58
0100
0000
1000
0000
,  // measure 59
0001
0000
0100
0000
,  // measure 60
0010
0000
1000
0000
,  // measure 61
0010
0000
1000
0000
,  // measure 62
0100
0000
0010
0000
,  // measure 63
0001
0000
1000
0000
,  // measure 64
0110
0000
0110
0000
,  // measure 65
0001
0000
1000
0000
,  // measure 66
0001
0000
1000
0000
,  // measure 67
0010
0000
0100
0000
,  // measure 68
0010
0000
0100
0000
,  // measure 69
0001
0000
0000
0000
;
