#TITLE:Re-sublimity;
#SUBTITLE:;
#ARTIST:KOTOKO;
#TITLETRANSLIT:;
#SUBTITLETRANSLIT:;
#ARTISTTRANSLIT:;
#CREDIT:Xythar;
#BANNER:Re-sublimity.png;
#BACKGROUND:Re-sublimity-bg.png;
#LYRICSPATH:Re-sublimity.lrc;
#CDTITLE:xythar.png;
#MUSIC:Re-sublimity.mp3;
#OFFSET:-6.642;
#SAMPLESTART:79.498;
#SAMPLELENGTH:12.000;
#SELECTABLE:YES;
#BPMS:0.000=135.000;
#STOPS:;
#BGCHANGES:-12.432=Re-sublimity.avi=1.000=1=1=0,
470.000=Re-sublimity-eg.png=1.000=1=0=0,
99999=-nosongbg-=1.000=0=0=0 // don't automatically add -songbackground-
;

//---------------dance-single - ----------------
#NOTES:
     dance-single:
     :
     Easy:
     3:
     0.251,0.349,0.096,0.114,0.000:
0000
0000
0000
0000
,
1000
0000
0010
0000
,
0100
0000
0001
0000
,
1000
0000
0100
0000
,
0010
0000
0100
0000
,
1000
0000
0001
0000
,
0100
0000
0010
0000
,
0100
0000
0001
0000
,
1000
0000
0010
0000
,
0100
0001
0100
0001
,
1000
0000
0000
0000
,
0001
0010
0001
0010
,
0100
0000
0000
0000
,
1000
0010
0100
0001
,
1000
0000
0000
0000
,
0001
0010
0100
1000
,
0001
0000
1000
0000
,
0001
0010
0001
0100
,
0001
0100
0001
0010
,
0200
0000
2300
0000
,
3020
0000
0230
0000
,
0301
0100
0010
0000
,
1000
0100
0010
0000
,
0001
1000
0010
1000
,
0001
0000
1001
1000
,
0100
0000
0010
0100
,
0000
0010
0001
0100
,
0020
0000
1030
0000
,
1001
0000
0010
0100
,
1000
0000
1000
0001
,
0100
0000
0001
0010
,
0100
1000
0010
0000
,
0110
0000
0001
1000
,
0200
0000
0310
0000
,
0000
0001
0010
0100
,
2000
0000
3010
0000
,
0100
0001
1000
0100
,
0020
0000
0130
0000
,
2000
0000
3010
0000
,
1001
0000
0110
0000
,
0001
1000
1001
0000
,
1000
0100
0001
0100
,
1000
0010
0100
0001
,
1000
0000
0000
0010
,
0110
0000
1001
0000
,
1000
0100
0010
0100
,
1000
0001
0100
1000
,
0100
0001
0000
0000
,
0020
0100
0130
1000
,
1001
0000
0010
0000
,
0100
0000
0001
1000
,
0100
0000
0010
0000
,
0001
0010
0100
1000
,
1001
0000
1000
0010
,
0100
0010
1000
0100
,
0010
0001
0000
1000
,
0100
1000
0001
1000
,
0100
0000
1000
0000
,
0001
1000
0001
1000
,
1001
0000
0100
0000
,
0001
0000
1000
0000
,
0100
0000
0000
0000
,
1000
0000
0010
0000
,
0100
0001
0010
0100
,
1000
0100
0010
0001
,
1000
0000
0100
0000
,
1000
0000
0010
0000
,
0100
0001
0100
0001
,
0010
0100
1000
0100
,
1000
0000
0010
0000
,
0100
0000
0001
0000
,
1000
0100
1000
0100
,
0010
0001
0010
0001
,
0100
0000
0010
0000
,
1000
0100
1000
0001
,
0100
0000
0010
0000
,
1000
0010
0100
0001
,
1000
0000
0100
0000
,
1000
0001
0010
0001
,
1000
0000
0010
0000
,
0100
0001
0100
0010
,
1000
0000
0001
0000
,
0010
0000
0100
1000
,
1001
0000
0110
0000
,
1001
0000
0010
0100
,
1000
0000
0001
0000
,
1000
0010
0100
0001
,
1000
0000
0001
0000
,
2000
0000
0100
0100
,
3001
1001
0000
0000
,
0010
0100
1000
0100
,
0001
0100
1000
0001
,
0100
1000
0100
0001
,
2000
0000
3001
0000
,
0010
0100
1000
0001
,
1001
0000
1000
0100
,
0010
0000
0001
0100
,
0010
0000
0110
0000
,
1001
0001
0010
0100
,
0110
0000
0100
1000
,
0001
0100
0001
1000
,
0200
0000
0310
0000
,
0002
0023
0230
2300
,
3020
0030
0100
0001
,
0100
0001
0010
0100
,
2000
0000
3002
0000
,
0203
0000
0320
0000
,
1030
0100
1000
0100
,
1000
0100
0010
0001
,
0100
0010
0100
0010
,
1000
0100
1000
0010
,
0100
0001
0100
0010
,
1000
0001
0010
0100
,
2000
0000
3002
0000
,
0103
0010
0100
0010
,
0110
0000
1001
0000
,
0001
0010
0100
1000
,
0002
0000
0003
0000
;

//---------------dance-single - ----------------
#NOTES:
     dance-single:
     :
     Hard:
     8:
     0.504,0.484,0.151,0.101,0.176: // measure 1
0000
0000
0000
0000
,  // measure 2
0001
0000
0010
0000
0100
0000
1000
0100
,  // measure 3
0000
0000
1000
0000
0010
0000
0100
0000
0010
0000
0000
0100
0000
0000
0001
0000
,  // measure 4
0000
0000
0010
0000
0100
0000
0010
0001
,  // measure 5
0000
0000
1000
0000
0010
0000
1000
0000
0001
0000
0000
0100
0000
0000
0010
0000
,  // measure 6
0000
0000
1000
0000
0001
0000
1000
0010
,  // measure 7
0000
0000
0100
0000
1000
0000
0100
0000
0001
0000
0000
1000
0000
0000
0100
0000
,  // measure 8
0000
0000
0010
0000
0001
0000
0100
0001
,  // measure 9
0000
0000
0100
0000
1000
0000
0100
0000
0010
0000
0000
1000
0000
0000
0100
0000
,  // measure 10
1000
0000
0100
0000
0000
0010
0000
0000
0001
0000
0000
0100
0000
0000
0010
0000
,  // measure 11
0100
0000
0010
0000
0000
0100
0000
0000
1000
0000
0000
0100
0000
0000
0001
0000
,  // measure 12
0100
0000
0001
0000
0000
1000
0000
0000
0100
0000
0000
0010
0000
0000
0001
0000
,  // measure 13
1000
0000
0001
0000
0000
0010
0000
0000
1000
0000
0000
0010
0000
0000
0100
0000
,  // measure 14
1000
0000
0100
0000
0000
1000
0000
0000
0001
0000
0000
0100
0000
0000
0010
0000
,  // measure 15
0100
0000
0010
0000
0000
0100
0000
0000
0001
0000
0000
1000
0000
0000
0001
0000
,  // measure 16
0010
0000
0001
0000
0000
1000
0000
0000
0010
0000
0000
0100
0000
0000
0001
0000
,  // measure 17
0100
0000
0001
0000
0000
1000
0000
0000
0001
0000
0000
0010
0000
0000
0100
0000
,  // measure 18
1000
0000
0000
0100
0000
0000
0010
0000
0000
0001
0000
0000
1000
0000
0100
0000
,  // measure 19
1000
0000
0000
0001
0000
0000
0100
0000
0000
0010
0000
0000
1000
0000
0010
0000
,  // measure 20
1000
0001
0010
0000
0010
0100
1000
0000
,  // measure 21
1000
0001
0100
0001
1000
0100
0010
0000
,  // measure 22
0100
1000
0100
1000
0001
0100
0001
0000
,  // measure 23
1000
0010
0100
0000
0100
0001
0010
0000
,  // measure 24
0100
0010
0001
1000
0010
0100
0001
1000
,  // measure 25
0100
1000
1001
0001
,  // measure 26
1000
0000
0100
0010
0001
0100
0010
0000
,  // measure 27
0100
0000
1000
0100
0001
1000
0100
0000
,  // measure 28
2000
0000
0001
0000
0000
0001
0000
0000
3001
0000
0000
0000
0100
0000
0010
0000
,  // measure 29
0200
0001
0000
0301
1000
0000
0010
0000
,  // measure 30
0110
0000
0100
0001
1000
0100
1000
0000
,  // measure 31
0001
0010
0100
0010
0001
1000
0010
0000
,  // measure 32
0100
0001
1000
0100
1000
0000
1000
0001
,  // measure 33
1001
0000
0010
0000
0100
1000
0001
0100
,  // measure 34
0001
0000
1000
0000
0001
0100
0000
0010
0000
0000
0000
0000
0100
0000
0001
0000
,  // measure 35
1000
0000
0100
0001
0100
1000
0010
0100
,  // measure 36
0001
0000
0010
0000
0100
0010
0000
0001
0000
0000
0000
0000
1000
0000
0100
0000
,  // measure 37
0010
0000
1000
0010
0001
0100
0010
1000
,  // measure 38
0001
0000
1000
0000
0010
1000
0000
0100
0000
0000
0000
0000
1000
0000
0001
0000
,  // measure 39
0100
0000
0010
0000
1000
0100
0000
0010
0000
0000
0001
0000
0100
0000
0010
0000
,  // measure 40
2000
3200
0320
0032
,  // measure 41
0103
0010
1000
0100
0010
0000
0011
0000
,  // measure 42
0001
0000
0100
0000
0010
0000
0100
0010
0000
0000
0100
0000
0001
0000
1000
0001
,  // measure 43
0000
0000
1000
0000
0100
0000
0010
0100
0000
0000
0010
0000
0001
0000
1000
0000
,  // measure 44
0010
0100
0001
0000
1000
0000
0100
0010
,  // measure 45
0002
0203
0320
2030
,  // measure 46
3100
1000
0001
0000
0100
0000
0010
0100
,  // measure 47
0001
1000
0100
0000
0010
0001
0010
0100
,  // measure 48
2000
0001
3002
0100
,  // measure 49
0203
0000
0010
0000
0310
0000
0100
0001
,  // measure 50
1000
0000
0100
0000
0010
0000
0001
0010
0000
0000
0001
0000
1000
0000
0100
1000
,  // measure 51
0000
0000
0001
0000
0100
0000
0010
0100
0000
0000
0001
0000
1000
0000
0100
0000
,  // measure 52
0020
0000
0100
0000
0031
1000
0100
0010
,  // measure 53
0001
0000
0101
0000
1010
0000
1000
0001
,  // measure 54
1001
0000
1000
0000
0010
0100
0001
0100
,  // measure 55
0010
0000
1000
0000
0100
0010
0001
1000
,  // measure 56
0001
1001
1000
1100
,  // measure 57
0100
0110
0011
1001
,  // measure 58
0001
0010
0100
1000
,  // measure 59
0001
0010
0100
1000
0010
0100
0001
1000
,  // measure 60
0100
0000
0000
1000
0000
0000
0001
0000
0000
0100
0000
0000
0001
0000
0010
0000
,  // measure 61
0100
0000
0000
1000
0000
0000
0001
0000
0000
0100
0000
0000
1000
0000
0100
0000
,  // measure 62
0001
1000
0000
0000
0010
0000
0100
0001
,  // measure 63
0000
0000
1000
0000
0100
0000
1000
0000
0001
0000
0000
0100
0000
0000
0010
0000
,  // measure 64
1000
0000
0000
0010
0000
0000
0100
0000
0000
0001
0000
0000
0100
0000
0010
0000
,  // measure 65
1000
0000
0000
0100
0000
0000
0010
0000
0000
0001
0000
0000
0010
0000
0100
0000
,  // measure 66
1000
0001
0100
0000
0010
0100
0010
0000
,  // measure 67
1000
0000
0100
0000
1000
0000
0001
0000
0010
0000
0100
1000
0000
1000
0001
0000
,  // measure 68
1000
0100
0010
0100
1000
0001
0100
0001
,  // measure 69
0100
0000
1000
0000
0100
0000
0001
0000
1000
0000
0100
0010
0000
0000
0001
0000
,  // measure 70
0100
0010
1000
0001
0010
0001
1000
0010
,  // measure 71
0000
0000
0100
0000
0001
0000
0010
0000
0100
0000
1000
0100
0000
0000
0010
0000
,  // measure 72
0001
0000
0010
0000
0000
0100
0000
0000
1000
0000
0000
0010
0000
0000
0100
0000
,  // measure 73
1000
0000
0100
0000
0000
0001
0000
0000
1000
0000
0000
0100
0000
0000
0001
0000
,  // measure 74
0100
0000
0001
0000
0000
0100
0000
0000
0010
0000
0000
0001
0000
0000
1000
0000
,  // measure 75
0010
0100
0001
1000
1100
0000
0011
0000
,  // measure 76
0001
0010
0100
1000
0010
0000
0100
0001
,  // measure 77
0000
0000
1000
0000
0010
0000
0100
0000
0010
0000
0100
0001
0000
0000
1000
0000
,  // measure 78
0000
0000
0001
0000
0000
0010
0000
0000
1000
0000
0000
0000
0010
0000
0001
0000
,  // measure 79
0000
0000
1000
0000
0010
0000
0100
0000
0001
0000
0100
0001
0000
0001
1000
0000
,  // measure 80
0000
0000
0001
0000
0000
0010
0000
0000
0100
0000
0000
0000
0001
0000
0100
0000
,  // measure 81
0000
0000
1000
0000
0100
0000
0010
0000
0001
0000
0010
0100
0000
0100
1000
0000
,  // measure 82
0000
0000
0001
0000
0000
0100
0000
0000
0001
0000
0000
0000
1000
0000
0010
0000
,  // measure 83
0000
0000
0100
0000
0001
0000
1000
0000
0100
0000
1000
0001
0000
0001
0010
0000
,  // measure 84
0100
0000
1000
0000
0001
0000
0100
0001
0000
0000
1000
0000
0010
0000
1000
0100
,  // measure 85
0000
0000
1000
0000
0001
0000
0010
0100
0000
0000
0010
0000
0001
0000
0100
0010
,  // measure 86
0000
0010
0100
0000
0001
0000
1000
0000
0100
0000
1000
0000
0001
0000
0100
0000
,  // measure 87
0101
0000
0110
0000
1010
0000
1000
0100
,  // measure 88
0020
0000
0001
0000
0130
1000
0010
0100
,  // measure 89
0002
0000
0010
0000
1003
0010
0100
0001
,  // measure 90
2000
0010
0001
3100
,  // measure 91
0011
0000
0110
0000
1100
0000
1000
0001
,  // measure 92
0100
0000
0010
0000
0100
0000
0001
0100
0000
0000
0001
0000
1000
0000
0100
1000
,  // measure 93
0000
0000
0001
0000
0010
0000
0100
0010
0000
0000
1000
0000
0010
0000
0001
0200
,  // measure 94
0000
0000
0000
0310
0000
1000
0100
0010
,  // measure 95
0001
0000
1001
0000
0001
0100
0010
1000
,  // measure 96
0100
0000
0010
0001
0100
0000
0010
1000
,  // measure 97
0100
0000
1000
0001
0100
0001
1000
0100
,  // measure 98
2000
0100
0001
3010
,  // measure 99
1010
0110
0101
1001
,  // measure 100
1000
0100
0001
0100
1000
0010
0100
0000
,  // measure 101
0001
0010
1000
0010
0001
0100
0010
0200
,  // measure 102
0001
0310
1000
0100
,  // measure 103
0010
0001
1000
0010
0100
0010
1000
0100
,  // measure 104
0020
1000
0100
0031
,  // measure 105
1000
0010
1000
0001
0010
0100
0010
0100
,  // measure 106
1000
1001
0001
0101
,  // measure 107
0100
0010
1000
0010
1000
0001
0010
0100
,  // measure 108
1000
0000
0001
0000
0100
0000
0001
1000
,  // measure 109
0100
0000
1100
0000
0010
0100
0001
1000
,  // measure 110
0100
0000
1000
0000
0110
0000
0100
0001
,  // measure 111
1000
0100
0001
0100
1000
0001
0100
0010
,  // measure 112
1000
0000
1001
0000
0001
0010
0100
0000
,  // measure 113
1000
0000
1010
0000
0010
0100
0001
1000
,  // measure 114
0100
1100
0001
0101
,  // measure 115
0001
1000
0010
1000
0001
0010
0001
1000
,  // measure 116
0100
1000
0100
0010
,  // measure 117
0001
0100
0010
1000
0001
0010
0100
1000
,  // measure 118
0020
0000
0030
0000
;

//---------------dance-single - ----------------
#NOTES:
     dance-single:
     :
     Challenge:
     10:
     0.819,0.776,0.210,0.000,1.000:
0000
0000
0000
0000
,
1000
0000
0100
0000
1000
0000
0001
0100
,
0000
0000
0010
0000
0100
0000
0001
0000
1000
0000
0000
0100
0000
0000
0010
0000
,
0001
0000
0100
0000
0001
0000
0100
0010
,
0000
0000
0100
0000
0001
0000
1000
0000
0100
1000
0100
1000
0001
1000
0001
0100
,
0001
0000
1000
0000
0010
0000
0100
0001
,
0000
0000
0100
0000
0010
0000
1000
0000
0001
0010
0001
0010
0100
0010
0100
0010
,
0001
0000
1000
0000
0010
0000
0100
0010
,
0100
0000
0001
0000
0010
0000
0100
0010
0100
0000
1000
0001
0000
0001
0100
0000
,
0001
0000
0010
0000
0100
1000
0000
1000
0001
0000
0001
0100
0000
0100
0010
1000
,
0010
0000
1000
0000
0100
0000
0010
0000
0011
0000
0100
0010
0100
1000
0100
1000
,
0001
0000
0100
0000
0010
1000
0000
1000
0100
0000
0100
0010
0000
0010
0001
0010
,
0001
0000
1000
0000
0010
0000
0110
0000
0100
0001
0100
0010
1000
0100
0010
0100
,
1000
0000
0001
0000
0100
0010
0000
0010
0100
0000
0100
0001
0000
0001
1000
0001
,
1000
0000
0001
0000
0100
0000
0101
0000
0100
0001
1000
0100
1000
0001
0010
0001
,
0100
0000
0001
0000
1000
0100
0000
0100
1000
0000
0001
0010
0000
0100
0010
0100
,
0010
0000
0100
0000
1000
0000
0010
0000
0100
0001
0100
0001
1000
0100
1000
0100
,
1000
0000
1000
0100
0000
0100
0010
0000
0010
0001
0000
0001
0100
0000
0110
0000
,
1000
0000
1000
0010
0000
0010
0100
0000
0100
0001
0000
0001
1000
0000
1001
0000
,
0001
0100
0001
0000
1000
0001
0000
0001
1000
0100
1000
0001
0000
0010
0000
0100
,
0010
0100
0010
0000
0001
0100
0000
0100
0010
1000
0010
1000
0001
0010
0001
1000
,
0100
0010
0100
0000
0010
0001
0000
0001
0100
0001
0100
0010
0000
1010
0000
1000
,
0100
1000
0001
0000
0100
0001
0000
0001
1000
0100
1000
0001
0000
0011
0000
1000
,
0010
0100
0010
0000
0100
0001
0000
0001
1000
0100
1000
0001
0000
0001
0100
0010
,
0100
0000
0001
0100
0001
0100
0001
0100
0001
0000
0100
0010
0000
0010
1000
0000
,
0001
0010
0000
0001
0000
0100
0000
0010
1000
0000
0100
0000
0010
0000
0001
0000
,
1000
0010
0000
0100
0000
0001
0000
1000
0100
0000
1000
0000
0001
0000
0010
0000
,
0100
0010
0100
0000
0010
0001
0000
0001
0100
0000
0000
0000
0110
0000
1010
0000
,
1000
0000
0100
0010
0000
0010
0001
0000
1000
0100
1000
0001
0100
0000
0010
0000
,
1000
0000
0100
1000
0000
0001
0000
0100
0010
0000
0100
0000
0001
0000
1000
0000
,
0100
0010
0000
0001
0000
1000
0000
0010
0100
0000
0001
0000
1000
0000
0100
0000
,
0010
0100
1000
0001
0100
0010
1010
0110
,
0101
0000
0000
0000
1001
0000
0000
0000
0001
1000
0001
1000
0100
1000
0100
1000
,
0010
0000
0100
0000
0001
0010
0000
0100
0000
0000
1000
0000
0010
0000
0100
0001
,
0100
0001
0010
0100
1000
0010
0100
0001
,
1000
0000
0100
0000
1000
0001
0000
0100
0000
0000
0010
0000
0100
0000
0001
0100
,
0001
1000
0100
0010
0001
0100
0010
1000
,
0001
0000
0010
0000
0100
0010
0000
0100
0000
0000
1000
0000
0001
0000
0100
0001
,
0100
0000
0001
0000
1000
0100
0000
1000
0000
0000
0001
0000
0100
0000
0001
0000
,
0101
0100
0110
0010
1010
1000
1001
0001
,
0010
0000
0100
0000
0010
0000
0001
0000
1000
0010
1000
0010
0100
0001
0100
0001
,
1000
0000
0100
0000
0010
0000
0001
0100
0000
0100
0010
0000
1000
0000
0100
0010
,
0000
0010
0001
0000
1000
0000
0010
0100
0000
0100
0001
0000
0010
0000
0100
1000
,
0000
1000
0100
0000
0010
0000
0001
0100
0000
0100
0001
0000
1000
0000
0010
0000
,
0100
0000
0000
0000
0101
0000
0000
0000
0001
0010
0001
0010
0100
1000
0100
1000
,
0001
0000
0100
0000
0010
0000
1000
0001
0000
0001
1000
0000
0100
0000
0010
0001
,
0010
0000
0001
0000
0100
0000
0010
1000
0000
0001
1000
0001
1000
0000
0001
0000
,
1000
0100
0011
0001
0100
0010
1001
0100
,
0110
0000
0000
0000
0011
0000
0000
0000
1000
0010
1000
0010
0100
0001
0100
0001
,
1000
0000
0001
0000
0100
0000
0010
1000
0000
1000
0010
0000
1000
0000
0001
0100
,
0000
0100
0001
0000
1000
0000
0100
0010
0000
0010
0001
0000
0100
0000
0001
1000
,
0001
0000
0010
0000
0100
0000
1000
0100
1000
0100
1000
0000
0001
0000
0100
0000
,
1010
0000
0000
0000
0101
0000
0000
0000
1000
0100
0010
0100
1000
0001
0100
0010
,
0100
0000
0001
0000
0010
0000
0100
0010
0000
0100
1000
0100
1000
0000
0001
0000
,
0100
0000
0010
0000
0100
0000
0001
1000
0000
0010
1000
0010
1000
0000
0001
0000
,
0011
0000
0100
0000
0010
0000
0010
0001
0000
0001
0100
0000
0101
0000
1000
0000
,
0001
0100
0001
0000
1000
0100
1000
0000
0100
1000
0100
1000
0100
0010
0001
1000
,
0010
0000
0100
0000
0001
0100
0000
0001
0100
0000
0001
1000
0000
0001
1000
0100
,
1000
0000
0100
0000
0010
0100
0000
0010
0001
0010
0001
1000
0001
0000
1001
0000
,
1000
0000
0000
0001
0000
0100
0001
0000
0000
1000
0000
0010
1000
0000
0100
0000
,
0010
0000
0000
0001
0000
1000
0001
0000
0000
0100
0000
0010
0100
0000
0001
0000
,
1000
0100
0000
0010
0001
0000
1000
0010
,
0000
0000
1000
0000
0001
0000
0010
0000
0100
1000
0100
1000
0010
0100
0001
0000
,
1000
0000
0000
0100
0000
0100
0010
0000
0000
0001
0000
0001
0100
0000
0010
0000
,
1000
0000
0000
0010
0000
0010
0100
0000
0000
0100
0000
0100
0001
0000
0010
0000
,
0100
1000
0010
0100
0001
0000
1000
1100
,
0000
0000
0001
0000
0010
0000
0100
1000
0001
0100
0010
0100
0000
0100
0001
0000
,
1000
0001
0100
0001
1000
0000
0100
0010
,
0000
0000
0100
0000
1000
0000
0010
0000
0100
0000
0000
0001
0000
0000
0101
0000
,
0000
0001
1000
0100
1000
0000
0001
0010
,
0000
0000
0100
0000
0010
0000
0001
0000
1000
0010
0100
0001
0010
0100
1000
0000
,
0001
0100
0001
0000
0100
0001
0000
0001
1000
0001
1000
0100
0000
0100
0010
0100
,
0010
0001
0010
0000
0001
0100
0000
0100
0010
1000
0100
0010
0100
1000
0001
0000
,
1000
0100
1000
0000
0100
0010
0000
0010
0001
0010
0100
0010
0000
0010
0001
0000
,
0100
0000
0010
0000
1010
0000
1000
0000
0100
0000
0010
0001
0000
0001
0100
0000
,
0001
0000
0010
0000
0100
1000
0000
1000
0001
0000
0001
0100
0000
0100
0010
0000
,
1010
0000
1000
0000
0100
0000
0010
0000
0001
0010
0100
0010
0001
1000
0010
0000
,
0100
0000
0001
0000
0100
0010
0000
0010
1000
0000
1000
0100
0000
0100
0010
0000
,
0001
0000
0010
0000
0100
0000
1000
0000
0100
0010
0001
0010
0100
1000
0001
0000
,
0100
0000
0010
0000
0100
0001
0000
0001
1000
0000
1000
0010
0000
0010
0100
0000
,
0101
0000
0001
0000
0010
0000
0100
0000
0010
0100
1000
0010
0100
0001
1000
0000
,
0100
0000
1000
0000
0010
0100
0000
0100
0001
0000
0001
1000
0000
1000
0100
0000
,
0010
0000
0011
0000
0110
0000
1100
0000
0001
0100
0010
1000
0001
0010
0100
0000
,
1000
0000
0100
0000
1000
0000
1000
0001
0000
0001
0100
0000
0001
0000
0001
1000
,
0000
1000
0100
0000
0010
0000
0010
0100
0000
0100
0010
0000
0001
0000
0100
0010
,
0000
0010
0100
0000
0001
0100
0001
0100
0000
0100
0010
0000
1000
0010
1000
0100
,
0010
0000
0000
0000
0011
0000
0000
0000
0001
0010
0100
1000
0001
0100
0010
0100
,
0001
0000
0001
1000
0000
1000
0001
1000
0000
0100
0010
0001
0010
0100
1000
0010
,
0000
0100
0001
0100
0000
0001
0010
0001
0000
1000
0100
0010
0100
1000
0010
0100
,
0000
0010
1000
0010
0000
0100
0001
0100
0000
0001
1000
0010
1000
0100
0010
0001
,
0000
0001
0100
0010
0100
0001
1000
0010
0100
0001
1000
0100
1000
0100
0010
0001
,
0010
0000
0001
0000
0100
0000
0010
0100
0000
0100
0001
0000
1000
0000
0010
0100
,
0000
0100
0001
0000
0010
0000
0100
0010
0000
0010
0001
0000
1000
0010
1000
0010
,
0000
0010
0100
0000
0001
0100
0001
0100
0000
0100
0010
0000
1000
0000
0100
0000
,
0011
0000
0000
0000
1100
0000
0000
0000
0001
0010
0100
1000
0001
0100
0010
1000
,
0001
0000
0100
0000
0010
0000
1000
0100
0000
0100
0010
0001
0010
0000
0001
0100
,
0000
0001
1000
0100
1000
0000
0100
0010
0000
0100
1000
0001
0100
0000
0010
0000
,
1000
0100
1000
0100
1000
0001
0100
0001
0100
0010
0100
0001
1000
0010
0100
0010
,
1000
0001
0010
0001
0010
0100
0010
0100
0010
0100
1000
0100
1000
0001
1000
0001
,
1000
0000
1000
0100
0000
0100
0010
0100
0010
0000
0010
0001
0000
0001
0100
0001
,
0100
0000
0100
0001
0000
0001
1000
0001
1000
0000
1000
0100
0000
0010
0100
1000
,
0001
0000
0001
0100
0000
0100
0001
0010
0001
0000
0001
1000
0000
1000
0010
0100
,
0010
0100
0001
0100
0001
0100
0010
0100
0001
1000
0010
0100
0001
1000
0100
1000
,
0001
0000
1000
0100
0000
0100
0010
0000
0001
0000
0100
0010
0000
0010
1000
0000
,
0001
0000
0010
0100
0000
0100
1000
0100
1000
0000
0001
0100
0000
0100
0010
0100
,
0001
0000
1000
0010
0000
0010
0100
0000
1010
0000
1000
0100
0000
0100
1000
0001
,
1000
0100
1000
0100
1000
0001
0100
0001
0100
0010
0100
0001
0010
0100
1000
0100
,
1000
0000
0001
0100
0000
0010
0100
0000
0001
0000
1000
0010
0000
1000
0001
0000
,
0010
0000
0100
1000
0000
0001
0010
0100
1000
0000
0100
0010
0000
0010
0001
0100
,
0001
0000
1000
0010
0000
0100
0001
0000
1001
0000
0100
1000
0000
1000
0010
0000
,
0101
0000
0001
1000
0000
1000
0010
1000
0001
0000
1000
0000
1100
0000
0110
0000
,
0011
0000
0010
0001
0000
0001
1000
0010
1000
0000
0100
1000
0000
0010
0100
0001
,
0100
0000
0100
0010
0000
0010
1000
0010
1000
0100
1000
0001
0100
0000
0100
0000
,
0110
0000
0100
0001
0000
0001
1000
0000
1001
0000
0010
0100
0000
0100
1000
0000
,
0001
0100
0001
0100
0010
0100
0010
0100
0010
1000
0010
1000
0001
0010
0100
1000
,
0001
0000
1000
0000
0100
1000
0000
1000
0001
0100
0001
1000
0000
1000
0010
0000
,
1000
0100
0010
0001
1000
0010
0100
0001
1000
0100
1000
0001
0010
0100
1000
0001
,
0100
0000
0000
0000
;

//---------------dance-single - ----------------
#NOTES:
     dance-single:
     :
     Medium:
     6:
     0.410,0.376,0.119,0.114,0.000:
0000
0000
0000
0000
,
1000
0000
0000
0000
0001
0000
0100
0001
,
0000
0001
1000
0000
0100
0000
0010
0000
,
0001
0000
0100
0000
0010
0000
0100
0001
,
0000
0001
1000
0000
0010
0100
0010
0100
,
0010
0000
1000
0000
0100
0000
1000
0010
,
0000
0010
1000
0000
0001
1000
0001
1000
,
0100
0000
0010
0000
0100
0000
1000
0001
,
0000
0100
0010
0000
1000
0000
0100
0000
,
1000
0001
0010
0000
0010
0000
0100
1000
,
0001
0000
0100
0010
0100
0000
0101
0000
,
1000
0000
0010
0000
1000
0000
0100
0010
,
0000
0001
0010
0001
2000
0000
0010
0000
,
3010
0000
0100
0000
0001
0000
0100
0010
,
0000
0100
0001
0100
0001
0000
1000
0000
,
0100
0000
0010
0000
0100
0000
1000
0001
,
0000
0010
0001
0010
0100
0000
1000
0000
,
0010
0000
0100
0000
0001
0000
1000
0100
,
0010
0000
0100
0000
1000
0000
0001
0100
,
0010
0100
0001
1000
,
0100
0010
0100
0000
1000
0001
1000
0000
,
0010
0100
0001
1000
,
0001
0010
0001
0000
1000
0100
1000
0000
,
0001
0100
0010
1000
,
0001
0010
0001
0010
0001
1000
0001
0000
,
0100
0000
0010
0000
1000
0100
1000
0000
,
0100
0000
1000
0000
0010
0100
0010
0100
,
0001
0000
1000
0000
0100
0000
1000
0100
,
0010
0001
1000
1001
,
0100
0000
0010
0000
1000
0010
1000
0000
,
0001
0000
1000
0000
0001
0010
0001
0000
,
2000
0000
0010
0000
3100
0000
0001
0010
,
0100
1100
0100
0110
,
0001
0100
0001
0000
1000
0000
0010
0000
,
0100
0000
0001
0100
0001
0000
1001
0000
,
0100
0010
0100
0000
0010
0000
0001
0000
,
0100
0000
0010
1000
0010
0000
1010
0000
,
1000
0100
1000
0100
1000
0000
0001
0000
,
0100
0001
0100
0001
0100
0000
0001
0000
,
0101
0100
0110
0010
,
2010
0100
3100
0010
,
0001
0100
0001
0000
1000
0010
1000
0000
,
0001
0010
0001
0000
1000
0100
1000
0000
,
0001
0000
0100
0000
0010
0000
0100
0001
,
1000
1100
0100
0110
,
0010
0000
0001
0000
1000
0001
1000
0000
,
0020
0100
0100
1030
,
0001
0011
1000
1010
,
0100
0000
0001
0000
1000
0100
1000
0001
,
1000
0000
0010
0100
0010
0000
0100
0001
,
0100
0000
0001
1000
0001
0000
1000
0100
,
1000
0001
0010
0100
,
1000
1001
0010
0110
,
0100
0001
0100
0010
,
1000
0000
0100
0000
1000
0001
1000
0001
,
0010
0110
0100
1100
,
2000
3020
0230
0302
,
1003
0100
1000
0001
,
0100
0000
0010
0000
1000
0010
1000
0010
,
0100
0000
0001
0000
0010
0000
0100
1000
,
0000
0001
0100
0000
0010
0000
1000
0010
,
1000
0000
0100
0000
1000
0000
0001
1000
,
0000
0010
1000
0000
0001
0010
0001
0000
,
1000
0000
0100
0000
1000
0000
0001
0100
,
0000
0010
0100
0010
1000
0000
0100
0000
,
0010
0000
0001
0000
1000
0000
0100
1000
,
0000
0001
0100
0001
1000
0000
0010
0000
,
0100
0000
0001
0000
1000
0000
0100
1000
,
0000
0001
1000
0001
0010
0000
0100
0000
,
1000
0000
0010
0000
0100
0000
0001
0100
,
0000
0001
1000
0010
1000
0000
0100
0000
,
0010
0001
0010
0000
0100
0000
1000
0000
,
0001
0100
0001
0000
1000
0000
0010
0000
,
0100
0001
0100
0000
0001
0000
1000
0000
,
0100
0010
0100
0010
0100
0000
0110
0000
,
1000
0000
0100
0000
0010
0000
0001
0100
,
0000
0010
1000
0010
1000
0000
0100
0000
,
0010
0000
0100
0000
1000
0000
0001
0100
,
0000
0000
0010
0000
1000
0100
1000
0100
,
1000
0000
0001
0000
0010
0000
0100
0010
,
0000
0000
0100
0000
1000
0010
1000
0010
,
1000
0000
0010
0000
1000
0000
0001
0100
,
0000
0001
0010
0001
0010
0000
0110
0000
,
0100
1000
0100
0000
0010
0001
0010
0000
,
0001
0100
0001
0000
1000
0010
1000
0000
,
1001
0000
0010
0000
0100
0000
1000
0001
,
1000
1010
0100
0001
,
0010
0000
0100
0000
1000
0100
1000
0000
,
0001
0100
0020
1000
,
1000
0130
0001
0011
,
0010
0000
0100
0000
1000
0100
1000
0100
,
1000
0000
0001
1000
0001
0000
0100
0010
,
0100
0000
0001
1000
0001
0000
0010
0100
,
0020
0000
0001
0000
0130
0000
1000
0010
,
0100
0000
0110
0000
0100
0001
1000
0001
,
1000
0100
1000
0010
,
0100
0001
0100
0001
,
2000
0100
0100
0001
,
3001
0000
0010
0000
0110
0000
0100
1000
,
0100
0000
1000
0000
0010
0000
0100
0001
,
0100
0000
0001
0000
0010
0000
0100
1000
,
0100
1000
0010
0100
,
0001
0010
0100
1000
,
1001
0000
0001
0000
0100
0000
0010
0100
,
0010
0000
1000
0000
0010
1000
0010
0000
,
2000
0100
0001
3001
,
0010
0000
0100
0000
1000
0100
1000
0001
,
0100
0000
0010
0000
1000
0000
0100
1000
,
0100
0010
0001
1000
,
0020
0000
0100
0000
0130
0002
0000
0023
,
0000
0230
0000
2300
0000
3001
0100
0001
,
0100
0000
0010
0000
1000
0200
0000
0320
,
0000
0032
0000
2003
0000
3020
0000
0230
,
0000
0301
0002
0013
,
0100
0000
1100
0000
0100
0010
0100
0010
,
0001
1000
0010
0100
,
0001
0100
0001
0000
1000
0100
1000
0100
,
2000
0000
3000
0000
;

//---------------dance-single - ----------------
#NOTES:
     dance-single:
     :
     Beginner:
     1:
     0.141,0.160,0.000,0.000,0.000:
0000
0000
0000
0000
,
1000
0000
0001
0000
,
0010
0000
0100
0000
,
0000
0000
1000
0000
,
0010
0000
0100
0000
,
0000
0000
0001
0000
,
0010
0000
0100
0000
,
0000
0000
1000
0000
,
0010
0000
0100
0000
,
0001
0000
0000
0000
,
1000
0000
0100
0000
,
0010
0000
0000
0000
,
0001
0000
0100
0000
,
0001
0000
0000
0000
,
1000
0000
0100
0000
,
1000
0000
0000
0000
,
0010
0000
0100
0000
,
0010
0000
1000
0000
,
0100
0000
0010
0000
,
0100
0000
0010
0000
,
0001
0000
0100
0000
,
0010
0000
0100
0000
,
0001
0000
1000
0000
,
0100
0000
1000
0000
,
0001
0001
0001
0000
,
1000
0000
0000
0000
,
0010
0000
0000
0000
,
0100
0000
0001
0000
,
1000
0000
0100
0000
,
0010
0000
0000
0000
,
0001
0000
0000
0000
,
1000
0000
0010
0000
,
0100
0000
0001
0001
,
0001
0000
0000
0000
,
1000
0000
0100
0000
,
1000
1000
1000
0000
,
0010
0000
0100
0000
,
0010
0010
0010
0000
,
0100
0100
0100
0000
,
0001
0000
0010
0000
,
0100
0100
0100
0000
,
1000
0000
0001
0000
,
1000
0000
0010
0000
,
0100
0000
0000
0000
,
0001
0000
0010
0000
,
0100
0000
1000
0000
,
0010
0000
0100
0000
,
0001
0000
0000
0000
,
1000
0000
0001
0000
,
1000
0000
0010
0000
,
0100
0000
0001
0000
,
0010
0000
0100
0000
,
1000
0000
0010
0000
,
0100
0000
0001
0000
,
1000
0000
0100
0000
,
1000
0000
0010
0000
,
0100
0000
0001
0001
,
0001
0000
1000
0000
,
0100
0000
0010
0000
,
0100
0000
0000
0000
,
1000
0000
0000
0000
,
0010
0000
0010
0000
,
0100
0000
0100
0000
,
0001
0000
0000
0000
,
1000
0000
0000
0000
,
0100
0000
0100
0000
,
0010
0000
0001
0000
,
1000
0000
0010
0000
,
0100
0000
0001
0000
,
1000
0000
0100
0000
,
1000
0000
0010
0000
,
0100
0000
0001
0000
,
1000
0000
0100
0000
,
1000
0000
0100
0000
,
0010
0000
0001
0000
,
1000
0000
0000
0000
,
0010
0000
0100
0000
,
0001
0000
0000
0000
,
1000
0000
0100
0000
,
0010
0000
0000
0000
,
0001
0000
0010
0000
,
0100
0000
0000
0000
,
1000
0000
0001
0000
,
1000
0000
0000
0000
,
0001
0000
0000
0000
,
0100
0000
0010
0000
,
1000
0000
0100
0000
,
0010
0000
0000
0000
,
0100
0000
0000
0000
,
1000
0000
0000
0000
,
0001
0000
0100
0000
,
0010
0000
1000
0000
,
0100
0000
1000
0000
,
0001
0000
0000
0000
,
1000
0000
0010
0000
,
0100
0000
0000
0000
,
0001
0000
0000
0000
,
1000
0000
0100
0000
,
0010
0010
0010
0000
,
0001
0000
1000
0000
,
0001
0000
1000
0000
,
0010
0000
1000
0000
,
0010
0000
0100
0100
,
0100
0000
0001
0000
,
0010
0000
0100
0000
,
1000
0000
0001
0000
,
1000
1000
1000
0000
,
0001
0000
0010
0000
,
0100
0000
1000
0000
,
0010
0000
0100
0000
,
0001
0000
1000
1000
,
1000
0000
0100
0000
,
0010
0000
0001
0000
,
0010
0000
0100
0000
,
1000
1000
1000
0000
,
0001
0000
1000
0000
,
0010
0010
0010
0000
,
0100
0000
0000
0000
;
