#TITLE:Raven;
#SUBTITLE:;
#ARTIST:Do As Infinity;
#TITLETRANSLIT:Rakuen;
#SUBTITLETRANSLIT:;
#ARTISTTRANSLIT:;
#CREDIT:Xythar;
#BANNER:Raven.png;
#BACKGROUND:Raven-bg.png;
#LYRICSPATH:Raven.lrc;
#CDTITLE:daiseries.png;
#MUSIC:Raven.mp3;
#OFFSET:-0.738;
#SAMPLESTART:74.410;
#SAMPLELENGTH:20.220;
#SELECTABLE:YES;
#BPMS:0.000=94.988;
#STOPS:;
#BGCHANGES:-0.375=Raven.avi=1.000=1=1=0,
99999=-nosongbg-=1.000=0=0=0 // don't automatically add -songbackground-
;

//---------------dance-single - ----------------
#NOTES:
     dance-single:
     :
     Hard:
     8:
     0.365,0.354,0.009,0.163,0.129:
0000
0000
0000
0000
,
1000
0010
0000
0000
1000
0001
0000
0000
,
1000
0100
0000
1000
1000
1000
1000
0010
,
0100
0001
0000
0000
1000
0001
0000
0000
,
0010
0001
0000
0100
0100
0100
0100
0010
,
2000
0000
3200
0000
,
2300
0000
0000
0010
3020
0100
0100
0100
,
0230
0000
0302
0000
,
0023
0000
0000
0001
0032
1000
1000
1000
,
1003
0010
1000
0000
1000
0100
1000
0000
,
0001
0100
0001
0000
0001
0010
0001
0000
,
1000
0010
0100
0000
1000
0100
0010
0000
,
0001
0100
0010
0001
0001
0001
0010
0100
,
1000
0100
0001
0000
1000
0010
0001
0000
,
0001
0100
1000
0000
0001
0010
1000
0000
,
1000
0001
0010
0000
1000
0001
0100
0000
,
0001
1000
0010
0001
0001
0001
0010
1000
,
0200
0000
0000
0000
0310
0000
0001
0000
1000
0010
0000
0010
1000
0000
0001
0000
,
0020
0000
0000
0000
0130
0000
1000
0000
0001
1000
0000
1000
0010
0000
0100
0000
,
1001
0000
0000
0000
0100
0000
1000
0000
0001
0100
0000
0010
1000
0000
0001
0000
,
0020
0000
0000
0000
0130
0000
1000
0000
0010
0100
0010
0000
0100
0001
0100
0000
,
0001
0010
0100
0000
0001
0010
0100
0000
,
1000
0100
0010
1000
1000
1000
0100
0010
,
0001
0100
0010
0000
0001
0100
0010
0000
,
1000
0010
0100
1000
1000
1000
0010
0100
,
0001
0010
1000
0000
0001
0010
1000
0000
,
1000
0100
0001
1000
1000
1000
0100
0001
,
0100
1000
0010
0000
0100
1000
0010
0000
,
0100
0001
0010
0100
0100
0100
0001
0010
,
0000
0000
0000
0000
1000
0000
0100
0000
1000
0000
0001
0000
0100
0000
0010
1000
,
0000
0010
1000
0000
0001
0000
0000
0000
1000
0000
0010
0000
1000
0000
0001
0010
,
0000
0001
0010
0000
0100
0000
0000
0000
1000
0000
0001
0000
0100
0000
1000
0100
,
0000
0001
0100
0000
0010
0000
1000
0000
0100
0000
1000
0000
0010
0000
0100
0001
,
0000
0100
0001
0000
1000
0001
1000
0001
0010
0000
0001
0000
1000
0000
0001
0100
,
0000
0001
0100
0000
0010
0000
1000
0000
0100
0000
1000
0000
0010
0000
0100
0001
,
0000
0010
0001
0000
1000
0000
0001
0000
0010
0000
0001
0000
1000
0000
0010
1000
,
0000
0001
1000
0000
0100
0000
0010
0001
0000
1000
0001
0000
0100
0000
0001
0010
,
0000
0001
1000
0000
0001
0100
0001
0100
0020
0000
0000
0000
1000
0000
0000
0000
,
0230
0000
0001
0000
0320
0000
0100
0100
,
0230
0001
0001
0001
0302
0000
0100
0000
,
2003
0000
0100
0000
3002
0000
0010
0010
,
0023
0100
0130
1000
0000
0000
0000
0000
;

//---------------dance-single - ----------------
#NOTES:
     dance-single:
     :
     Medium:
     6:
     0.306,0.284,0.009,0.171,0.133: // measure 1
0000
0000
0000
0000
,  // measure 2
1000
0001
0000
0000
1000
0010
0000
0000
,  // measure 3
1000
0100
0000
1000
0001
1000
0001
0010
,  // measure 4
0001
1000
0000
0000
0001
0010
0000
0000
,  // measure 5
0001
0100
0000
0001
1000
0001
1000
0100
,  // measure 6
0020
0000
0032
0000
,  // measure 7
0203
0000
0320
0000
,  // measure 8
2030
0000
3002
0000
,  // measure 9
0023
0000
0032
0000
,  // measure 10
1003
0010
1000
0000
0001
0010
0001
0000
,  // measure 11
1000
0100
1000
0000
0001
0100
0001
0000
,  // measure 12
1000
0100
0010
0000
0001
0100
0010
0000
,  // measure 13
1000
0001
0010
0001
1000
0001
1000
0010
,  // measure 14
1000
0010
0100
0000
0001
0010
0100
0000
,  // measure 15
1000
0001
0100
0000
0001
1000
0100
0000
,  // measure 16
0010
0001
0100
0000
0010
1000
0100
0000
,  // measure 17
1000
0010
0100
0001
0100
0001
0100
0010
,  // measure 18
2000
0000
0000
0000
0100
0000
0000
0000
3001
0100
0000
0000
0001
0000
0000
0000
,  // measure 19
0020
0000
0000
0000
0100
0000
0000
0000
1030
0100
0000
0000
1001
0000
0000
0000
,  // measure 20
0020
0000
0000
0000
0100
0000
0000
0000
0031
1000
0000
0000
0100
0000
0000
0000
,  // measure 21
2000
0000
0000
0000
0010
0000
0000
0000
3100
0001
0000
0000
0010
0000
0100
0000
,  // measure 22
1000
0001
1000
0000
0010
0100
0010
0000
,  // measure 23
0100
0001
0100
0001
1000
0001
1000
0010
,  // measure 24
0100
0001
1000
0000
0001
1000
0010
0000
,  // measure 25
0100
0001
0010
0001
1000
0001
1000
0010
,  // measure 26
0100
0001
1000
0000
0001
1000
0010
0000
,  // measure 27
0100
0001
0010
0100
0010
0100
0010
0001
,  // measure 28
1000
0010
0100
0000
0010
1000
0100
0000
,  // measure 29
0001
0100
1000
0001
1000
0001
1000
0010
,  // measure 30
0000
0000
0000
0000
0001
0000
0010
0000
1000
0000
0001
0000
1000
0000
0000
0001
,  // measure 31
0000
1000
0000
0001
0100
0000
0000
0000
0010
0000
1000
0000
0100
0000
0000
0010
,  // measure 32
0000
0001
0000
1000
0001
0000
0000
0000
1000
0000
0010
0000
1000
0000
0000
0001
,  // measure 33
0000
1000
0000
0001
0010
0000
0000
0100
0000
1000
0000
0001
1000
0000
0000
0001
,  // measure 34
0000
0100
0000
0010
1000
0000
0001
0000
0010
0000
1000
0000
0010
0000
0000
0001
,  // measure 35
0000
0100
0000
0010
1000
0000
0000
0000
0001
0000
0010
0000
0100
0000
0000
1000
,  // measure 36
0000
0010
0000
0100
0001
0000
0000
0000
1000
0000
0001
0000
0010
0000
0000
0100
,  // measure 37
0000
1000
0000
0001
1000
0000
0000
0001
0000
0100
0000
0010
1000
0000
0001
0000
,  // measure 38
1000
0100
1000
0010
0200
0000
0000
0000
,  // measure 39
0302
0000
0023
0000
,  // measure 40
0230
0000
2300
0000
,  // measure 41
3020
0000
0230
0000
,  // measure 42
0302
0000
0003
0000
;

//---------------dance-single - ----------------
#NOTES:
     dance-single:
     :
     Easy:
     2:
     0.154,0.231,0.000,0.223,0.000: // measure 1
0000
0000
0000
0000
,  // measure 2
1000
0000
0001
0000
,  // measure 3
0100
0000
0010
0000
,  // measure 4
1000
0000
0100
0000
,  // measure 5
1000
0000
0001
0000
,  // measure 6
2000
0000
3002
0000
,  // measure 7
2003
0000
3020
0000
,  // measure 8
0230
0000
0302
0000
,  // measure 9
2003
0000
3002
0000
,  // measure 10
1003
0000
0010
0000
,  // measure 11
0100
0000
0001
0000
,  // measure 12
0010
0000
0001
0000
,  // measure 13
1000
0000
0010
0000
,  // measure 14
1000
0000
0100
0000
,  // measure 15
0010
0000
0001
0000
,  // measure 16
0100
0000
0010
0000
,  // measure 17
1000
0000
0001
0000
,  // measure 18
2000
0010
3020
0100
,  // measure 19
0230
0001
0302
1000
,  // measure 20
2003
0001
3002
0100
,  // measure 21
0203
0010
0320
1000
,  // measure 22
1030
0000
0001
0000
,  // measure 23
0100
0000
0001
0000
,  // measure 24
0010
0000
0100
0000
,  // measure 25
1000
0000
0010
0000
,  // measure 26
1000
0000
0001
0000
,  // measure 27
1000
0000
0010
0000
,  // measure 28
1000
0000
0100
0000
,  // measure 29
1000
0000
0001
0000
,  // measure 30
0000
0000
1000
0010
,  // measure 31
1000
0001
0010
0001
,  // measure 32
1000
0000
0001
0100
,  // measure 33
0001
0010
0001
1000
,  // measure 34
0010
0000
0100
0001
,  // measure 35
0010
0001
1000
1000
,  // measure 36
0010
0100
0001
0001
,  // measure 37
1000
1000
0002
0000
,  // measure 38
2003
0000
3020
0000
,  // measure 39
0230
0000
0302
0000
,  // measure 40
2003
0000
3020
0000
,  // measure 41
0230
0000
0302
0000
,  // measure 42
2003
0000
3000
0000
;
