#TITLE:楽園;
#SUBTITLE:;
#ARTIST:Do As Infinity;
#TITLETRANSLIT:Rakuen;
#SUBTITLETRANSLIT:;
#ARTISTTRANSLIT:;
#CREDIT:Xythar;
#BANNER:Rakuen-bn.avi;
#BACKGROUND:Rakuen-bg.png;
#LYRICSPATH:Rakuen.lrc;
#CDTITLE:daiseries.png;
#MUSIC:Rakuen.mp3;
#OFFSET:-1.521;
#SAMPLESTART:45.930;
#SAMPLELENGTH:20.220;
#SELECTABLE:YES;
#BPMS:0.000=95.010;
#STOPS:;
#BGCHANGES:4.125=Rakuen.avi=1.000=1=0=1,
167.500=Rakuen-bg.png=1.000=1=0=1,
99999=-nosongbg-=1.000=0=0=0 // don't automatically add -songbackground-
;

//---------------dance-single - ----------------
#NOTES:
     dance-single:
     :
     Hard:
     9:
     0.468,0.562,0.322,0.000,0.255:
0000
0000
0000
0000
,
0000
0000
0000
0000
,
0000
0000
0000
0000
,
0000
0000
0000
0000
0000
0001
0100
0100
,
0001
1000
0100
1000
0000
0010
0100
0000
,
0001
1000
0100
1000
0000
0010
0100
0100
,
0010
0100
0001
0100
0000
0001
1000
0000
,
0100
0010
0001
0010
0000
0100
1000
0000
,
0010
0100
0001
0100
0010
1000
0100
0000
,
1000
0010
0100
0010
1000
0100
0010
0010
,
0001
0100
0010
0100
0001
1000
0100
0000
,
1000
0001
0010
0001
1000
0001
0100
0100
,
0010
1000
0100
0010
0001
1000
0010
0000
,
0100
0001
1000
0001
0010
0100
1000
0010
,
0100
0000
0100
0001
0000
0001
1000
0100
,
0000
1000
0001
0000
0100
0000
0001
0000
,
1000
0100
0010
0001
0000
0100
0010
0100
,
0000
0001
1000
0000
0001
0000
1000
0000
,
1001
0000
0100
0000
0010
0000
0001
0100
0001
0100
0001
0000
1100
0000
0010
0001
,
0010
0000
0100
0000
1000
0000
0010
0100
0001
0100
0010
0000
1000
0000
0100
0010
,
0001
0000
0101
0000
1010
0000
0001
0010
0100
0000
1010
0000
0101
0000
1000
0100
,
0010
0000
0001
0000
0110
0000
1000
0100
0000
0100
1000
0001
1000
0001
1000
0001
,
0100
0000
0010
0000
1001
0000
0100
0010
0001
0010
0100
0000
1001
0000
0010
0100
,
0001
0100
0010
0000
1100
0000
0001
0010
0100
0010
0001
0000
1010
0000
0001
0100
,
0010
0100
0001
0000
1100
0000
0011
0000
0100
1000
0010
0000
0101
0000
1010
0000
,
0001
1000
0100
0000
0010
0001
0010
0001
0000
1000
0010
0100
0010
1000
0010
0100
,
0001
0000
1000
0000
0110
0000
0001
1000
0100
1000
0001
0000
0110
0000
1000
0001
,
0010
0001
1000
0000
0101
0000
0010
1000
0001
1000
0010
0000
1100
0000
0001
0010
,
0100
0000
1010
0000
0101
0000
0010
1000
0001
0000
0110
0000
1001
0000
0100
0010
,
0001
0000
1100
0000
0011
0000
0100
1000
0000
1000
0100
1000
0001
1000
0001
1000
,
0010
0000
0101
0000
1001
0000
0100
0010
0001
0010
0100
0000
1010
0000
0100
0010
,
1000
0010
0100
0000
1001
0000
1100
0000
0001
0010
0100
0000
1010
0000
1001
0000
,
1000
0100
0010
0000
0011
0000
1001
0000
0100
1000
0001
1000
0010
0000
0100
0001
,
0100
0001
1000
0100
0010
0001
1000
0010
0100
0001
1000
0000
0011
0000
1100
0000
,
0010
0100
0001
0100
0010
1000
0100
0000
,
1000
0010
0100
0001
0000
0001
1000
1000
,
0100
1000
0010
0100
0001
0010
0100
0000
,
1000
0010
0100
0001
0000
0001
0010
0010
,
0100
1000
0001
1000
0000
1000
0010
0000
,
0100
0001
0100
0010
0000
1000
0100
0100
,
1000
0010
0100
0001
0000
0001
0100
0000
,
0001
1000
0100
0000
1000
0001
1000
0001
;

//---------------dance-single - ----------------
#NOTES:
     dance-single:
     :
     Medium:
     7:
     0.361,0.412,0.152,0.000,0.103:
0000
0000
0000
0000
,
0000
0000
0000
0000
,
0000
0000
0000
0000
,
0000
0000
0000
0000
0000
0001
1000
0001
,
1000
0000
0001
0100
0000
1000
0100
0000
,
0010
1000
0000
0100
0000
0010
0001
0010
,
0001
0000
1000
0100
0000
0001
0100
0000
,
1000
0010
0000
0100
0000
0001
1000
0000
,
0100
1000
0010
1000
0100
0000
0010
0000
,
0001
0100
0000
0010
0000
1000
0100
1000
,
0100
0000
0010
0001
0100
0000
0010
0000
,
1000
0100
1000
0000
0001
0100
0010
0100
,
0010
0000
1000
0001
0010
0000
0100
0000
,
1000
0010
0100
0010
1000
0000
0100
1000
,
0010
0000
0100
0001
0000
0001
1000
0100
,
0000
1000
0001
0000
0100
0000
0010
0000
,
1000
0100
1000
0010
0000
0100
0001
1000
,
0000
0001
0100
0000
0001
0000
1000
0100
,
0011
0000
0100
0000
1000
0000
0010
0100
0000
0100
0010
0000
1000
0000
0001
0000
,
0110
0000
0001
0000
1000
0000
0100
0010
0000
0010
0100
0000
1000
0000
0010
0000
,
0101
0010
1000
0100
0011
0100
1000
0010
,
1001
0000
0100
0000
0010
0000
0001
1000
0000
1000
0001
0000
1000
0100
1000
0000
,
0010
0000
0100
0000
0001
0000
0010
0100
0000
0100
0010
0000
0001
0000
0100
0010
,
0000
0010
0100
0000
0001
0000
1000
0001
1000
0000
0010
0000
0100
0000
0001
0000
,
1000
0100
0011
0000
0001
0100
1010
0000
,
0100
0010
1001
0010
0100
0001
0010
0100
,
1001
0000
0010
0000
0100
0000
0001
1000
0000
1000
0001
0000
0100
0000
0010
0000
,
1001
0000
0010
0000
0100
0000
1000
0001
0000
0001
1000
0000
0010
0000
0100
0000
,
0001
0010
1100
0010
0100
0001
1100
0010
,
0100
0000
0010
0000
1001
0000
0100
0010
0000
0010
0100
0000
1000
0001
1000
0000
,
0010
0000
0100
0000
0001
0000
1000
0100
0000
0100
1000
0000
0010
0000
0100
0000
,
0001
0000
0010
0000
0100
0000
1000
0010
0000
0010
1000
0000
0001
0000
0010
0000
,
1100
0010
0100
0001
1010
0100
0010
0001
,
0110
1000
0100
0010
1001
0100
0010
0100
,
0010
0000
1000
0100
0000
1000
0010
0000
,
0100
0001
0000
0010
0000
0100
1000
0100
,
1000
0000
0010
0100
0000
1000
0100
0000
,
0001
0010
0000
1000
0000
0010
0001
0010
,
0001
0000
0100
0010
0000
0100
0001
0000
,
1000
0100
0000
1000
0000
0001
0100
0001
,
0100
0000
0010
1000
0000
0001
1000
0000
,
0100
0010
0000
0001
0000
1000
0001
1000
;

//---------------dance-single - ----------------
#NOTES:
     dance-single:
     :
     Easy:
     4:
     0.188,0.243,0.152,0.000,0.000: // measure 1
0000
0000
0000
0000
,  // measure 2
0000
0000
0000
0000
,  // measure 3
0000
0000
0000
0000
,  // measure 4
0000
0000
0000
0001
,  // measure 5
1000
0000
0000
0010
0000
0000
0100
0000
,  // measure 6
0001
0000
0000
1000
0000
0000
0100
0000
,  // measure 7
1000
0000
0000
0010
0000
0000
0100
0000
,  // measure 8
0010
0000
0000
1000
0000
0000
0100
0000
,  // measure 9
1000
0000
0000
0001
0000
0000
0100
0000
,  // measure 10
0010
0000
0000
1000
0000
0000
0100
0000
,  // measure 11
1000
0000
0000
0010
0000
0000
0100
0000
,  // measure 12
0001
0010
0100
1000
,  // measure 13
0010
0000
0000
0100
0000
0000
0001
0000
,  // measure 14
1000
0000
0000
0100
0000
0000
1000
0000
,  // measure 15
0010
0000
0000
0100
0000
0000
0000
0001
,  // measure 16
0000
0000
1000
0001
,  // measure 17
0010
0000
0000
0100
0000
0000
0000
1000
,  // measure 18
0000
0000
0010
0100
,  // measure 19
1001
0100
0010
0001
,  // measure 20
0110
1000
0100
0010
,  // measure 21
0101
0010
1100
0010
,  // measure 22
1001
0010
0100
0001
,  // measure 23
1100
0010
0001
0100
,  // measure 24
0010
0100
0001
1000
,  // measure 25
0110
0001
1100
0010
,  // measure 26
0100
0001
1000
0100
,  // measure 27
1001
0010
0100
0001
,  // measure 28
0110
1000
0010
0100
,  // measure 29
0001
0110
1000
0110
,  // measure 30
0001
0100
0010
1000
,  // measure 31
0101
0010
1000
0100
,  // measure 32
0011
0100
1000
0010
,  // measure 33
1001
0100
1001
0010
,  // measure 34
1001
0100
1000
0010
,  // measure 35
0100
0000
0000
0001
0000
0000
1000
0000
,  // measure 36
0100
0000
0000
1000
0000
0000
0010
0000
,  // measure 37
0100
0000
0000
0001
0000
0000
0010
0000
,  // measure 38
0100
0000
0000
1000
0000
0000
0010
0000
,  // measure 39
0100
0000
0000
0010
0000
0000
0100
0000
,  // measure 40
0001
0000
0000
1000
0000
0000
0100
0000
,  // measure 41
0010
0000
0000
0001
0000
0000
0100
0000
,  // measure 42
0010
0000
0000
1000
0000
0000
0001
0000
;

//---------------dance-single - ----------------
#NOTES:
     dance-single:
     :
     Beginner:
     1:
     0.096,0.150,0.045,0.000,0.000: // measure 1
0000
0000
0000
0000
,  // measure 2
0000
0000
0000
0000
,  // measure 3
0000
0000
0000
0000
,  // measure 4
0000
0000
0000
0000
,  // measure 5
1000
0000
0001
0000
,  // measure 6
0100
0000
0000
0000
,  // measure 7
0010
0000
1000
0000
,  // measure 8
0100
0000
0000
0000
,  // measure 9
1000
0000
0000
0000
,  // measure 10
0010
0000
0100
0000
,  // measure 11
0010
0000
0000
0000
,  // measure 12
1000
0000
0100
0000
,  // measure 13
0010
0000
0000
0000
,  // measure 14
0001
0000
0100
0000
,  // measure 15
0010
0000
0000
0000
,  // measure 16
1000
0000
0001
0000
,  // measure 17
1000
0000
0000
0000
,  // measure 18
0100
0000
0000
0000
,  // measure 19
1000
1000
1000
0000
,  // measure 20
0010
0010
0010
0000
,  // measure 21
0100
0100
0100
0000
,  // measure 22
0001
0000
1001
0000
,  // measure 23
0010
0010
0010
0000
,  // measure 24
0100
0000
0001
0000
,  // measure 25
1000
0000
1001
0000
,  // measure 26
0110
0000
1001
0000
,  // measure 27
0001
0001
0001
0000
,  // measure 28
0100
0100
0100
0000
,  // measure 29
0010
0000
1000
0000
,  // measure 30
0100
0000
0010
0000
,  // measure 31
0001
0000
1000
0000
,  // measure 32
0010
0000
0000
0100
,  // measure 33
0100
0000
0001
0000
,  // measure 34
1000
0000
1001
0000
,  // measure 35
0010
0000
0000
0000
,  // measure 36
0100
0000
0000
0000
,  // measure 37
0001
0000
1000
0000
,  // measure 38
0100
0000
0000
0000
,  // measure 39
1000
0000
0010
0000
,  // measure 40
0100
0000
0000
0000
,  // measure 41
0001
0000
1000
0000
,  // measure 42
0100
0000
0000
1000
;
