#TITLE:Psyche Planet V;
#SUBTITLE:;
#ARTIST:Sota Fujimori;
#TITLETRANSLIT:;
#SUBTITLETRANSLIT:;
#ARTISTTRANSLIT:;
#CREDIT:Steps and graphics by Xythar (source images: eKtOr182 and rmh12187 on deviantart.com);
#BANNER:Psyche Planet V.png;
#BACKGROUND:Psyche Planet V-bg.png;
#LYRICSPATH:;
#CDTITLE:xythar.png;
#MUSIC:Psyche Planet V.mp3;
#OFFSET:0.763;
#SAMPLESTART:52.038;
#SAMPLELENGTH:12.000;
#SELECTABLE:YES;
#BPMS:0.000=150.000;
#STOPS:;
#BGCHANGES:;

//---------------dance-single - ----------------
#NOTES:
     dance-single:
     :
     Hard:
     8:
     0.591,0.543,0.132,0.000,0.223:
0000
0000
0000
0000
,
1000
0000
0100
0000
0010
0001
0010
0000
,
0001
0000
0100
0000
0010
1000
0010
0000
,
1000
0000
0001
0000
0100
0010
0100
0000
,
0001
0000
0010
0000
1000
0010
0100
0010
,
0001
0000
1000
0000
0010
0100
0001
1000
,
0100
0000
1000
0000
0001
0010
0100
1000
,
0001
0100
0010
0000
0010
0100
0001
0000
,
1000
0100
0010
0000
0100
0010
0001
0100
,
0010
1000
0100
0000
0100
1000
0010
0000
,
0100
0001
0010
0000
0010
0001
0100
0000
,
0010
1000
0001
0000
0001
1000
0100
0000
,
1000
0001
0100
0010
1000
0100
0010
0000
,
0001
1000
0100
0000
0100
1000
0010
0000
,
0100
0001
0010
0000
0010
0001
1000
0000
,
0001
0010
0100
0000
0001
0100
1000
0000
,
0010
0100
0001
0100
1000
0100
0001
1000
,
0100
0000
0000
1000
0000
0000
0010
0000
0000
0100
0000
0000
0001
0000
1000
0000
,
0001
0000
0000
0010
0000
0000
0100
0000
0000
0010
0000
0000
0001
0000
1000
0000
,
0100
0000
0000
1000
0000
0000
0010
0000
0000
0100
0000
0000
0001
0000
0010
0000
,
0100
0000
0000
1000
0000
0000
0010
0000
0000
0001
0000
0000
0010
0000
1000
0000
,
0100
0000
0000
1000
0000
0000
0001
0000
0000
0100
0000
0000
0001
0000
1000
0000
,
0100
0000
0000
1000
0000
0000
0010
0000
0000
0100
0000
0000
0001
0000
1000
0000
,
0100
0000
0000
0010
0000
0000
0100
0000
0000
0001
0000
0000
0100
0000
1000
0000
,
0001
0000
0000
1000
0000
0000
0010
0000
0000
0100
0000
0000
0001
0000
1000
0000
,
0100
0000
0100
1000
0000
0000
0001
0000
0000
0100
0000
0000
0010
0000
0100
0000
,
0001
0000
0001
1000
0000
0000
0100
0000
0100
0010
0000
0000
0001
0000
1000
0000
,
0100
0000
0000
1000
0000
0000
0010
0000
0010
0100
0000
0000
0001
0000
1000
0000
,
0100
0000
0000
1000
0000
0000
0010
0000
0010
0100
0000
0000
0001
0000
0010
0000
,
0100
0000
0100
0010
0000
0000
0001
0000
0001
0100
0000
0000
0010
0000
1000
0000
,
0100
0000
0000
0001
0000
0000
0100
0000
0000
1000
0000
0000
0001
0000
0100
0000
,
0010
0000
0010
1000
0000
0000
0001
0000
0001
0100
0000
0000
0001
0000
0010
0000
,
0100
0010
0001
1000
0100
0010
0100
1000
,
1001
0000
1000
0000
0010
0000
0000
0100
0000
0001
0000
0000
0100
0000
0010
0000
,
1000
0000
0001
0000
1000
0000
0000
0001
0000
0100
0000
0000
0001
0000
1000
0000
,
0100
0000
1000
0000
0001
0000
0000
0100
0000
0010
0000
0000
0100
0000
0001
0000
,
0010
0000
1000
0000
0010
0000
0000
0100
0000
0010
0000
0000
0001
0000
1000
0000
,
0100
0000
1000
0000
0010
0000
0000
0100
0000
1000
0000
0000
0100
0000
0001
0000
,
1000
0000
0001
0000
0010
0000
0000
0001
0000
0100
0000
0000
0001
0000
1000
0000
,
0100
0000
1000
0000
0010
0000
0000
1000
0000
0001
0000
0000
0010
0000
0100
0000
,
0010
0000
0001
0000
0100
0000
0000
0010
0000
1000
0000
0000
0010
0000
0100
0000
,
0001
1000
0100
0000
1000
0001
0100
0000
,
0001
0010
0100
1000
0010
0100
0001
0000
,
1000
0100
0010
0100
1000
0001
0100
0010
,
0100
0001
1000
0100
0001
0100
1000
0000
,
0001
0010
0100
0000
1000
0100
0010
0000
,
0001
0100
0010
1000
0100
0010
0001
0000
,
1000
0010
0001
0010
0100
1000
0100
0001
,
1000
0100
0010
0001
1000
0010
0100
0001
,
1001
0000
0000
1000
0001
0000
1000
0000
0010
0000
0100
0000
0001
0000
0000
0000
,
1000
0000
0100
0000
0010
0000
0100
0000
1000
0100
1000
0000
1001
0000
0000
0000
,
1000
0010
0100
0010
1000
0001
0010
0100
,
0010
0000
0000
0010
0001
0000
0000
0001
0100
0000
0000
0100
0010
0000
0000
0010
,
1000
0100
0010
0000
0001
0001
0100
0000
,
0010
1000
0010
0000
0100
0000
0001
0000
1000
0100
1000
0000
0010
0000
0000
0000
,
1010
0101
1100
0011
,
1000
0100
0010
0100
1000
0001
0100
0010
,
1000
0000
0001
0010
0000
0100
0000
0110
,
0000
0011
0000
1000
0100
0010
0001
0100
,
0010
0000
0010
0100
0000
0001
0000
1001
,
0000
1100
0000
1000
0001
0100
0001
1000
,
0100
0000
0010
0100
0000
0100
0000
0110
,
0000
1100
0000
0001
0100
0010
1000
0100
,
0010
0000
0001
0100
0000
0100
0000
1100
,
0000
0101
0000
1000
0010
0100
0010
1000
,
0100
1000
0001
0100
0010
0100
0001
1000
,
0100
0010
0100
0001
0100
1000
0100
0001
,
0100
1000
0010
0100
0001
0010
1000
0010
,
0001
0100
1000
0100
0001
1000
0100
0010
,
0001
0100
0010
1000
0100
0010
0100
1000
,
0001
0100
0001
1000
0100
1000
0010
0100
,
0001
0010
0100
0010
0001
1000
0010
0100
,
0001
1000
0010
0100
0010
1000
0100
0010
,
0011
0000
0000
0000
;

//---------------dance-single - ----------------
#NOTES:
     dance-single:
     :
     Easy:
     4:
     0.349,0.423,0.364,0.000,0.000:
0000
0000
0000
0000
,
1000
0100
0010
0001
,
0100
0001
1000
0000
,
0001
0100
0010
1000
,
0001
1000
0100
0000
,
1000
0010
0100
0001
,
1000
0001
0010
0001
,
1000
0100
0010
0100
,
1000
0001
0100
0010
,
0110
0000
0101
0000
,
1001
0000
1100
0000
,
0110
0000
0011
0000
,
1010
0000
0101
0000
,
1100
0000
0101
0000
,
1100
0000
0110
0000
,
0011
0000
1001
0000
,
0101
0000
0110
0000
,
1001
0010
0100
1000
,
0010
1000
0100
1000
,
0001
0100
0001
0010
,
0001
1000
0100
0010
,
0100
0010
0100
0001
,
0100
1000
0010
0100
,
0010
0001
0010
1000
,
0010
0100
0001
1000
,
1001
0000
0010
0000
,
0001
0100
1000
0100
,
0001
0000
0110
0000
,
1000
0010
0001
0010
,
1000
0000
1100
0000
,
0010
0001
0100
0010
,
1000
0000
0101
0000
,
1000
0100
0010
0011
,
1001
0000
1001
0000
,
0100
0010
1000
0100
,
0110
0000
0110
0000
,
0001
0100
0010
0100
,
0101
0000
0101
0000
,
1000
0010
1000
0001
,
1001
0000
0110
0000
,
0100
1000
0001
0100
,
0001
0000
1000
0000
,
0001
0000
1000
0100
,
0010
0100
0010
0001
,
0100
0010
0100
0001
,
1000
0010
0100
1000
,
0100
0001
1000
0100
,
1100
0000
0010
0001
,
0100
0010
1000
0100
,
0110
0010
0001
0001
,
1000
1000
1000
0010
,
0100
0100
0001
0001
,
1001
1001
1001
1000
,
0100
0100
0010
0010
,
0110
0110
0110
0100
,
1000
1000
0001
0001
,
1001
1001
1001
1001
,
1001
0001
1000
0100
,
1000
0001
0100
0010
,
0100
0001
1000
0100
,
0010
0100
0010
0001
,
0100
0010
0100
0001
,
1000
0010
0100
0010
,
0100
0001
0100
0001
,
1000
0100
0010
0001
,
1000
0010
1000
0001
,
0100
0001
1000
0001
,
0010
0001
1000
0100
,
1000
0010
0100
0001
,
1000
0001
0100
0010
,
0100
0001
0100
0010
,
1000
0100
0010
0001
,
1000
0010
0100
0001
,
1001
0000
0000
0000
;

//---------------dance-single - ----------------
#NOTES:
     dance-single:
     :
     Medium:
     5:
     0.435,0.423,0.232,0.000,0.000:
0000
0000
0000
0000
,
1000
0100
0010
0001
,
0100
0001
1000
0010
,
0100
0001
1000
0001
,
1000
0100
0010
0100
,
1000
0000
0001
0010
0000
0001
0000
0000
,
0100
0000
0010
0100
0000
0001
0000
0000
,
1000
0100
1000
0000
0001
0000
0100
0000
,
0001
0010
0001
0000
1000
0000
0010
0000
,
1100
0100
0010
0001
,
0101
0100
0010
1000
,
1001
0010
0100
1000
,
1001
0100
0010
0001
,
0101
0100
0010
1000
,
1100
0100
0110
0010
,
0011
0001
0100
0010
,
1001
0001
0101
0100
,
0001
0100
0001
0000
1000
0000
0100
0000
,
0010
0100
0010
0000
0001
0000
0100
0000
,
0010
1000
0010
0000
1000
0000
0100
0000
,
0010
0001
0010
0000
0100
0000
1000
0000
,
0001
1000
0001
0000
1000
0000
0010
0000
,
0100
0010
0100
0000
0001
1000
0100
1000
,
0001
0000
1000
0000
0100
1000
0001
0000
,
0100
0000
0010
0000
1000
0001
0010
0001
,
1000
0000
0010
0000
0100
0001
0100
0000
,
0010
0000
1000
0000
0001
0100
0001
0000
,
1000
0000
0100
0000
0010
0100
0010
0000
,
0001
0000
0100
0000
0010
1000
0010
1000
,
0001
0000
1000
0000
0001
0010
0001
0000
,
1000
0000
0010
0000
0100
0000
0001
0010
,
0100
1000
0001
0100
,
0010
1000
0010
1000
0100
0010
0001
1000
,
0100
1000
0010
0100
,
0010
0100
0010
0000
1000
0000
0001
0000
,
0010
0100
1000
0000
0001
0000
0100
0000
,
0010
1000
0010
0000
1000
0000
0001
0000
,
0010
0100
0010
0000
0001
0000
0100
0000
,
0010
1000
0010
0000
0100
0000
0001
0000
,
1000
0100
1000
0000
0001
0000
0010
0000
,
0001
0100
0001
0000
1000
0000
0010
0000
,
1000
0000
0100
0000
,
0010
0001
0100
0010
,
1000
0001
1000
0100
,
0010
0001
1000
0100
,
1000
0100
1000
0000
0001
0100
0001
0000
,
1000
0010
1000
0000
0001
0010
0001
0000
,
1000
0100
1000
0001
0010
0001
0100
0000
,
0001
0100
0001
1000
0010
1000
0100
0000
,
1001
0000
0010
0000
,
0110
0000
0001
1000
,
1001
0001
0101
0100
,
0110
1010
1001
1100
,
0100
0010
0001
0100
,
0010
0100
0010
0000
0100
0001
0100
0000
,
0001
1000
0001
0100
0001
0010
0100
0000
,
1000
0010
0100
0001
0010
0100
1000
0000
,
1001
0000
0000
0010
0000
0100
0000
0110
,
0000
0110
0000
0000
0010
0000
0001
0000
,
0100
0000
0000
0010
0000
1000
0000
1010
,
0000
1010
0000
0000
1000
0000
0100
0000
,
0010
0000
0000
0001
0000
0100
0000
0101
,
0000
0101
0000
0000
1000
0000
0100
0000
,
0010
0000
0000
0001
0000
1000
0000
1001
,
0000
1001
0000
0000
1000
0000
0010
0000
,
0100
0000
0001
0100
0000
0001
0000
1000
,
0000
0100
0000
0010
0001
0010
0001
0100
,
0010
0000
1000
0100
0000
1000
0000
0001
,
0000
0001
0000
1000
0010
0100
0010
1000
,
0100
0000
1000
0001
0000
0100
0000
0010
,
0000
1000
0000
0100
1000
0001
1000
0001
,
0010
0000
0100
1000
0000
0100
0000
1000
,
0000
0010
0000
0100
0001
0010
0100
0000
,
1001
0000
0000
0000
;

//---------------dance-single - ----------------
#NOTES:
     dance-single:
     :
     Challenge:
     10:
     0.898,0.875,0.289,0.000,1.000:
0000
0000
0000
0000
,
1000
0000
0000
0100
0000
0000
0010
0000
0000
0001
0000
0000
0100
0000
0010
0000
,
0100
0000
0000
0001
0000
0000
1000
0000
0000
0100
0000
0000
1000
0000
0001
0000
,
0010
0000
0000
0100
0000
0000
1000
0000
0000
0010
0000
0000
0100
0000
0001
0000
,
1000
0000
0000
0010
0000
0000
1000
0000
0000
0100
0000
0000
0010
0000
0001
0000
,
1000
0100
1000
0001
0000
0010
0000
0100
,
0010
0001
0100
0010
0000
1000
0000
0001
,
0010
0001
0010
0000
0001
0000
0000
0000
0100
0000
0000
0010
0000
0000
0100
0000
,
0001
1000
0001
0000
1000
0000
0000
0000
0100
0000
0000
0010
0000
0000
0100
0000
,
1000
0100
0000
0100
0010
0000
0001
0000
0100
0010
0000
0010
1000
0000
0001
0000
,
0010
0100
0000
0100
1000
0000
0100
0000
1000
0010
0000
0010
0100
0000
0001
0000
,
1000
0100
0000
0100
1000
0000
0001
0000
0100
0010
0000
0010
1000
0000
0010
0000
,
1000
0001
0000
0001
0010
0000
0100
0000
1000
0010
0000
0010
0100
0001
0100
0000
,
0100
0001
0000
0001
1000
0000
0001
0000
0010
0001
0000
0001
1000
0000
0001
0000
,
1000
0010
0000
0010
0100
0000
0010
0000
1000
0100
0000
0100
0010
0000
0100
0000
,
1000
0001
0000
0001
0100
0000
0001
0000
1000
0001
0000
0001
0010
0000
0100
0000
,
0010
0001
0000
0001
1000
0000
0001
0000
0100
0001
0000
0001
1000
0000
0100
0000
,
1000
0000
1000
0100
0000
0100
0010
0000
0010
0001
0000
0100
0010
0000
1000
0000
,
0001
0000
0001
0010
0000
0010
0100
0000
0100
1000
0000
0001
1000
0001
1000
0001
,
1000
0000
1000
0010
0000
0010
0100
0000
0100
0001
0000
0010
0100
0000
1000
0000
,
0001
0000
0001
0100
0000
0100
0010
0000
0010
1000
0000
0001
1000
0001
1000
0001
,
1000
0000
1000
0001
0000
0001
0100
0000
0100
0001
0000
0001
1000
0000
0100
0000
,
0010
0000
0010
0100
0000
0100
0010
0000
0010
0001
0000
0001
0100
0001
0100
0001
,
0100
0000
0100
0010
0000
0010
1000
0000
1000
0001
0000
0001
0010
0000
0100
0000
,
0010
0000
0010
0001
0000
0001
0100
0000
0100
0001
0000
1000
0010
1000
0010
1000
,
0010
0000
0010
0100
0000
0100
0001
0000
0001
1000
0000
0100
1000
0100
1000
0100
,
1000
0000
1000
0001
0000
0001
0010
0000
0100
0010
0100
0010
0001
0010
0001
0010
,
0001
0000
0001
1000
0000
1000
0010
0000
0010
0100
0000
0100
0001
0100
0001
0100
,
0001
0000
0001
1000
0000
1000
0100
0000
1000
0100
1000
0100
0010
0100
0010
0001
,
0010
0000
0010
0001
0000
0001
0100
0000
0100
0010
0000
0010
1000
0010
1000
0010
,
1000
0000
1000
0001
0000
0001
0100
0000
0001
0010
0001
0010
0100
0010
0100
1000
,
0100
0000
0100
1000
0000
1000
0010
0000
0010
0100
0000
0100
0010
0100
0010
0100
,
0010
1000
0001
0010
0100
1000
0100
0010
,
0001
0100
0001
0000
0001
0000
1000
0100
0000
0100
0000
1000
0001
0000
0100
0000
,
0010
0100
0010
0000
0110
0000
0001
0100
0001
0100
0001
0000
1001
0000
0100
0000
,
0010
0100
0010
0000
0100
0000
1000
0010
0000
0010
0000
0100
0001
0000
1000
0000
,
0100
1000
0100
0000
1100
0000
0010
0001
0010
0001
0010
0000
0011
0000
0100
0000
,
0010
0000
0010
0000
0001
0010
0001
0010
0100
0010
0001
0100
0010
0000
1000
0000
,
0001
0000
0001
0000
0100
0000
0001
1000
0000
1000
0000
0100
0010
0000
0001
0000
,
1000
0100
1000
0100
0010
0100
0010
0100
1000
0010
0100
0010
1000
0000
0001
0000
,
1000
0000
0010
0000
0100
0000
0001
0100
0000
0100
0000
0010
1000
0000
0100
0000
,
1000
0001
1000
0000
0001
0000
0010
0100
0000
0100
0000
1000
0010
0000
0100
0001
,
0100
0001
0100
0000
0001
0000
1000
0100
1000
0100
1000
0001
1000
0001
0100
0001
,
1000
0000
1000
0000
0100
0000
0100
0010
0000
0001
0000
0001
0100
0000
0010
0100
,
0010
0000
0000
0100
0000
0000
0001
0000
0000
0100
0000
0000
0001
0000
0000
0100
0000
0000
0001
0000
0000
0010
0000
0000
0001
0000
0000
0010
0000
0000
0100
0000
0000
0010
0000
0000
0100
0000
0000
1000
0000
0000
0100
0000
1000
0000
0100
0000
,
1000
0000
0010
0000
0010
0000
0100
0001
0000
0001
0000
1000
0100
1000
0100
0010
,
0100
0000
0100
0010
0000
0010
0001
0000
0001
0100
0000
0100
0010
0000
1000
0100
,
1000
0000
0001
0000
0001
0000
0100
0010
0000
0010
0000
1000
0100
0000
1000
0000
,
0100
1000
0100
1000
0100
0010
0100
0010
0001
0010
0001
0010
0001
0100
0010
0100
,
0001
0000
0000
0000
0000
0001
1000
0000
0000
0100
0000
0000
0110
0000
0000
0011
0000
0000
1001
0000
0000
0000
0000
0000
,
1000
0010
0100
0001
0010
0100
1001
0000
,
0001
0010
0100
0010
0001
0100
0010
1000
,
0001
0100
0001
0000
1001
0000
1000
0100
1000
0100
1000
0000
0101
0000
0101
0000
,
1000
0100
0000
0100
0010
0100
0000
0010
0001
0010
0000
0001
0100
0001
0000
1000
,
0010
1000
0000
0010
0100
0010
0000
0100
0001
0100
0000
0000
0001
0000
0001
0000
,
0011
0001
1001
1000
1100
0110
0011
0000
,
0001
0010
0001
0010
0100
0010
0100
0010
0100
1000
0100
1000
0010
1000
0010
1000
,
0001
0001
1000
0100
1000
0010
0100
0101
,
0001
1001
1000
0100
0010
0010
0100
0010
,
0001
0001
0100
0010
1000
0010
1000
1001
,
0001
0101
0100
0010
1000
1000
0001
0010
,
0001
0001
1000
0010
0100
0010
1000
1001
,
0001
0101
0100
0010
1000
1000
0001
0010
,
0100
0100
0010
0001
1000
0010
0100
0101
,
0001
0011
0010
0100
1000
1000
0010
0100
,
0001
0100
0001
0000
1000
0000
0100
0010
0100
0010
0100
0000
0010
0000
0001
0010
,
0001
0000
1000
0000
0010
0000
1000
0100
1000
0000
0001
0000
0100
0000
0010
0000
,
1000
0100
1000
0000
0001
0000
0100
0010
0100
0000
0001
0000
0010
0000
0001
0100
,
0001
0100
0001
0000
1000
0000
1100
0000
0110
0000
0011
0000
1001
0000
1010
0000
,
0010
1000
0010
0000
0100
0000
0001
0010
0001
0010
0001
0000
1000
0000
0001
0100
,
0001
1000
0100
0110
0011
1001
1100
0110
,
0001
0010
0001
0000
1000
0000
0010
0100
0010
0100
0010
0000
0001
0000
0000
0000
,
1000
0100
1000
0100
0000
0010
0100
0010
0100
0000
0010
0001
0000
0100
0010
0000
,
1001
0000
0000
0000
;

//---------------dance-single - ----------------
#NOTES:
     dance-single:
     :
     Beginner:
     1:
     0.187,0.302,0.207,0.000,0.000: // measure 1
0000
0000
0000
0000
,  // measure 2
1000
0000
0100
0000
,  // measure 3
1000
0000
0001
0000
,  // measure 4
0100
0000
0010
0000
,  // measure 5
0100
0000
0001
0000
,  // measure 6
0010
0000
0001
0000
,  // measure 7
1000
0000
0100
0000
,  // measure 8
0010
0000
0001
0000
,  // measure 9
0100
0000
0010
0000
,  // measure 10
1001
0000
0000
0000
,  // measure 11
0110
0000
0000
0000
,  // measure 12
1001
0000
0000
0000
,  // measure 13
0110
0000
0000
0000
,  // measure 14
1001
0000
1001
0000
,  // measure 15
0110
0000
0110
0000
,  // measure 16
1001
0000
0110
0000
,  // measure 17
1001
0000
0110
0000
,  // measure 18
1001
0000
0000
0000
,  // measure 19
0010
0000
0100
0000
,  // measure 20
0010
0000
0000
0000
,  // measure 21
0001
0000
0100
0000
,  // measure 22
0001
0000
0000
0000
,  // measure 23
1000
0000
0100
0000
,  // measure 24
1000
0000
0000
0000
,  // measure 25
0001
0000
0010
0000
,  // measure 26
0100
0000
0000
0000
,  // measure 27
1000
0000
0010
0000
,  // measure 28
0100
0000
0000
0000
,  // measure 29
0001
0000
1000
0000
,  // measure 30
0100
0000
0000
0000
,  // measure 31
1000
0000
0001
0000
,  // measure 32
0010
0000
0000
0000
,  // measure 33
0100
0000
1000
0000
,  // measure 34
0010
0000
0100
0000
,  // measure 35
0010
0000
1000
0000
,  // measure 36
0100
0000
0010
0000
,  // measure 37
0001
0000
1000
0000
,  // measure 38
0100
0000
1000
0000
,  // measure 39
0010
0000
0100
0000
,  // measure 40
0001
0000
0100
0000
,  // measure 41
0001
0000
0010
0000
,  // measure 42
0100
0000
0010
0000
,  // measure 43
0001
0000
0100
0000
,  // measure 44
0010
0000
1000
0000
,  // measure 45
0100
0000
0010
0000
,  // measure 46
0100
0000
1000
0000
,  // measure 47
0001
0000
1000
0000
,  // measure 48
0100
0000
0010
0000
,  // measure 49
0001
0000
1000
0000
,  // measure 50
1001
0000
0010
0010
,  // measure 51
0010
0000
0100
0100
,  // measure 52
0100
0000
0001
0000
,  // measure 53
1000
0000
0001
0000
,  // measure 54
1001
0000
1000
0000
,  // measure 55
0100
0100
0100
0000
,  // measure 56
0010
0010
0010
0000
,  // measure 57
0001
0000
1000
0000
,  // measure 58
1001
0000
0000
0000
,  // measure 59
1001
0000
0110
0000
,  // measure 60
1001
0000
0000
0000
,  // measure 61
0010
0000
0100
0000
,  // measure 62
1001
0000
0000
0000
,  // measure 63
0110
0000
1001
0000
,  // measure 64
0110
0000
0000
0000
,  // measure 65
1000
0000
0001
0000
,  // measure 66
0110
0000
0010
0000
,  // measure 67
0001
0000
0100
0000
,  // measure 68
0010
0000
1000
0000
,  // measure 69
0100
0000
0010
0000
,  // measure 70
0001
0000
1000
0000
,  // measure 71
0010
0000
1000
0000
,  // measure 72
0001
0000
0010
0000
,  // measure 73
0100
0000
1000
0000
,  // measure 74
1001
0000
0000
0000
;
