#TITLE:Pray;
#SUBTITLE:;
#ARTIST:Tommy heavenly6;
#TITLETRANSLIT:;
#SUBTITLETRANSLIT:;
#ARTISTTRANSLIT:;
#CREDIT:Xythar;
#BANNER:Pray.png;
#BACKGROUND:Pray-bg.png;
#LYRICSPATH:Pray.lrc;
#CDTITLE:Tommy CDTitle.png;
#MUSIC:Pray.mp3;
#OFFSET:0.506;
#SAMPLESTART:65.446;
#SAMPLELENGTH:21.566;
#SELECTABLE:YES;
#BPMS:0.000=178.000;
#STOPS:;
#BGCHANGES:4.000=Pray.avi=1.000=1=1=0,
301.500=Pray-eg.png=1.000=1=0=0,
99999=-nosongbg-=1.000=0=0=0 // don't automatically add -songbackground-
;

//---------------dance-single - ----------------
#NOTES:
     dance-single:
     :
     Hard:
     8:
     0.628,0.581,0.392,0.449,0.000:
0000
0000
0000
0000
,
1000
0000
0010
0000
1000
0001
1000
0001
,
0010
0000
0200
0000
2300
0000
3001
0100
,
0001
0000
1000
0000
0010
1000
0001
1000
,
0100
0000
0020
0000
0032
0000
0103
0010
,
0100
0000
0001
0000
0010
0100
0010
0100
,
1000
0000
0002
0000
2003
0000
3010
1000
,
0010
0000
0100
0000
0001
1000
0001
0010
,
0002
0100
0023
0100
,
0031
0000
1000
0000
0001
1000
0001
1000
,
0010
0000
0200
0000
0302
0000
1003
0100
,
1000
0000
0010
0000
0100
0001
1000
0001
,
0100
0000
0020
0000
2030
0000
3001
1000
,
0100
0000
1000
0000
0001
1000
0010
1000
,
0001
0000
0200
0000
0320
0000
1030
0100
,
1000
0000
0001
0000
1000
0100
0001
0100
,
2000
0010
3002
0100
,
1003
0000
0001
0000
0100
0000
0010
1000
,
0001
2000
0001
3001
,
0100
0000
0010
1000
0001
0000
0010
0000
,
1001
0000
0100
1000
0002
0000
1003
0000
,
0010
0101
1100
0101
,
1000
0000
0001
0010
0001
0000
1000
0000
,
0010
0000
0100
0001
1000
0000
0100
0000
,
1001
0000
2100
0000
3001
0000
0100
0010
,
0100
0000
0001
0000
0001
0000
1000
0100
,
1000
0000
0001
0100
0002
0000
1003
0000
,
0010
0000
0100
0001
1000
0000
0001
0000
,
0110
0000
1000
0000
0110
0000
0001
1000
,
0010
0000
0100
0000
0100
0000
1000
0100
,
0001
1000
0021
0130
,
1000
0000
0001
1000
0010
0000
0100
0000
,
1001
1100
0101
2000
,
0001
0000
3010
0000
0100
0001
2000
0000
,
0001
0000
3100
0000
0010
0001
0200
0000
,
1000
0000
0310
0000
0100
0001
2000
0000
,
0100
0001
3010
0200
,
1000
0000
0310
0000
0100
0001
0020
0000
,
1000
0000
0031
0000
0100
0001
2000
0000
,
0100
0000
3010
0000
0100
0001
0020
0000
,
1000
0100
0031
0100
,
1010
0100
0011
0100
,
2001
0010
3100
0010
,
0101
0000
0010
0000
1100
0000
0001
1000
,
0020
0000
0130
0000
0001
1000
0200
0000
,
0001
1000
0001
1300
,
0001
1000
0010
0000
2100
0000
0001
0000
,
3010
0000
0100
0000
0001
1000
0100
0000
,
0011
1100
0101
1010
,
0001
0100
0010
0100
0001
0000
1000
0100
,
0010
0000
0001
1000
0010
0000
0100
0000
,
1001
0000
0100
0000
1000
0001
0010
0001
,
1000
0000
0001
0100
0010
0000
1000
0000
,
0101
0010
1100
0101
,
0010
0000
1000
0001
0100
0001
1000
0000
,
0001
1000
0010
0100
,
0101
1100
0011
1010
,
0001
0100
0010
0100
0001
0000
1000
0001
,
0010
0000
0100
1000
0001
0000
0100
0000
,
1010
0000
0011
0000
0010
1000
0001
0000
,
0010
0000
1100
0000
0001
1000
0010
0000
,
0200
1000
0010
0301
,
0020
0000
1000
0000
0031
0000
0100
0001
,
0010
0000
0100
1000
0010
0000
0100
0000
,
1010
0011
1010
0001
,
1100
0101
1100
0001
,
2100
3001
0120
1030
,
0001
0000
0010
0000
0100
1000
0100
1000
,
0001
1000
0020
0000
0230
0000
0301
1000
,
0100
0000
0010
0000
0001
1000
0001
1000
,
0010
1000
0002
0000
0023
0000
0130
1000
,
0010
0000
0100
0000
0001
1000
0010
1000
,
0001
1000
0200
0000
0320
0000
0031
1000
,
0010
0000
0100
0000
1000
0100
0010
0100
,
0002
1000
0023
0230
,
2300
0000
0000
0000
,
3000
0000
0000
0000
;

//---------------dance-single - ----------------
#NOTES:
     dance-single:
     :
     Medium:
     6:
     0.509,0.472,0.115,0.458,0.000: // measure 1
0000
0000
0000
0000
,  // measure 2
1000
0000
0010
0000
1000
0001
1000
0000
,  // measure 3
0010
0200
0302
2003
,  // measure 4
3001
0000
0010
0000
0001
1000
0001
0000
,  // measure 5
0100
0020
2030
3002
,  // measure 6
1003
0000
0010
0000
0100
0001
0100
0000
,  // measure 7
0010
2000
3200
0320
,  // measure 8
0031
0000
0100
0000
0010
1000
0010
0000
,  // measure 9
0200
0001
0302
1000
,  // measure 10
1003
0000
0001
0000
0100
0001
0100
0000
,  // measure 11
0010
2000
3200
0320
,  // measure 12
0031
0000
0100
0000
0010
1000
0010
0000
,  // measure 13
0100
0002
2003
3200
,  // measure 14
0310
0000
0001
0000
0100
0010
0100
0000
,  // measure 15
0001
2000
3200
0320
,  // measure 16
0031
0000
0100
0000
0010
1000
0010
0000
,  // measure 17
0200
0001
0302
0010
,  // measure 18
0013
0100
1000
0001
,  // measure 19
1000
0010
0010
1000
,  // measure 20
0100
0010
0001
0100
,  // measure 21
0010
0100
0001
1000
,  // measure 22
0001
0010
0010
0100
,  // measure 23
1000
0010
1000
0001
,  // measure 24
1000
0100
0100
1000
,  // measure 25
0020
0100
0230
0001
,  // measure 26
0301
1000
0100
1000
,  // measure 27
0001
0000
1000
0010
1000
0000
0001
0000
,  // measure 28
0010
0100
1000
0010
,  // measure 29
0100
0001
0100
0000
0010
0000
1000
0000
,  // measure 30
0001
0010
0010
0100
,  // measure 31
1000
0010
0100
0001
,  // measure 32
1000
0100
1000
0010
,  // measure 33
0100
0000
0001
1000
0001
0000
1001
0000
,  // measure 34
0200
1000
1300
0001
,  // measure 35
0200
0010
0310
1000
,  // measure 36
0200
0010
0310
0002
,  // measure 37
1000
0010
1003
0001
,  // measure 38
0200
0010
0310
1000
,  // measure 39
0200
0010
0310
0001
,  // measure 40
2000
0010
3010
0200
,  // measure 41
0001
0010
0301
1000
,  // measure 42
0100
1000
0010
0100
,  // measure 43
0001
0000
1000
0001
1000
0000
0001
0000
,  // measure 44
0010
0001
1000
0010
,  // measure 45
0100
0001
0000
1000
,  // measure 46
0100
0000
1000
0010
1000
0000
0001
0000
,  // measure 47
0010
0000
0001
0100
0001
0000
0100
0000
,  // measure 48
1001
0000
0001
1000
,  // measure 49
1100
0001
1100
0010
,  // measure 50
0100
0001
0100
0000
0010
0000
1000
0000
,  // measure 51
0100
0010
0001
1000
,  // measure 52
0010
1000
0000
0001
,  // measure 53
0010
0000
0001
0100
0002
0000
1000
0000
,  // measure 54
1003
0000
0100
1001
,  // measure 55
0100
0010
0001
0100
,  // measure 56
1000
0100
0001
1000
,  // measure 57
1100
0001
0101
0010
,  // measure 58
1000
0010
1000
0000
0001
0000
0001
0000
,  // measure 59
0010
0100
1000
0010
,  // measure 60
0100
0000
0001
0000
1000
0000
0001
1000
,  // measure 61
0001
0000
0200
0000
,  // measure 62
0310
1001
0100
1100
,  // measure 63
2002
0000
3003
0001
,  // measure 64
0100
0010
1000
0100
,  // measure 65
1000
0010
0100
0001
,  // measure 66
1000
0000
0001
0100
0001
0000
1000
0100
,  // measure 67
1000
1001
0010
1001
,  // measure 68
0100
0000
1000
0000
0001
1000
0001
0000
,  // measure 69
1000
0020
0230
0302
,  // measure 70
1003
0000
0010
0000
1000
0100
1000
0000
,  // measure 71
0001
0200
0320
2030
,  // measure 72
3001
0000
0010
0000
0001
1000
0001
0000
,  // measure 73
1000
0020
0230
0320
,  // measure 74
1030
0000
0100
0000
0010
0001
0010
0000
,  // measure 75
0002
0100
0203
0010
,  // measure 76
0320
0000
0000
0000
,  // measure 77
0030
0000
0000
0000
;

//---------------dance-single - ----------------
#NOTES:
     dance-single:
     :
     Easy:
     4:
     0.289,0.290,0.038,0.115,0.000: // measure 1
0000
0000
0000
0000
,  // measure 2
1000
0000
0001
1000
,  // measure 3
0001
0000
0100
0010
,  // measure 4
0100
0000
0001
0000
,  // measure 5
0010
0000
0100
1000
,  // measure 6
0100
0000
1000
0000
,  // measure 7
0010
0000
1000
0001
,  // measure 8
1000
0000
0001
0000
,  // measure 9
2000
0000
3020
0000
,  // measure 10
0130
0000
0001
0010
,  // measure 11
0001
0000
1000
0010
,  // measure 12
1000
0000
0001
1000
,  // measure 13
0001
0000
1000
0000
,  // measure 14
0010
0000
0100
0001
,  // measure 15
0100
0000
0001
1000
,  // measure 16
0001
0000
1000
0100
,  // measure 17
2000
0000
3020
0000
,  // measure 18
0130
0000
0001
0000
,  // measure 19
1000
0000
0010
1000
,  // measure 20
0000
0001
0010
0000
,  // measure 21
0001
0000
1000
0001
,  // measure 22
0000
1000
0010
0000
,  // measure 23
0100
0000
0001
0010
,  // measure 24
0000
0001
0100
0000
,  // measure 25
0020
0000
2030
0000
,  // measure 26
3001
0000
1000
0000
,  // measure 27
0100
0000
1000
0010
,  // measure 28
0000
1000
0001
0000
,  // measure 29
0010
0000
0100
1000
,  // measure 30
0100
0000
1000
0000
,  // measure 31
0010
0000
1000
0001
,  // measure 32
0000
1000
0010
0000
,  // measure 33
0200
0000
0301
1000
,  // measure 34
0001
0010
0000
0100
,  // measure 35
1000
0001
0000
1000
,  // measure 36
0001
1000
0000
0010
,  // measure 37
0010
0000
1000
0001
,  // measure 38
1000
0010
0000
0100
,  // measure 39
0001
1000
0000
0001
,  // measure 40
1000
0010
0000
0100
,  // measure 41
0100
0000
0001
0000
,  // measure 42
0010
0000
0100
0000
,  // measure 43
1000
0010
1000
0000
,  // measure 44
0001
0000
0010
0000
,  // measure 45
0100
0010
0000
0001
,  // measure 46
0100
0000
0010
0000
,  // measure 47
1000
0000
0001
1000
,  // measure 48
0001
0000
1000
0000
,  // measure 49
1001
0000
0110
0000
,  // measure 50
1001
0000
1000
0000
,  // measure 51
0010
0000
0100
0001
,  // measure 52
0100
0001
0000
1000
,  // measure 53
0020
0000
2030
0000
,  // measure 54
3001
0000
1000
0001
,  // measure 55
0000
1000
0010
1000
,  // measure 56
0001
0000
0010
0000
,  // measure 57
0100
0100
1000
1000
,  // measure 58
0010
0000
0100
0000
,  // measure 59
0001
0000
1000
0010
,  // measure 60
1000
0001
0000
0001
,  // measure 61
0001
0000
0010
0000
,  // measure 62
0100
1000
0100
1000
,  // measure 63
0010
0000
0000
1000
,  // measure 64
0001
1000
0001
0000
,  // measure 65
1000
0010
1000
0000
,  // measure 66
0001
0010
0001
1000
,  // measure 67
0001
0000
1000
0000
,  // measure 68
1001
0000
0001
0100
,  // measure 69
0001
0000
0010
0100
,  // measure 70
0010
0000
0100
1000
,  // measure 71
0100
0000
1000
0010
,  // measure 72
1000
0000
0001
0010
,  // measure 73
0001
0000
1000
0001
,  // measure 74
1000
0000
0010
0000
,  // measure 75
0200
0000
0302
0000
,  // measure 76
2003
0000
0000
0000
,  // measure 77
3000
0000
0000
0000
;
