#TITLE:Pollinosis;
#SUBTITLE:;
#ARTIST:dj REMO-CON;
#TITLETRANSLIT:;
#SUBTITLETRANSLIT:;
#ARTISTTRANSLIT:;
#CREDIT:Steps and graphics by Xythar (source - official video);
#BANNER:Pollinosis BN.png;
#BACKGROUND:Pollinosis BG.png;
#LYRICSPATH:;
#CDTITLE:beatmania IIDX.png;
#MUSIC:Pollinosis.mp3;
#OFFSET:-0.113;
#SAMPLESTART:62.650;
#SAMPLELENGTH:12.000;
#SELECTABLE:YES;
#DISPLAYBPM:145.000;
#BPMS:0.000=145.000,141.000=290.000,143.000=145.000;
#STOPS:4.000=1.241
,141.000=0.052
,141.250=0.052
,141.500=0.052
,141.750=0.052
,142.000=0.052
,142.250=0.052
,142.500=0.052
,142.750=0.052
,143.000=0.414
,172.000=1.241
,201.000=0.828
;
#BGCHANGES:5.000=Pollinosis.avi=1.000=0=0=1,
235.000=Pollinosis BG.png=1.000=0=0=1,
99999=-nosongbg-=1.000=0=0=0 // don't automatically add -songbackground-
;

//---------------dance-single - ----------------
#NOTES:
     dance-single:
     :
     Hard:
     8:
     0.539,0.573,0.631,0.241,0.265: // measure 1
0000
0000
0000
0000
,  // measure 2
1001
0010
0100
0001
,  // measure 3
1000
0100
0010
0001
,  // measure 4
0100
0001
0100
0010
,  // measure 5
1000
0100
0010
0100
,  // measure 6
1000
0001
0100
0010
,  // measure 7
1000
0001
0010
0100
,  // measure 8
0010
0001
1000
0100
,  // measure 9
1000
0010
1000
0100
,  // measure 10
0000
1001
0110
1001
,  // measure 11
0110
1100
0101
1100
,  // measure 12
0101
0011
1010
0011
,  // measure 13
1010
0000
1100
0000
0110
0000
0011
0010
,  // measure 14
0000
1000
0000
1000
0001
0000
0000
0000
1010
0000
0000
0000
0110
0000
0000
0000
,  // measure 15
0101
1100
0011
0101
,  // measure 16
1010
1001
0011
0110
,  // measure 17
0101
0000
0000
0000
1100
0000
0000
0001
0100
0000
0001
0000
1001
0000
1000
0000
,  // measure 18
0000
0000
0001
0000
0100
0000
0001
0000
0100
0000
0000
0100
0000
0000
0010
0000
,  // measure 19
1000
0000
0010
0000
1000
0000
0000
1000
0000
0000
0100
0000
0010
0000
0100
0000
,  // measure 20
0010
0000
0000
0010
0000
0000
0001
0000
1000
0000
0001
0000
1000
0000
0000
1000
,  // measure 21
0000
0000
0001
0000
0100
0000
0001
0000
0100
0000
0000
0100
0000
0000
0001
0000
,  // measure 22
1000
0001
2001
0000
0020
3000
0000
0000
,  // measure 23
0030
1002
0200
0003
,  // measure 24
0300
0120
2000
0030
,  // measure 25
3000
0210
0002
0300
,  // measure 26
0003
0000
1200
0000
0002
0000
0300
0003
,  // measure 27
0000
0000
0201
0000
2000
0300
0000
3000
,  // measure 28
0000
0000
0021
0000
2000
0000
0030
3000
,  // measure 29
0000
0000
1020
0000
0002
0000
0030
0003
,  // measure 30
0000
0000
1020
0200
0030
0300
0201
0020
,  // measure 31
0300
0030
1200
0020
0300
0030
0021
0200
,  // measure 32
0030
0300
1000
0100
1000
0100
0010
0001
,  // measure 33
0010
0001
0100
0010
1000
0001
0010
0100
,  // measure 34
1000
0001
1000
0000
0000
0000
0000
0000
,  // measure 35
0000
0020
2030
0000
,  // measure 36
3000
0000
0000
0000
0001
1000
0001
1000
0001
1000
0001
1000
0001
0000
1000
0000
,  // measure 37
1001
0110
0011
1010
,  // measure 38
1100
0101
0011
1010
,  // measure 39
1100
0101
1001
0110
,  // measure 40
1001
0000
0000
0000
0110
0000
0000
0000
1000
0000
0100
0000
0000
0010
0000
0010
,  // measure 41
0001
0110
1100
0101
,  // measure 42
0110
1010
1001
0011
,  // measure 43
0101
1010
1100
0101
,  // measure 44
1001
0000
0100
1000
0000
0100
0010
0000
0010
0001
0000
0001
,  // measure 45
0100
0000
0100
0010
0000
0010
1000
0000
1000
0001
0000
1000
,  // measure 46
0010
1000
0010
1000
0000
0010
1000
0000
1000
0001
0000
0001
,  // measure 47
0100
0000
0100
0010
0000
0010
1000
0000
0001
1000
0001
1000
,  // measure 48
0001
1000
0001
1000
0000
0001
0100
0000
0100
0001
1000
0001
,  // measure 49
1000
0000
1000
0100
0000
0100
0010
0000
1000
0001
1000
0001
,  // measure 50
1000
0000
1000
0100
1000
0100
0010
0100
0010
0001
0010
0001
,  // measure 51
0010
0000
0000
0000
0001
0000
1000
0000
0000
0000
0000
0000
0110
0000
0000
0000
0000
0000
1000
0000
0000
0100
0000
0000
,  // measure 52
0010
0001
0010
0100
1000
0001
0100
0010
,  // measure 53
1000
0001
0010
0100
1000
0001
1000
0010
,  // measure 54
1000
0100
0010
0100
0010
0001
1000
0001
,  // measure 55
0010
0000
0001
0000
0000
1000
0000
1000
0001
0000
1000
0000
0010
0000
1000
0000
,  // measure 56
0001
0100
0010
1000
0001
0100
0010
1000
,  // measure 57
0100
0000
0010
0000
0001
0000
0100
0000
0010
0000
1000
0000
0000
0001
0000
0010
,  // measure 58
0100
0000
1000
0000
0000
0001
0000
0100
0010
0000
1000
0000
0001
0000
1000
0000
,  // measure 59
0001
1000
0001
1000
0001
1000
0001
0000
;

//---------------dance-single - ----------------
#NOTES:
     dance-single:
     :
     Medium:
     7:
     0.447,0.491,0.464,0.334,0.051: // measure 1
0000
0000
0000
0000
,  // measure 2
1001
1000
0100
0010
,  // measure 3
0001
0100
0010
1000
,  // measure 4
0001
0010
0100
0010
,  // measure 5
0001
1000
0001
0100
,  // measure 6
0010
0100
0001
0010
,  // measure 7
0001
0010
0100
1000
,  // measure 8
0001
0100
0010
1000
,  // measure 9
0001
0100
0001
1000
,  // measure 10
0000
1001
0001
0011
,  // measure 11
0010
0110
0100
1100
,  // measure 12
1000
1010
0010
0110
,  // measure 13
0100
0000
0101
0000
0001
0000
0011
0010
,  // measure 14
0000
0100
1000
0000
1001
0000
0010
0000
,  // measure 15
0110
0001
0101
0010
,  // measure 16
1010
0001
0011
0100
,  // measure 17
1100
0000
0010
0000
0001
0100
0001
0010
,  // measure 18
0000
0001
1000
0001
1000
0000
0000
0100
,  // measure 19
0010
0100
0010
0000
0000
0001
0100
0001
,  // measure 20
0100
0000
0000
0010
1000
0010
1000
0000
,  // measure 21
0000
0100
0010
0100
0010
0000
0000
0001
,  // measure 22
0010
0001
2000
0000
0020
3000
0000
0000
,  // measure 23
0030
0200
0002
0300
,  // measure 24
0003
0020
0200
0030
,  // measure 25
0300
2000
0020
3000
,  // measure 26
0030
2000
0200
3000
,  // measure 27
0300
0000
0020
0000
0200
0030
0000
0000
,  // measure 28
0300
0020
0002
0030
,  // measure 29
0003
0200
0020
0300
,  // measure 30
0030
0000
2000
0020
3000
0030
0200
0002
,  // measure 31
0300
0003
2000
0200
3000
0300
0020
0002
,  // measure 32
0030
0003
2002
0000
3003
0000
2200
0000
,  // measure 33
3300
0220
0330
0022
,  // measure 34
0033
2002
3003
0000
,  // measure 35
0000
0020
2030
0000
,  // measure 36
3000
0000
0001
0010
0100
1000
0010
1000
,  // measure 37
1001
0010
1100
0001
,  // measure 38
0110
1000
0011
0100
,  // measure 39
1010
0001
0110
1000
,  // measure 40
0101
0000
0010
0000
1000
0001
0000
0010
,  // measure 41
0100
1001
0010
1100
,  // measure 42
0001
0110
1000
0011
,  // measure 43
0100
1010
0001
1100
,  // measure 44
0010
1100
0110
0011
,  // measure 45
0101
0110
1010
1001
,  // measure 46
1000
0001
1000
0001
0000
0000
0011
0000
0000
1001
0000
0000
,  // measure 47
1010
0000
0000
0110
0000
0000
0101
0000
0000
0001
0000
1000
,  // measure 48
0010
0000
0100
0001
0000
0000
1001
0000
0000
0100
0010
0100
,  // measure 49
0010
0000
0000
1100
0000
0000
0110
0000
0000
0001
0100
0001
,  // measure 50
0100
0000
0000
0001
0000
0001
0010
0000
0010
0100
0000
0100
,  // measure 51
1000
0000
1001
0000
0110
0000
1000
0100
,  // measure 52
1000
0000
0001
0010
0001
0000
0100
0010
,  // measure 53
0100
0000
0001
1000
0001
0000
1000
0010
,  // measure 54
1000
0000
0001
0100
0001
0000
1000
0010
,  // measure 55
1000
0010
0100
0001
0100
0000
0010
1000
,  // measure 56
0001
0000
1000
0100
0010
0000
0100
0010
,  // measure 57
0001
0000
0100
0010
1000
0001
0100
0001
,  // measure 58
0100
0010
1000
0010
1000
0000
0001
1000
,  // measure 59
0001
1000
0001
1000
0001
1000
0001
0000
;

//---------------dance-single - ----------------
#NOTES:
     dance-single:
     :
     Easy:
     5:
     0.329,0.409,0.288,0.260,0.000: // measure 1
0000
0000
0000
0000
,  // measure 2
1001
0001
0000
0100
,  // measure 3
0000
0010
0000
1000
,  // measure 4
0000
0001
0000
0010
,  // measure 5
0000
0100
0000
0010
,  // measure 6
0001
0100
0000
0010
,  // measure 7
0000
0100
0000
0001
,  // measure 8
0000
1000
0000
0010
,  // measure 9
0000
0100
0000
0001
,  // measure 10
1000
1001
0010
0100
,  // measure 11
1000
0100
0010
0100
,  // measure 12
0010
0001
0010
0100
,  // measure 13
1000
0001
0010
0100
,  // measure 14
1000
0010
0100
0001
,  // measure 15
1000
0010
0100
0001
,  // measure 16
1000
0001
1000
0100
,  // measure 17
1000
0001
0100
0010
,  // measure 18
1000
0010
0100
0001
,  // measure 19
0100
0010
1000
0001
,  // measure 20
0100
0001
1000
0100
,  // measure 21
1000
0010
0100
0010
,  // measure 22
1000
0002
0020
0003
,  // measure 23
0030
0200
2000
0300
,  // measure 24
3000
0002
0200
0003
,  // measure 25
0300
0020
2000
0030
,  // measure 26
3000
0200
0020
0300
,  // measure 27
0030
0000
0020
0000
0200
0030
0000
0000
,  // measure 28
0300
2000
0002
3000
,  // measure 29
0003
0002
2000
0003
,  // measure 30
3000
2000
3000
0200
,  // measure 31
0300
0020
0030
0002
,  // measure 32
0003
0200
0300
0020
,  // measure 33
0030
0200
0300
0002
,  // measure 34
0003
2002
3003
0000
,  // measure 35
0000
0020
0230
0000
,  // measure 36
0300
0010
0100
1000
,  // measure 37
1001
1000
0010
0110
,  // measure 38
0100
0001
1000
1001
,  // measure 39
0001
0010
0100
0110
,  // measure 40
1000
0001
0100
0101
,  // measure 41
0100
0010
1000
1010
,  // measure 42
0001
1000
0100
1100
,  // measure 43
1000
0001
0010
0011
,  // measure 44
0100
1001
0010
0100
,  // measure 45
1000
0001
0100
0010
,  // measure 46
1000
1010
0100
0001
,  // measure 47
0010
0100
0010
0001
,  // measure 48
0011
0011
0100
0101
,  // measure 49
0101
1000
0010
1010
,  // measure 50
1010
0100
0110
0110
,  // measure 51
0110
0101
0010
0001
,  // measure 52
0100
0010
1000
0100
,  // measure 53
0010
0100
1000
0001
,  // measure 54
0010
0100
0010
0001
,  // measure 55
1000
1001
1001
1001
,  // measure 56
0001
1000
0010
0100
,  // measure 57
0001
0100
0010
1000
,  // measure 58
0100
0010
0100
0110
,  // measure 59
0110
0110
0110
0110
;

//---------------dance-single - ----------------
#NOTES:
     dance-single:
     :
     Beginner:
     1:
     0.183,0.218,0.111,0.167,0.000:
0000
0000
0000
0000
,
1001
0000
0010
0000
,
0100
0000
1000
0000
,
0010
0000
0100
0000
,
0001
0000
0010
0000
,
0100
0000
1000
0000
,
0100
0000
0010
0000
,
0001
0000
0100
0000
,
0001
0000
0010
0000
,
0100
0000
0110
0000
,
0010
0000
0001
0000
,
1000
0000
0010
0000
,
0100
0000
0001
0000
,
1000
1000
0000
0000
,
0010
0000
0100
0000
,
0001
0000
0010
0000
,
0001
0000
0100
0000
,
0010
0000
0100
0000
,
0010
0000
1000
0000
,
0001
0000
1000
0000
,
0100
0000
0010
0000
,
0100
0000
2002
0000
,
3003
0000
0010
0000
,
0000
0000
2002
0000
,
3003
0000
0100
0000
,
0000
0000
2002
0000
,
3003
0000
0220
0000
,
0330
0000
2002
0000
,
3003
0000
0220
0330
,
0000
2000
3000
0200
,
0300
0020
0030
0002
,
0003
1000
0000
0001
,
0000
0010
0000
0100
,
0100
0100
0000
0000
,
0000
0000
1001
0000
,
0000
0220
0000
0330
,
1000
0000
0010
0000
,
0100
0000
0001
0000
,
0100
0000
0010
0000
,
0100
0000
0001
0000
,
0010
0000
0100
0000
,
1000
0000
0100
0000
,
1000
0000
0010
0000
,
0000
0001
0000
1000
,
0000
0001
0000
0010
,
0000
0001
0000
0100
,
0000
0010
0000
0100
,
0000
0001
0000
1000
,
0000
0010
0000
0100
,
0000
0010
0000
1000
,
0000
0001
0000
1001
,
0000
0010
0000
0100
,
0000
0001
0000
0100
,
0000
0010
0000
1000
,
0000
0100
0000
1000
,
0000
0010
0000
1000
,
0000
0001
0000
1000
,
1000
0000
0001
0001
,
0000
0010
0000
1001
;
