#TITLE:ぽっぴっぽー;
#SUBTITLE:;
#ARTIST:ラマーズP feat. 初音ミク;
#TITLETRANSLIT:PoPiPo;
#SUBTITLETRANSLIT:;
#ARTISTTRANSLIT:Lamaze-P feat. Miku Hatsune;
#CREDIT:Xythar;
#BANNER:PoPiPo-bn.avi;
#BACKGROUND:PoPiPo-bg.png;
#LYRICSPATH:PoPiPo.lrc;
#CDTITLE:blank.png;
#MUSIC:PoPiPo.mp3;
#OFFSET:-3.271;
#SAMPLESTART:73.634;
#SAMPLELENGTH:12.780;
#SELECTABLE:YES;
#BPMS:0.000=150.000;
#STOPS:;
#BGCHANGES:-8.118=PoPiPo.avi=1.000=1=0=1,
243.000=PoPiPo-eg.png=1.000=1=0=1,
99999=-nosongbg-=1.000=0=0=0 // don't automatically add -songbackground-
;

//---------------dance-single - MANIAC----------------
#NOTES:
     dance-single:
     MANIAC:
     Hard:
     7:
     0.512,0.552,0.526,0.172,0.033:
0000
0000
0000
0000
,
0000
0000
0000
0000
,
0000
0000
0000
0000
,
0000
0000
0000
0000
,
1000
0000
0001
0000
0100
0001
0010
0000
,
0001
0000
1000
0000
0100
1000
0010
0000
,
0100
0000
0010
0000
1000
0100
0001
0000
,
0100
0000
0010
0000
0001
0100
1000
0000
,
0100
0000
1001
0000
0100
0010
0001
0000
,
1010
0000
0100
0000
0001
0010
0100
0000
,
1000
0000
0110
0000
0001
1000
0100
0000
,
0011
0000
0100
0000
1000
0010
0100
0000
,
2100
0001
0010
3010
,
0102
1000
0010
0013
,
0210
0001
0010
0301
,
0210
1000
0010
1300
,
0001
0000
0100
0000
0001
0000
0100
0000
0010
0000
0000
0010
0000
0000
1000
0000
,
0001
0000
0010
0000
0001
0000
0010
0000
0100
0000
0000
0100
0000
0000
1000
0000
,
0010
0000
0100
0000
0010
0000
0100
0000
0001
0000
0000
0001
0000
0000
0100
0000
,
0010
0000
1000
0000
0010
0000
1000
0000
0001
0000
0000
0001
0000
0000
0000
0000
,
0001
0100
0010
0000
1000
0100
0010
0000
,
0001
1000
0100
1000
0001
0000
0110
0000
,
1000
0100
0001
0100
1000
0100
0001
0000
,
0100
1000
0010
0000
0102
0000
0013
0000
,
0100
1000
0010
0000
0100
0001
0010
0000
,
0100
1000
0010
1000
0100
0000
0011
0000
,
0001
0100
1000
0100
0001
0000
0010
0000
,
2100
0000
0000
0001
0000
0000
3001
0000
0100
0000
0010
0000
0100
0000
0010
0000
,
1000
0100
0010
0100
1000
0000
0101
0000
,
1000
0100
0001
0000
1100
0000
0011
0000
,
0001
0100
0010
0100
0001
0000
1100
0000
,
0001
0100
1000
0000
0101
0000
1010
0000
,
0001
0010
0100
0010
0001
0000
1010
0000
,
0001
0010
1000
0000
0011
0000
1100
0000
,
1000
0010
0100
0010
1000
0000
0011
0000
,
1000
0010
0001
0000
1010
0000
0101
0000
,
0001
0010
0100
0000
1000
0010
0100
0000
,
0001
1000
0100
0000
0012
0000
0103
0000
,
0010
1000
0001
0000
0010
0100
1000
0000
,
0010
0100
0001
0000
2100
0000
3001
0000
,
0010
0001
0100
0000
0010
1000
0100
0000
,
0001
0100
1000
0000
0201
0000
0320
0000
,
2030
0100
0001
3010
,
0100
0000
0000
0100
0000
0000
0100
0000
0010
0000
0000
1000
0000
0000
0001
0000
,
1100
0000
0101
0000
0010
1000
0001
0000
,
1100
0000
1010
0000
0100
0001
0010
0000
,
2100
0001
0010
3001
,
0200
0000
1000
0000
0010
0010
0010
0310
,
1001
0000
1100
0000
0010
0001
0100
0000
,
1010
0000
0011
0000
0100
1000
0001
0000
,
1010
1001
0011
1001
,
0210
0000
0302
0000
1000
1000
1000
1003
,
0110
0000
0101
0000
0010
0100
1000
0000
,
1001
0000
0101
0000
1000
0001
0010
0000
,
1020
0100
0001
0130
,
2000
0000
0100
0000
0001
0001
0001
3001
,
0110
0000
1001
0000
0100
1000
0010
0000
,
0101
0000
0011
0000
0100
1000
0010
0000
,
1001
0110
1001
0110
,
1001
0000
0100
0000
1000
0010
0100
0000
,
0002
0010
0100
1003
;

//---------------dance-single - SMANIAC----------------
#NOTES:
     dance-single:
     SMANIAC:
     Challenge:
     8:
     0.590,0.523,0.182,0.325,0.320:
0000
0000
0000
0000
,
0000
0000
0000
0000
,
0000
0000
0000
0000
,
0000
0000
0000
0000
,
2100
0000
3001
0000
0100
0010
0010
0000
,
0021
0000
0130
0000
1000
0001
0001
0000
,
0120
0000
1030
0000
0100
0010
0010
0000
,
1002
0000
0103
0000
0010
1000
1000
0001
,
0010
0100
1000
0000
0102
1000
1003
0000
,
0100
0010
0001
0000
0201
0010
0310
0000
,
1000
0001
0010
0000
2100
0010
3010
0000
,
0100
0001
0010
0000
1001
1001
0000
0000
,
0001
0100
0001
0100
0001
1000
0100
1000
,
0001
0010
0001
0010
0001
1000
0010
0100
,
1000
0100
0010
0100
0001
0010
0001
1000
,
0001
1000
0010
1000
0001
0010
0100
1000
,
0010
0000
0010
0000
0010
0000
0100
0000
0001
0100
0000
0010
0000
0000
1000
0000
,
0100
0000
0100
0000
0100
0000
1000
0000
0001
1000
0000
0010
0000
0000
0100
0000
,
0001
0000
0100
0000
0001
0000
1000
0000
0001
1000
0000
0100
0000
0000
1000
0000
,
0001
0000
0010
0000
0001
0000
0010
0000
0001
1000
0000
0010
0000
0000
0100
0000
,
0001
0000
0000
0001
1000
0000
0000
1000
0010
0000
0000
0010
1000
0000
0000
0000
,
0200
0010
0010
0000
1300
0000
0011
0000
,
1000
0000
0000
1000
0001
0000
0000
0001
0100
0000
0000
0100
0001
0000
0000
0000
,
0020
0100
0100
0000
0031
0000
1100
0000
,
0001
0000
0000
0001
0100
0000
0000
0100
0010
0000
0000
0010
1000
0000
0000
0000
,
0200
0001
0001
0000
1300
0000
0110
0000
,
0100
0000
0000
0100
0001
0000
0000
0001
0010
0000
0000
0010
0100
0000
0000
0000
,
1000
0000
0000
1000
0000
0000
1100
0000
1000
0000
0001
0000
1000
0000
0010
0000
,
0110
0000
0100
0000
0010
0000
0100
0000
0001
0100
0000
0010
0000
0000
1000
0000
,
0100
1000
0001
1000
0001
0001
0100
0100
,
0010
0000
1000
0000
0010
0000
1000
0000
0100
1000
0000
0001
0000
0000
0010
0000
,
0100
1000
0100
1000
1001
0000
0101
0000
,
0010
0000
1000
0000
0010
0000
1000
0000
0001
1000
0000
0001
0000
0000
1000
0000
,
0100
0001
0100
0001
0100
0100
1000
1000
,
0001
0000
1000
0000
0010
0000
1000
0000
0001
0010
0000
0001
0000
0000
1000
0000
,
0100
0010
0100
0010
0011
0000
0101
0000
,
0020
0100
2030
0100
,
3001
0000
0000
0001
0100
0000
0000
0100
0010
0000
0000
0010
1000
0000
0000
0000
,
0200
0010
2300
0010
,
3001
0000
0000
0001
0010
0000
0000
0010
0100
0000
0000
0100
1000
0000
0000
0000
,
1000
0000
0000
1000
0010
0000
0000
0010
1000
0000
0000
1000
0001
0000
0000
0001
,
1000
0000
0000
1000
0100
0000
0000
0100
0010
0000
0000
0010
0001
0000
0000
0000
,
2000
0010
0001
3100
,
1001
0000
0000
0000
0000
0000
0000
0000
0100
0000
0000
0100
0000
0000
0010
0000
,
0001
0000
1000
0001
0000
1000
0001
0000
0100
0000
0010
0000
0100
0000
0000
0000
,
0001
0000
1000
0010
0000
1000
0010
0000
0100
0000
0001
0000
0100
0000
0000
0000
,
0020
2030
3200
0320
,
0031
0000
0000
0001
0000
0000
0001
0000
1000
0000
0001
0000
1000
0001
1000
0000
,
0010
0000
0100
0010
0000
0100
0010
0000
0100
0000
0001
0000
0010
0000
0000
0000
,
0100
0000
0010
0100
0000
0010
0100
0000
0010
0000
0001
0000
0100
0000
0000
0000
,
0002
0023
0230
2300
,
3010
0000
0000
0010
0000
0000
0010
0000
0100
0000
0010
0000
1000
0010
1000
0000
,
0001
0000
1000
0100
0000
0010
0100
0000
1000
0000
0010
0000
0100
0000
0000
0000
,
0001
0000
0010
0100
0000
1000
0100
0000
0001
0000
0100
0000
1000
0000
0000
0000
,
0002
0203
0320
2030
,
3001
0000
0000
0100
0000
0000
0001
0000
1000
0000
0100
0000
0010
0001
0010
0000
,
0100
0000
0010
0001
0000
0001
0010
0000
0100
0000
0010
0000
0001
0000
0000
0000
,
0100
0000
0010
1000
0000
1000
0010
0000
0100
0000
0010
0000
1000
0000
0000
0000
,
0002
0023
0230
2300
,
3010
0000
0100
0001
0000
0000
0010
0000
0100
0000
1000
0001
0000
0000
1000
0000
,
0002
0203
0320
1030
;

//---------------dance-single - TRICK----------------
#NOTES:
     dance-single:
     TRICK:
     Medium:
     5:
     0.435,0.465,0.096,0.459,0.010:
0000
0000
0000
0000
,
0000
0000
0000
0000
,
0000
0000
0000
0000
,
0000
0000
0000
0000
,
1000
0001
0010
0001
,
1000
0001
0100
0001
,
0001
1000
0100
1000
,
0001
0010
0001
1000
,
0002
0100
2003
0100
,
3002
0010
2003
0010
,
3002
0103
0020
1030
,
0002
0013
0200
1300
,
0010
0000
0010
0000
0100
0001
0100
0000
,
0010
0000
0010
0000
1000
0100
1000
0000
,
0001
0000
0001
0000
1000
0010
1000
0000
,
0100
0000
0100
0000
0010
0001
0010
0000
,
0100
0000
0100
0000
0001
0100
1000
0000
,
0010
0000
0010
0000
0001
0010
1000
0000
,
0001
0000
0001
0000
1000
0100
0001
0000
,
1000
0000
1000
0000
0001
0100
1000
0000
,
0102
0013
2100
3010
,
0100
0001
0100
0000
0002
0000
1003
0000
,
0001
0100
1000
0010
,
1000
0100
0001
0000
2000
0000
3010
0000
,
0210
0301
0120
1030
,
0001
1000
0001
0000
0200
0000
0310
0000
,
2000
0100
0001
3010
,
0100
0000
0000
0001
0000
0000
0100
0000
0001
0000
1000
0000
0001
0000
1000
0000
,
0100
0000
0100
0000
0001
0100
1000
0000
,
0010
0000
0010
0000
0001
0010
1000
0000
,
0100
0000
1001
0000
0001
1000
0010
0000
,
0100
0000
1001
0000
0001
1000
0100
0000
,
2000
0000
3010
0000
0100
0100
0001
0000
,
2000
0000
3100
0000
0010
0010
0001
0000
,
0200
0000
0310
0000
0100
0100
0001
0000
,
0020
0000
0130
0000
1000
1000
0001
0000
,
2000
0100
3002
0100
,
2003
0010
0001
3100
,
0002
0010
2003
0010
,
3002
0100
1000
0013
,
2000
0001
3200
0010
,
2300
0100
0001
3010
,
2000
0000
3200
0000
0320
0001
0032
0000
,
2003
0000
0000
0000
0010
0000
0000
0000
0001
0000
0000
0001
0000
0000
3001
0000
,
0100
0000
0010
0000
0001
0010
1000
0000
,
0100
0000
0010
0000
1000
0010
0001
0000
,
2000
3010
0200
0301
,
2000
0100
0001
3010
,
1000
0000
0010
0000
0100
0001
1000
0000
,
0001
0000
0010
0000
0100
1000
0001
0000
,
0200
0310
2000
3001
,
0020
1000
0100
0031
,
0100
0000
0010
0000
1000
0001
0010
0000
,
0100
0000
0010
0000
0001
1000
0010
0000
,
2000
3100
0020
0031
,
0200
1000
0010
0301
,
1000
0000
0001
0000
1000
0100
0001
0000
,
1000
0000
0001
0000
1000
0100
0001
0000
,
0100
1001
0010
1001
,
2100
3001
0102
1003
,
0002
0023
0230
1300
;

//---------------dance-single - BASIC----------------
#NOTES:
     dance-single:
     BASIC:
     Easy:
     2:
     0.221,0.261,0.019,0.182,0.000: // measure 1
0000
0000
0000
0000
,  // measure 2
0000
0000
0000
0000
,  // measure 3
0000
0000
0000
0000
,  // measure 4
0000
0000
0000
0000
,  // measure 5
1000
0000
0001
0000
,  // measure 6
0001
0000
1000
0000
,  // measure 7
1000
0000
0001
0000
,  // measure 8
1000
0000
1000
0000
,  // measure 9
0001
0000
0010
0000
,  // measure 10
0010
0000
0100
0000
,  // measure 11
0100
0000
0010
0000
,  // measure 12
0100
0000
0100
0100
,  // measure 13
0200
0000
0000
0000
,  // measure 14
0000
0000
0000
0000
,  // measure 15
0000
0000
0000
0000
,  // measure 16
0000
0000
0300
0000
,  // measure 17
0001
0001
1000
0000
,  // measure 18
1000
1000
0001
0000
,  // measure 19
0100
0100
0010
0000
,  // measure 20
0010
0010
0100
0000
,  // measure 21
0001
0000
1000
0000
,  // measure 22
2002
0000
3003
0000
,  // measure 23
1000
0000
0001
0000
,  // measure 24
1000
1000
1000
0000
,  // measure 25
0010
0000
0100
0000
,  // measure 26
0220
0000
0330
0000
,  // measure 27
0001
1000
0001
0002
,  // measure 28
0000
0000
1003
0000
,  // measure 29
1000
1000
0010
0000
,  // measure 30
1000
1000
0100
0000
,  // measure 31
0001
0001
0100
0000
,  // measure 32
0001
0001
0010
0000
,  // measure 33
0001
1000
0001
0000
,  // measure 34
1000
0001
1000
0000
,  // measure 35
0010
0100
0010
0000
,  // measure 36
0100
0010
0100
0000
,  // measure 37
0002
0000
2003
0000
,  // measure 38
3010
0010
0010
0000
,  // measure 39
2000
0000
3002
0000
,  // measure 40
0013
0010
0010
0000
,  // measure 41
0001
1000
0001
0000
,  // measure 42
0100
0010
0100
0010
,  // measure 43
0000
1000
0001
0001
,  // measure 44
0020
0000
0130
0000
,  // measure 45
1000
0001
0001
0000
,  // measure 46
1000
0010
0010
0000
,  // measure 47
2000
0000
3002
0000
,  // measure 48
0103
0000
0010
0010
,  // measure 49
0010
1000
1000
0000
,  // measure 50
0001
0010
0010
0000
,  // measure 51
0002
0000
2003
0000
,  // measure 52
3010
0000
0100
0100
,  // measure 53
0100
0001
0001
0000
,  // measure 54
1000
0100
0100
0000
,  // measure 55
0020
0000
0230
0000
,  // measure 56
1300
0000
0001
0001
,  // measure 57
0001
0100
0100
0000
,  // measure 58
0010
1000
1000
0000
,  // measure 59
0001
1000
0010
1000
,  // measure 60
0002
0000
2003
0000
,  // measure 61
3001
0010
0100
1000
;
