#TITLE:Passion Girl;
#SUBTITLE:;
#ARTIST:近藤葵 from GOLD SEVENTEEN;
#TITLETRANSLIT:;
#SUBTITLETRANSLIT:;
#ARTISTTRANSLIT:Mamoru Kondou from GOLD SEVENTEEN;
#CREDIT:Xythar;
#BANNER:Passion Girl BN.png;
#BACKGROUND:Passion Girl BG.png;
#LYRICSPATH:Passion Girl.lrc;
#CDTITLE:Pop'n Music.png;
#MUSIC:Passion Girl.mp3;
#OFFSET:-0.384;
#SAMPLESTART:54.147;
#SAMPLELENGTH:15.320;
#SELECTABLE:YES;
#BPMS:0.000=125.000;
#STOPS:;
#BGCHANGES:;

//---------------dance-single - ----------------
#NOTES:
     dance-single:
     :
     Easy:
     4:
     0.256,0.286,0.194,0.018,0.000: // measure 1
0000
0000
0000
0000
,  // measure 2
0000
0000
0000
0000
,  // measure 3
1001
0000
0000
0000
,  // measure 4
0001
0100
0010
1001
,  // measure 5
1000
0100
0010
0100
,  // measure 6
1000
0001
0100
0000
,  // measure 7
0001
0010
0100
1000
,  // measure 8
0010
0110
0000
0001
,  // measure 9
1001
1000
0010
0100
,  // measure 10
0010
1000
0001
0000
,  // measure 11
0010
0100
1000
0010
,  // measure 12
0100
0000
0001
1000
,  // measure 13
1001
0001
0100
0010
,  // measure 14
1000
0100
0010
0000
,  // measure 15
0100
1000
0001
0100
,  // measure 16
1000
0100
0001
1000
,  // measure 17
1001
0001
0010
0000
,  // measure 18
0100
1000
0010
0100
,  // measure 19
1000
0100
0001
0010
,  // measure 20
1000
0010
0001
0100
,  // measure 21
0110
0010
0010
0010
,  // measure 22
0010
0010
0010
0100
,  // measure 23
0001
0001
0001
0001
,  // measure 24
0001
0001
1000
1001
,  // measure 25
0010
0010
0010
0010
,  // measure 26
0100
0100
0100
0100
,  // measure 27
1000
0100
0001
1000
,  // measure 28
1001
0100
0000
0000
,  // measure 29
0110
0001
0100
0010
,  // measure 30
0100
0001
1000
0000
,  // measure 31
0001
0100
0010
1000
,  // measure 32
1001
0010
1001
0100
,  // measure 33
1001
0100
0010
1000
,  // measure 34
0100
0010
0001
0000
,  // measure 35
0100
0010
1000
0001
,  // measure 36
0110
1000
0110
0001
,  // measure 37
0000
0000
0100
0000
0010
0000
0000
1000
,  // measure 38
0000
0001
0000
1001
0000
0000
0000
0000
,  // measure 39
0002
0000
0000
0103
,  // measure 40
0010
1000
0100
0000
,  // measure 41
0010
0001
1000
0001
,  // measure 42
0200
0000
0000
0300
,  // measure 43
1001
0100
0010
0100
,  // measure 44
1000
0010
0100
0001
,  // measure 45
0000
1000
0100
0010
,  // measure 46
0001
1001
1000
0000
,  // measure 47
0010
0100
0001
0000
,  // measure 48
1000
0100
0010
0000
,  // measure 49
0001
0100
0010
0000
,  // measure 50
1001
0100
1001
0010
,  // measure 51
1001
0100
0010
0000
,  // measure 52
0001
0100
0010
0000
,  // measure 53
1000
0001
0010
0000
,  // measure 54
0100
1000
0010
0100
,  // measure 55
1001
0000
0000
0000
;

//---------------dance-single - ----------------
#NOTES:
     dance-single:
     :
     Medium:
     6:
     0.396,0.384,0.133,0.080,0.053: // measure 1
0000
0000
0000
0000
,  // measure 2
0000
0000
0000
0000
0000
0000
0000
0001
,  // measure 3
1000
0000
0000
0000
,  // measure 4
0001
0000
0010
0000
0100
0000
1000
0000
0000
0010
0000
0100
0000
0001
0000
0000
,  // measure 5
1000
0100
1000
0010
0100
0010
0000
0001
,  // measure 6
0000
0010
1000
0002
0000
0010
0000
0103
,  // measure 7
0000
0001
0010
0100
1000
0010
0000
0100
,  // measure 8
0000
0001
1000
0000
0100
1000
0001
0100
,  // measure 9
0001
0000
1000
0010
0100
0001
0000
0010
,  // measure 10
0000
1000
0010
0002
0000
0100
0000
0013
,  // measure 11
0000
0100
1000
0001
0100
0001
0000
1000
,  // measure 12
0000
0100
0010
0000
0001
0100
0010
0100
,  // measure 13
0001
0000
1000
0010
0100
0001
0000
0010
,  // measure 14
0000
1000
0010
0001
0100
0000
0010
0000
,  // measure 15
1001
0000
0001
0100
1000
0000
1000
0100
,  // measure 16
0001
0000
0001
0010
1000
0000
1000
0010
,  // measure 17
0001
0000
0100
0010
1000
0100
0000
1000
,  // measure 18
0001
0100
0010
1100
,  // measure 19
0002
0000
0000
0203
0000
0000
0310
0000
,  // measure 20
1000
0100
1000
0000
0001
0100
0001
0000
,  // measure 21
1000
0100
0010
0001
,  // measure 22
0100
0010
1000
0000
0100
0000
1000
0000
,  // measure 23
0010
0100
0001
0010
,  // measure 24
0100
0000
1000
0000
0001
0000
0000
0000
1000
0000
0000
0001
0000
1000
0000
0000
,  // measure 25
0010
0100
0001
1000
,  // measure 26
0100
0000
1000
0000
0001
0100
0010
0000
,  // measure 27
2000
0000
0010
0000
0001
0000
0100
0100
,  // measure 28
3100
0000
0000
0000
1001
0000
0000
0000
0010
0000
0100
0000
0000
0100
0000
0000
,  // measure 29
1000
0001
0100
0000
1000
0100
0001
0000
,  // measure 30
1000
0001
0010
0000
1000
0010
0001
0000
,  // measure 31
0100
0010
0100
0001
1000
0000
0200
0000
,  // measure 32
0010
0310
0001
1000
0000
0000
0000
0000
,  // measure 33
0001
1000
0100
0000
0001
0100
1000
0000
,  // measure 34
0001
1000
0010
0000
0001
0010
1000
0000
,  // measure 35
0001
0100
0010
1000
0100
0010
0001
1000
,  // measure 36
1001
1001
0000
0000
0110
0000
0000
0100
,  // measure 37
0000
1000
0001
1000
0001
1000
0000
1100
,  // measure 38
0000
0110
0000
0011
0000
0000
0100
1000
,  // measure 39
0001
1000
0000
0010
0100
0001
0000
0000
,  // measure 40
1000
0010
0100
0001
2000
0000
0100
0000
,  // measure 41
3100
0010
0001
0100
0010
0000
0100
0001
,  // measure 42
2000
0000
0010
0000
3100
1000
0001
1000
,  // measure 43
1001
0000
0001
0010
0001
0100
0000
0010
,  // measure 44
0100
0001
1000
0000
0100
1000
0001
1000
,  // measure 45
0000
0010
0100
0000
0001
0000
1000
0000
,  // measure 46
0001
0000
0000
1000
0000
0000
2001
0000
0000
0000
0100
0000
0000
3100
0000
0000
,  // measure 47
0010
0001
1000
0000
0010
0100
0001
0000
,  // measure 48
1000
0100
0010
0000
0001
0100
0010
0000
,  // measure 49
0100
0001
1000
0000
0001
0010
0100
0000
,  // measure 50
1000
0000
0010
0000
0100
0000
0001
0000
1000
0000
0001
0000
0000
1000
0000
0000
,  // measure 51
1001
0001
0100
0000
0010
1000
0001
0000
,  // measure 52
1000
0010
0100
0000
1000
0100
0001
0000
,  // measure 53
1000
0010
0100
0000
0001
0010
0100
0000
,  // measure 54
1000
0000
0001
0000
0100
0000
0000
0010
0000
0000
1000
0000
0000
0001
0000
0000
,  // measure 55
1001
0000
0000
1001
0000
0000
1001
0000
0000
0000
0000
0000
0000
0000
0000
0000
;

//---------------dance-single - ----------------
#NOTES:
     dance-single:
     :
     Hard:
     8:
     0.544,0.529,0.309,0.071,0.380: // measure 1
0000
0000
0000
0000
,  // measure 2
0000
0000
0000
0000
0000
0000
0000
0000
0000
0000
0000
0000
0000
0000
1000
0001
,  // measure 3
1000
0000
0000
0000
,  // measure 4
1000
0000
0010
0000
0100
0000
0002
0000
0000
1000
0000
1000
0000
1003
0000
0000
,  // measure 5
0100
0010
0001
0100
0010
0100
0001
2000
,  // measure 6
0000
3100
0010
0001
0000
1010
0000
0101
,  // measure 7
0000
0010
0100
1000
0100
0001
0010
0200
,  // measure 8
0000
0000
1300
0000
0001
0000
0000
0100
0000
0010
0100
0000
0001
0000
1000
0001
,  // measure 9
1000
0001
0100
0010
1000
0100
0010
0002
,  // measure 10
0000
1003
0010
0200
0000
1300
0100
0001
,  // measure 11
0100
0010
1000
0100
0010
0001
1000
0200
,  // measure 12
0000
0000
1300
0000
0001
0000
0000
0001
0000
1000
0010
0000
0100
0000
0001
0100
,  // measure 13
0001
1000
0100
1000
0001
0010
0000
1000
,  // measure 14
0010
0001
0100
0010
0100
0001
1000
0100
,  // measure 15
1000
0000
0001
0100
0000
0010
0000
1000
0000
0100
0000
1000
0001
0000
0100
0000
,  // measure 16
0010
0000
0100
0001
0000
1000
0000
0100
0000
1000
0001
0000
0010
0000
0100
1000
,  // measure 17
0100
1000
0010
0100
0100
0001
0000
1000
,  // measure 18
0100
0001
0100
1000
0010
0100
0001
1000
,  // measure 19
0100
0000
1000
0010
0000
0100
0000
0001
0000
1000
0000
0100
1000
0000
0001
0000
,  // measure 20
0010
0100
0010
0000
0100
0000
0000
1000
0000
0001
1000
0000
0001
0000
1000
0000
,  // measure 21
1001
0010
1100
0010
,  // measure 22
0101
1000
0110
1001
,  // measure 23
0100
0010
1100
0011
,  // measure 24
0100
0000
0000
0000
1001
0000
0000
0000
0001
0100
0000
0010
0000
1010
0000
0000
,  // measure 25
0100
0011
0100
1010
,  // measure 26
0100
1001
0010
1001
,  // measure 27
0001
0100
0010
1000
0000
0100
0010
0001
,  // measure 28
1000
0001
0000
0001
1000
0000
0000
0000
1000
0010
1000
0000
0000
0101
0000
0000
,  // measure 29
1000
0000
0010
0000
0100
0001
0000
0100
0000
0010
0000
0100
0001
0000
0010
0000
,  // measure 30
0100
0000
1000
0000
0001
0100
0000
1000
0000
0100
0000
0001
0010
0000
0100
0000
,  // measure 31
0010
0000
0001
0100
0000
0010
0000
0100
0000
0001
1000
0000
0100
0000
0010
0000
,  // measure 32
0011
0000
0110
0000
0100
1000
0100
0000
1000
0000
0001
0000
0100
0000
0001
0000
,  // measure 33
1000
0000
0010
0000
0100
0001
0000
0010
0000
1000
0000
0010
0001
0000
0100
0000
,  // measure 34
0010
0000
0100
0000
0001
1000
0000
0100
0000
0010
0000
0001
1000
0000
0001
0000
,  // measure 35
0100
0000
1000
0000
0100
0001
0000
1001
0000
0000
0001
0000
0010
0000
0100
0000
,  // measure 36
1100
0000
0110
0000
0001
0010
0001
1000
0001
0000
0100
0000
0100
0000
0020
0000
,  // measure 37
0000
0130
0001
1000
0100
0010
0001
0101
,  // measure 38
0000
1010
0000
1001
0000
0000
0001
0100
,  // measure 39
0010
0100
0010
0000
0100
0000
0001
0000
1000
0000
0100
0000
0010
0000
0001
0000
,  // measure 40
1000
0010
1000
0000
0001
0000
0100
0000
0010
0000
0000
0000
0100
0000
0001
0000
,  // measure 41
1000
0000
0001
0000
0010
0000
0100
0000
1000
0000
0000
0010
0000
0000
0100
0000
,  // measure 42
0002
0000
0000
0000
1000
0000
0000
0000
1003
0100
1000
0000
0001
0000
0100
0000
,  // measure 43
0110
0000
0100
0001
1000
0100
0000
0010
,  // measure 44
0100
1000
0010
0001
0010
1000
0100
0010
,  // measure 45
0001
0000
1000
0010
1000
0000
0001
0100
0001
0000
1000
0100
1000
0000
0001
0000
,  // measure 46
1000
0100
0000
0010
0000
0001
1000
0000
0000
0000
0011
0000
0000
1100
0000
0000
,  // measure 47
1001
0000
0001
0000
0100
0000
0010
0000
0100
0000
0001
1000
0000
0000
0001
0000
,  // measure 48
0010
0000
0100
1000
0000
0000
0010
0000
0100
0000
0001
0000
0101
0000
0000
0000
,  // measure 49
1000
0000
0010
0000
1000
0000
0001
0000
0010
0000
0100
0010
0000
0000
0001
0000
,  // measure 50
0100
0000
0010
0000
0100
0000
0001
1000
0000
0000
0011
0000
0000
1100
0000
0000
,  // measure 51
1001
0000
0001
0000
0100
0000
0010
0000
1000
0000
0100
0010
0000
0000
0100
0000
,  // measure 52
1000
0000
0001
0100
0000
0000
0001
0000
1000
0000
0100
0000
1000
0001
0000
0000
,  // measure 53
1000
0100
1000
0000
0000
1001
0000
0000
0001
0000
0100
0000
0010
0000
0100
0000
,  // measure 54
0001
0000
0010
0000
0100
0000
1000
0001
0000
0000
1010
0000
0000
0101
0000
0000
,  // measure 55
1000
0100
0000
0010
0000
0001
1000
0000
0000
0000
0000
0000
0000
0000
0000
0000
;

//---------------dance-single - ----------------
#NOTES:
     dance-single:
     :
     Beginner:
     1:
     0.140,0.143,0.018,0.000,0.000: // measure 1
0000
0000
0000
0000
,  // measure 2
0000
0000
0000
0000
,  // measure 3
1001
0000
0000
0000
,  // measure 4
0001
0000
0010
0010
,  // measure 5
0010
0000
0100
0000
,  // measure 6
1000
0000
0010
0000
,  // measure 7
0100
0000
0001
0000
,  // measure 8
1000
0000
0100
0100
,  // measure 9
0100
0000
0010
0000
,  // measure 10
0001
0000
0100
0000
,  // measure 11
0010
0000
0100
0000
,  // measure 12
0001
0000
1000
0000
,  // measure 13
0001
0000
0000
0000
,  // measure 14
0010
0000
0100
0000
,  // measure 15
1000
0000
0010
0000
,  // measure 16
0100
0000
0010
0010
,  // measure 17
0010
0000
1000
0000
,  // measure 18
0100
0000
0010
0000
,  // measure 19
0001
0000
1000
0000
,  // measure 20
0001
0000
0100
0000
,  // measure 21
0010
0000
0010
0000
,  // measure 22
0010
0000
0010
0000
,  // measure 23
0100
0000
0100
0000
,  // measure 24
0100
0000
0001
0001
,  // measure 25
0001
0000
0001
0000
,  // measure 26
0001
0000
0001
0000
,  // measure 27
1000
0000
1000
0000
,  // measure 28
0100
0000
0010
0010
,  // measure 29
0010
0000
0001
0000
,  // measure 30
0100
0000
0010
0000
,  // measure 31
1000
0000
0100
0000
,  // measure 32
0010
0010
0010
0000
,  // measure 33
0001
0000
0100
0000
,  // measure 34
0001
0000
0010
0000
,  // measure 35
0100
0000
1000
0000
,  // measure 36
0010
0010
0010
0000
,  // measure 37
0100
0000
0001
0000
,  // measure 38
1000
0000
1000
0000
,  // measure 39
0100
0000
0000
0000
,  // measure 40
0010
0000
0001
0000
,  // measure 41
0100
0000
0000
0000
,  // measure 42
0010
0000
0100
0000
,  // measure 43
0001
0000
0000
0000
,  // measure 44
0010
0000
0100
0000
,  // measure 45
1000
0000
0010
0000
,  // measure 46
0100
0100
0100
0000
,  // measure 47
0001
0000
1000
0000
,  // measure 48
0001
0000
0010
0000
,  // measure 49
0100
0000
1000
0000
,  // measure 50
0010
0010
0010
0000
,  // measure 51
0100
0000
0001
0000
,  // measure 52
1000
0000
0100
0000
,  // measure 53
1000
0000
0010
0000
,  // measure 54
0100
0000
0001
0000
,  // measure 55
1001
0000
0000
0000
;
