#TITLE:POODLE;
#SUBTITLE:;
#ARTIST:Y&Co;
#TITLETRANSLIT:;
#SUBTITLETRANSLIT:;
#ARTISTTRANSLIT:;
#CREDIT:Steps and graphics by Xythar (source - F-FLY G2ARTS);
#BANNER:Poodle.png;
#BACKGROUND:Poodle-bg.png;
#LYRICSPATH:;
#CDTITLE:Beatmania IIDX.png;
#MUSIC:Poodle.mp3;
#OFFSET:-0.420;
#SAMPLESTART:43.525;
#SAMPLELENGTH:12.000;
#SELECTABLE:YES;
#DISPLAYBPM:160.000;
#BPMS:0.000=160.000;
#STOPS:;
#BGCHANGES:-4.000=Poodle.avi=1.000=0=0=1,
201.000=Poodle-bg.png=1.000=0=0=1,
99999=-nosongbg-=1.000=0=0=0 // don't automatically add -songbackground-
;

//---------------dance-single - ----------------
#NOTES:
     dance-single:
     :
     Hard:
     8:
     0.603,0.571,0.025,0.242,0.203:
0000
0000
0000
0000
,
1000
0000
1000
0000
0001
0000
0000
0010
0000
0000
0100
0000
0010
0000
0001
0000
,
0100
0000
0100
0000
0001
0000
0000
0010
0000
0000
1000
0000
0010
0000
0001
0000
,
0010
0000
0010
0000
0100
0000
0000
1000
0000
0000
0100
0000
0010
0000
0001
0000
,
1000
0000
1000
0000
0010
0000
0000
0100
0000
0000
0010
0000
1000
0000
0100
0000
,
0001
0000
0001
0000
0100
0000
0000
0010
0000
0000
0001
0000
0010
0000
1000
0000
,
0010
0000
0010
0000
0100
0000
0000
1000
0000
0000
0001
0000
0010
0000
1000
0000
,
0010
0000
0010
0000
0001
0000
0000
0100
0000
0000
0010
0000
1000
0000
0010
0000
,
0100
0000
0100
0000
0001
0000
0000
1000
0000
0000
0100
0000
0010
0000
0001
0000
,
1000
0000
0100
0000
0010
0000
0000
0001
0000
0000
0010
0000
0100
0000
1000
0000
,
1000
0000
0010
0000
0100
0000
0000
0001
0000
0000
0100
0000
0010
0000
1000
0000
,
0000
0001
0100
0010
0100
0001
0010
0100
,
1000
0200
0000
0310
0000
0001
0100
0010
,
1000
0002
0010
0000
0013
0000
0100
0000
,
0010
0001
0100
0010
0000
0000
0000
1000
,
0000
0100
0010
0000
0100
1000
0010
0000
,
0200
0000
0301
0010
0000
0001
0010
0100
,
1000
0100
0001
0100
,
0002
0000
0103
1000
0000
0100
0010
0001
,
0200
0000
0000
0320
0000
0000
0032
0000
,
1003
0100
0010
0001
0010
0100
1000
0001
,
0020
0000
0000
0230
0000
0000
2300
0000
,
3001
0100
0010
1000
0010
0100
0001
0010
,
0002
0000
0000
2003
0000
0000
3020
0000
,
0130
0001
0000
0000
0010
0100
0000
1000
,
0100
0010
0001
0100
0001
0010
0100
1000
,
0001
0100
0010
0100
0001
0010
0100
1000
,
0001
0100
0010
1000
0100
0010
0100
1000
,
0001
0000
0010
0000
0100
0000
0010
0000
0100
0010
0100
0000
0010
0000
0001
0000
,
1000
0000
0010
0000
0100
0010
0100
0000
0001
0100
0001
0000
0000
0000
0020
0000
,
0000
0000
0130
0000
1000
0020
0000
0130
,
0000
1001
0010
0200
,
1000
1300
0000
0100
0010
0000
0001
0000
,
0100
0000
1000
0000
0100
0010
0100
0000
0001
0100
0001
0000
0000
0000
0002
0000
,
0000
0000
0103
0000
1000
0200
0000
0310
,
0000
0110
0001
0200
,
0010
0310
0000
0100
1000
0000
0000
0100
,
0001
0000
0000
0010
0000
0000
0100
0000
1000
0000
0000
0000
0000
0000
0010
0000
,
0001
0000
0000
0010
0000
0000
1000
0000
0100
0000
0000
0000
0000
0000
1000
0000
,
0100
0000
1000
0100
0000
1000
0001
1000
0001
0000
0010
0001
0000
0100
0001
0100
,
0001
0000
0010
0000
0100
1000
0010
0100
,
0001
0000
0001
0000
0100
0000
0000
1000
0000
0000
0100
0000
0001
0000
0010
0000
,
1000
0000
1000
0000
0010
0000
0000
0001
0000
0000
0010
0000
0100
0000
1000
0000
,
0001
0000
0001
0000
0100
0000
0000
0010
0000
0000
0100
0000
0001
0000
0010
0000
,
0100
0000
0100
0000
0001
0000
0000
0100
0000
0000
1000
0000
0100
0000
0010
0000
,
0100
0000
0100
0000
0001
0000
0000
0100
0000
0000
0001
0000
0100
0000
0010
0000
,
0001
0000
0001
0000
0100
0000
0000
0010
0000
0000
0100
0000
0001
0000
0010
0000
,
0100
0000
0100
0000
1000
0000
0000
0100
0000
0000
0001
0000
0100
0000
1000
0000
,
0010
0000
0010
0000
0001
0000
0000
0001
0000
0000
0100
0000
1000
0000
0010
0000
,
1000
0000
0100
0000
0010
0000
0001
0010
0000
0000
0100
0000
0010
0000
0001
0000
;

//---------------dance-single - ----------------
#NOTES:
     dance-single:
     :
     Medium:
     7:
     0.463,0.539,0.025,0.127,0.121:
0000
0000
0000
0000
,
1000
0000
0000
0000
0010
0000
0000
0100
0000
0000
0010
0000
0100
0000
0001
0000
,
0100
0000
0000
0000
0001
0000
0000
0010
0000
0000
0100
0000
1000
0000
0100
0000
,
1000
0000
0000
0000
0001
0000
0000
0100
0000
0000
0010
0000
0100
0000
0001
0000
,
0100
0000
0000
0000
0001
0000
0000
1000
0000
0000
0010
0000
1000
0000
0100
0000
,
1000
0000
0000
0000
0100
0000
0000
0010
0000
0000
0100
0000
1000
0000
0001
0000
,
0010
0000
0000
0000
0100
0000
0000
0010
0000
0000
0001
0000
0010
0000
0100
0000
,
1000
0000
0000
0000
0001
0000
0000
0100
0000
0000
0010
0000
0100
0000
0001
0000
,
1000
0000
0000
0000
0001
0000
0000
0010
0000
0000
0100
0000
0010
0000
0001
0000
,
0100
0000
0000
0000
0010
0000
0000
0100
0000
0000
0010
0000
1000
0000
0001
0000
,
0010
0000
0000
0000
0001
0000
0000
0100
0000
0000
1000
0000
0100
0000
0001
0000
,
0010
0100
1000
0100
,
0010
0001
0100
0010
,
1000
0100
1000
0000
0100
0000
0010
0000
,
0001
0010
0100
1000
0000
0000
0000
0000
,
1000
0100
0010
0100
,
0010
0000
0001
0100
0000
1000
0100
0000
,
0001
0010
0100
1000
,
0010
0000
0100
0001
0000
0000
1000
0000
,
1000
0000
0000
0100
0000
0000
0010
0000
,
0100
1000
0001
0010
,
0100
0000
0000
1000
0000
0000
0100
0000
,
0010
0001
0100
0010
,
0100
0000
0000
0001
0000
0000
0010
0000
,
0100
1000
0100
0010
,
0001
0010
0100
0000
1000
0100
0010
0000
,
0001
0010
0100
1000
0100
0010
0001
0000
,
1000
0100
1000
0100
0010
0001
0010
0001
,
0100
0001
0100
0001
1000
0010
0100
0001
,
2000
3200
0320
0032
,
0103
0000
0010
0000
0100
0001
0000
1000
,
0000
1001
0100
0010
,
0001
0100
0010
0100
,
0002
0023
0230
2300
,
3001
0000
0100
0000
0010
1000
0000
0100
,
0000
0110
0001
0100
,
1000
0100
0001
0000
,
1000
0100
0010
0100
,
1000
0010
0100
0010
,
2000
0000
3002
0000
,
0010
0013
0010
0100
,
1000
0000
0000
0000
0100
0000
0000
0010
0000
0000
0001
0000
0100
0000
0001
0000
,
0100
0000
0000
0000
1000
0000
0000
0100
0000
0000
0010
0000
0100
0000
0001
0000
,
0010
0000
0000
0000
0100
0000
0000
1000
0000
0000
0001
0000
0010
0000
0001
0000
,
1000
0000
0000
0000
0001
0000
0000
0100
0000
0000
0010
0000
1000
0000
0100
0000
,
1000
0000
0000
0000
0001
0000
0000
0010
0000
0000
0010
0000
0100
0000
0001
0000
,
0100
0000
0000
0000
0010
0000
0000
0100
0000
0000
0001
0000
0100
0000
1000
0000
,
0001
0000
0000
0000
0010
0000
0000
1000
0000
0000
0010
0000
0100
0000
1000
0000
,
0001
0000
0000
0000
0100
0000
0000
0010
0000
0000
0100
0000
0001
0000
0010
0000
,
1000
0000
0000
0000
0010
0000
0000
0100
0000
0000
0010
0000
0100
0000
1000
0000
;

//---------------dance-single - ----------------
#NOTES:
     dance-single:
     :
     Easy:
     4:
     0.293,0.411,0.280,0.000,0.000: // measure 1
0000
0000
0000
0000
,  // measure 2
1000
0100
0010
0000
,  // measure 3
0001
0010
0100
0000
,  // measure 4
1000
0010
0100
0000
,  // measure 5
0001
0100
0010
0000
,  // measure 6
1000
0001
0010
0000
,  // measure 7
0001
1000
0100
0000
,  // measure 8
0010
1000
0100
0000
,  // measure 9
0010
0001
0100
0000
,  // measure 10
0001
0010
0100
1000
,  // measure 11
0100
0010
0001
1001
,  // measure 12
1000
0100
0010
0001
,  // measure 13
0010
0001
0100
0010
,  // measure 14
1000
0000
1001
0000
,  // measure 15
0001
0010
0100
0010
,  // measure 16
0001
0000
1000
0000
,  // measure 17
0010
1000
0100
0000
,  // measure 18
1000
0010
0100
0001
,  // measure 19
0100
0010
1000
0000
,  // measure 20
1001
0000
0110
0000
,  // measure 21
1001
0000
0000
0000
,  // measure 22
1100
0000
0011
0000
,  // measure 23
1100
0000
0000
0000
,  // measure 24
1010
0000
0101
0000
,  // measure 25
1010
0000
0000
0000
,  // measure 26
1000
0100
0010
0001
,  // measure 27
0001
0010
0100
1000
,  // measure 28
1000
0100
0010
0100
,  // measure 29
1000
0100
0010
0001
,  // measure 30
0000
0010
0000
0100
,  // measure 31
0000
1000
0100
0010
,  // measure 32
0000
0011
0000
0000
,  // measure 33
0001
0000
0100
0000
,  // measure 34
1000
0100
0010
0000
,  // measure 35
0100
1000
0010
0000
,  // measure 36
0000
1100
0000
0000
,  // measure 37
0001
0010
0100
0000
,  // measure 38
1000
0000
1001
0000
,  // measure 39
0100
0000
0110
0000
,  // measure 40
1100
1100
1001
1001
,  // measure 41
0011
0011
0000
0000
,  // measure 42
0001
0100
0010
0000
,  // measure 43
0100
0001
0010
0000
,  // measure 44
0100
1000
0010
0000
,  // measure 45
1000
0010
0100
0000
,  // measure 46
0001
0100
1000
0000
,  // measure 47
1000
0100
0001
0000
,  // measure 48
0010
0001
0100
0000
,  // measure 49
0001
1000
0100
0000
,  // measure 50
1000
0100
0010
0110
;

//---------------dance-single - ----------------
#NOTES:
     dance-single:
     :
     Beginner:
     2:
     0.196,0.380,0.203,0.000,0.000:
0000
0000
0000
0000
,
1000
0000
0100
0000
,
1000
0000
0010
0000
,
1000
0000
0001
0000
,
0010
0000
0100
0000
,
1000
0000
0001
0000
,
0010
0000
0001
0000
,
0010
0000
0100
0000
,
0010
0000
0001
0000
,
1001
0000
0000
0000
,
0110
0000
0000
0000
,
0001
0000
0010
0000
,
0100
0000
0010
0000
,
0100
0000
1000
0000
,
0010
0000
0100
0000
,
0001
0000
1000
0000
,
0010
0000
0100
0000
,
0010
0000
1000
0000
,
0100
0000
0010
0000
,
1001
0000
0000
0000
,
1001
0000
0000
0000
,
0110
0000
0000
0000
,
0110
0000
0000
0000
,
1001
0000
0000
0000
,
0110
0000
0000
0000
,
0001
0001
0000
0000
,
0010
0010
0000
0000
,
0100
0100
0000
0000
,
1000
1000
0000
0000
,
1000
0000
0100
0000
,
0010
0000
0100
0100
,
0000
1001
0000
0000
,
0001
0000
0010
0000
,
0100
0000
0010
0000
,
0001
0000
0010
0010
,
0000
0110
0000
0000
,
1000
0000
0100
0000
,
0010
0000
0100
0000
,
0010
0000
0100
0000
,
1001
1001
1001
1001
,
1001
0000
0000
0000
,
1000
0000
0100
0000
,
0010
0000
0100
0000
,
1000
0000
0010
0000
,
0100
0000
0001
0000
,
1000
0000
0100
0000
,
0010
0000
0001
0000
,
0100
0000
0010
0000
,
1000
0000
0001
0000
,
1000
1000
0000
1001
;
