#TITLE:PARTY HARD;
#SUBTITLE:;
#ARTIST:ANDREW W.K.;
#TITLETRANSLIT:;
#SUBTITLETRANSLIT:;
#ARTISTTRANSLIT:;
#CREDIT:Xythar;
#BANNER:PARTY HARD.png;
#BACKGROUND:PARTY HARD-bg.png;
#LYRICSPATH:;
#CDTITLE:PARTY HARD-cd.png;
#MUSIC:PARTY HARD.mp3;
#OFFSET:-0.794;
#SAMPLESTART:63.013;
#SAMPLELENGTH:11.800;
#SELECTABLE:YES;
#BPMS:0.000=161.871;
#STOPS:;
#BGCHANGES:-0.500=PARTY HARD.avi=1.000=0=1=1,
232.000=PARTY HARD-bg.png=1.000=0=0=1,
99999=-nosongbg-=1.000=0=0=0 // don't automatically add -songbackground-
;

//---------------dance-single - ----------------
#NOTES:
     dance-single:
     :
     Hard:
     8:
     0.479,0.488,0.483,0.000,0.000: // measure 1
0000
0000
0000
0000
,  // measure 2
0000
0000
0000
0000
,  // measure 3
0000
0000
0000
0000
,  // measure 4
0000
0000
0000
0000
,  // measure 5
0000
0000
0000
0000
,  // measure 6
0000
0000
0000
0000
,  // measure 7
0000
0000
0000
0000
,  // measure 8
0000
0000
0000
1000
,  // measure 9
1000
0000
0100
1000
0001
0000
0100
0000
,  // measure 10
0100
0000
0010
1000
0001
0000
0010
0000
,  // measure 11
0010
0000
0100
1000
0001
0000
0100
0000
,  // measure 12
1010
1001
1001
0000
,  // measure 13
0100
0000
0010
0001
0100
0000
1010
0000
,  // measure 14
0100
0000
1000
0010
0100
0000
1001
0000
,  // measure 15
0010
0000
1000
0100
0010
0000
0001
0000
,  // measure 16
1010
1010
0101
0000
,  // measure 17
1000
1000
1000
1000
,  // measure 18
1000
0000
1000
0000
1000
0001
1000
0000
,  // measure 19
0010
0100
0001
0100
0010
0000
1000
0000
,  // measure 20
1000
0100
0010
0000
0010
0100
1000
0010
,  // measure 21
0100
0001
1000
0100
1000
0000
0101
0000
,  // measure 22
0010
1000
0001
1000
0100
1000
0010
0000
,  // measure 23
0100
0001
1000
0100
1000
0000
0001
0000
,  // measure 24
0010
0100
1000
0000
1000
0100
0010
0001
,  // measure 25
0100
0010
0100
0001
1000
0000
0110
0000
,  // measure 26
0001
0100
0010
0000
1100
0000
0001
0000
,  // measure 27
1010
0000
0000
0101
,  // measure 28
0010
0000
1000
0000
1100
0000
0010
0001
,  // measure 29
1000
0000
0010
0100
0001
0100
0010
0000
,  // measure 30
1000
0100
0000
1000
0010
0100
0001
0000
,  // measure 31
1000
0100
1000
0001
1000
0000
0010
0000
,  // measure 32
0101
0101
1010
1010
,  // measure 33
0001
0010
0001
0100
0010
0000
1100
0000
,  // measure 34
1100
0011
0011
0001
,  // measure 35
1000
0010
0100
0010
0000
1000
0100
0010
,  // measure 36
0000
0001
0100
0010
0100
0000
1001
0000
,  // measure 37
0100
0010
0001
0100
0000
0010
1000
0001
,  // measure 38
0000
0010
0100
1000
0010
0000
0101
0000
,  // measure 39
0010
1000
0001
0010
0000
0100
1000
0001
,  // measure 40
0000
0100
0010
1000
0100
0000
0011
0000
,  // measure 41
0100
1000
0001
1000
0000
0010
0100
0001
,  // measure 42
0000
1000
0001
0000
0110
0000
0001
0000
,  // measure 43
0010
0000
0100
1000
0001
1000
0010
0000
,  // measure 44
0101
0101
1100
1100
,  // measure 45
0010
0001
0100
0010
0100
0001
0010
0000
,  // measure 46
0100
1000
0001
0000
1010
0000
1100
0000
,  // measure 47
1000
0000
0010
0100
0001
1000
0100
0000
,  // measure 48
1100
0101
1100
0101
,  // measure 49
0010
1000
0001
1000
0100
1000
0010
0100
,  // measure 50
0001
0010
0100
1000
0001
0000
1000
0100
,  // measure 51
0010
0000
0010
0100
1000
0000
0001
0100
,  // measure 52
0010
0000
0010
0100
0001
0000
1000
0001
,  // measure 53
0010
0000
0001
1000
0010
0000
0100
0001
,  // measure 54
1000
0000
0100
1000
0001
0000
1100
0000
,  // measure 55
0011
0000
0100
1000
0010
0000
0101
0000
,  // measure 56
1010
0000
0100
0001
0010
0000
1010
0000
,  // measure 57
0011
0000
1000
0010
0100
0000
1100
0000
,  // measure 58
0101
0000
1000
0100
0010
0000
0101
0000
,  // measure 59
1001
0000
0000
0000
;

//---------------dance-single - ----------------
#NOTES:
     dance-single:
     :
     Easy:
     3:
     0.233,0.396,0.126,0.000,0.000:
0000
0000
0000
0000
,
0000
0000
0000
0000
,
0000
0000
0000
0000
,
0000
0000
0000
0000
,
0000
0000
0000
0000
,
0000
0000
0000
0000
,
0000
0000
0000
0000
,
0000
0000
0000
0000
,
1000
0000
0000
0001
,
0001
0000
0000
1000
,
1000
0000
0000
0000
,
0001
1000
1001
0000
,
0010
0000
0100
0001
,
0100
0000
0010
1000
,
0010
0000
1000
0100
,
0010
0010
0010
0000
,
0001
0000
0000
0000
,
0000
0000
1000
0000
,
0001
0001
0001
0000
,
1000
0000
0010
0100
,
0010
0010
0010
0000
,
1000
1000
1000
0000
,
0100
0100
0100
0010
,
0001
0000
1000
0000
,
0010
0010
0010
1000
,
0001
0000
1000
0000
,
1001
0000
0000
0010
,
0010
0100
0100
0000
,
0001
1000
0001
1000
,
0001
0000
1000
0100
,
1000
0000
0000
0010
,
0010
0100
0100
0001
,
0001
0000
0000
1000
,
0001
1000
0001
0000
,
1000
0000
0100
0000
,
0010
0010
0010
0000
,
0001
0000
0100
0000
,
0010
0010
0010
0000
,
1000
0001
1000
0000
,
0010
0100
0010
0000
,
1000
0000
0100
0000
,
0010
0010
0010
0001
,
1000
0000
0001
0000
,
1000
1000
1000
1000
,
0010
0000
0100
0001
,
0100
0000
1001
0000
,
0100
0100
0100
0100
,
0010
0010
0010
0010
,
0001
0000
1000
0000
,
0010
0100
0001
0000
,
1001
0001
0001
0000
,
1001
1000
1000
0000
,
0110
0010
0010
0000
,
0110
0100
0100
0000
,
0001
0001
1000
1000
,
0001
0001
1000
1000
,
1001
1001
1001
1001
,
0000
0010
0010
0100
,
0110
0000
0000
0000
;

//---------------dance-single - ----------------
#NOTES:
     dance-single:
     :
     Medium:
     5:
     0.302,0.366,0.147,0.126,0.000:
0000
0000
0000
0000
,
0000
0000
0000
0000
,
0000
0000
0000
0000
,
0000
0000
0000
0000
,
0000
0000
0000
0000
,
0000
0000
0000
0000
,
0000
0000
0000
0000
,
0000
0000
0000
1000
,
0020
0000
0000
0130
0000
0000
0010
0000
,
2000
0000
0000
3001
0000
0000
1000
0000
,
0200
0000
0000
0310
0000
0000
0001
0000
,
0100
0010
1001
0000
,
0200
0000
0000
0310
0000
0000
0001
0000
,
0200
0000
0000
0310
0000
0000
0100
0000
,
0002
0000
0000
1003
0000
0000
0100
0000
,
0010
0001
1001
0000
,
1000
0000
0000
0000
,
0000
0000
0100
0100
,
0020
0000
0030
0001
,
0100
0001
1000
0000
,
0200
0000
0300
0010
,
0001
1000
0001
0000
,
2000
0000
3000
0010
,
0100
0001
0100
0000
,
0020
0000
0030
1000
,
0001
1000
0100
0000
,
1001
0000
0000
0010
,
0100
0001
2000
0100
,
3100
0000
1000
0010
,
0200
0000
0000
0301
0000
0000
1000
0000
,
1001
0010
0010
0100
,
0100
0000
1000
0001
,
1000
0010
0010
0000
,
0100
0001
1000
0000
,
0001
0001
0000
1000
0000
0001
0000
1000
,
0000
0010
0010
0000
0100
0000
1001
0000
,
0100
0100
0000
0010
0000
0001
0000
0100
,
0000
0010
0010
0000
1000
0000
0101
0000
,
0010
0010
0000
1000
0000
0100
0010
0100
,
0000
0010
0001
1001
,
0001
0100
0001
0100
0000
0010
0000
1000
,
0000
0001
1000
0000
0100
0000
0000
0000
,
1000
1000
1000
1000
,
0001
0001
0001
0001
,
1000
1000
0100
0100
,
0010
0010
1001
1001
,
0010
0010
0010
0010
,
0100
0100
0100
0100
,
0001
0010
0100
1000
,
0010
0000
0100
0001
0100
0000
0010
0000
,
0010
1000
1000
0100
,
0100
0010
0010
0001
,
0001
1000
1000
0010
,
0010
0000
0100
0001
0100
0000
0000
0000
,
0001
0001
0100
0110
,
1000
1000
0100
0110
,
0010
0010
0001
1001
,
0100
0100
1000
1001
,
1001
0000
0000
0000
;

//---------------dance-single - ----------------
#NOTES:
     dance-single:
     :
     Beginner:
     1:
     0.144,0.213,0.053,0.000,0.000:
0000
0000
0000
0000
,
0000
0000
0000
0000
,
0000
0000
0000
0000
,
0000
0000
0000
0000
,
0000
0000
0000
0000
,
0000
0000
0000
0000
,
0000
0000
0000
0000
,
0000
0000
0000
0000
,
1000
0000
0000
0000
,
0001
0000
0000
0000
,
1000
0000
0000
0000
,
0001
0001
0001
0000
,
0100
0000
0000
0000
,
0010
0000
0000
0000
,
0100
0000
0000
0000
,
0010
0010
0010
0000
,
1000
0000
0000
0000
,
0000
0000
0000
0000
,
0100
0000
0000
0010
,
0010
0000
0001
0000
,
1000
0000
0000
0010
,
0010
0000
0010
0000
,
1000
0000
0000
0001
,
0001
0000
1000
0000
,
0100
0000
0000
1000
,
1000
0000
0000
0000
,
0001
0000
0000
0000
,
0001
0000
0001
0000
,
0001
0000
0000
0000
,
1000
0000
1000
0000
,
1000
0000
0000
0100
,
0100
0000
0100
0000
,
0010
0000
0000
0001
,
0001
0000
0001
0000
,
1000
0000
0000
0000
,
0001
0000
0000
0000
,
1000
0000
0000
0000
,
0001
0000
0000
0000
,
1000
0000
0100
0000
,
0010
0000
0001
0000
,
1000
0000
0010
0000
,
0100
0000
0001
0000
,
1000
1000
1000
0000
,
0001
0001
0001
0000
,
1000
0000
0001
0000
,
1000
0000
1001
0000
,
0010
0010
0010
0000
,
0100
0100
0100
0000
,
0010
0000
0100
0000
,
0010
0000
0110
0000
,
0001
0000
1000
0000
,
0001
0000
1000
0000
,
0001
0000
1000
0000
,
0001
0000
1001
0000
,
0010
0000
0100
0000
,
0010
0000
0100
0000
,
0010
0000
0100
0000
,
0010
0000
0110
0000
,
1001
0000
0000
0000
;
