#TITLE:おちゃめ機能;
#SUBTITLE:;
#ARTIST:ラマーズP feat. ろん;
#TITLETRANSLIT:Ochame Kinou;
#SUBTITLETRANSLIT:;
#ARTISTTRANSLIT:Lamaze-P feat. Lon;
#CREDIT:Xythar;
#BANNER:Ochame Kinou-bn.avi;
#BACKGROUND:Ochame Kinou-bg.png;
#LYRICSPATH:Ochame Kinou.lrc;
#CDTITLE:nicovideo.png;
#MUSIC:Ochame Kinou.ogg;
#OFFSET:-0.151;
#SAMPLESTART:60.340;
#SAMPLELENGTH:14.000;
#SELECTABLE:YES;
#BPMS:0.000=150.000;
#STOPS:;
#BGCHANGES:-0.388=Ochame Kinou.avi=1.000=1=0=0,
223.000=Ochame Kinou-bg.png=1.000=1=0=0,
99999=-nosongbg-=1.000=0=0=0 // don't automatically add -songbackground-
;

//---------------dance-single - ----------------
#NOTES:
     dance-single:
     :
     Hard:
     8:
     0.540,0.556,0.233,0.410,0.161:
0000
0000
0000
0000
,
0000
0000
0000
0000
,
0000
0000
0000
0000
,
2000
0000
0000
3002
0000
0000
0013
0000
0000
0000
0000
0000
0000
0000
0000
0000
,
0002
0000
0000
0000
0103
0000
0000
0010
0000
0000
1000
0000
0001
0000
1000
0000
,
0200
0000
0000
0000
0310
0000
0000
0001
0000
0000
1000
0000
0001
0000
1000
0000
,
0020
0000
0000
0000
0130
0000
0000
0010
0000
0000
1000
0000
0100
0000
1000
0000
,
0001
0000
1000
0010
0000
0100
0001
0000
,
2000
0000
0000
0000
3100
0000
0000
1000
0000
0000
0010
0000
0100
0000
0010
0000
,
2000
0000
0000
0000
3001
0000
0000
0010
0000
0000
0001
0000
1000
0000
0010
0000
,
0200
0000
0000
0000
0301
0000
0000
1000
0000
0000
0001
0000
0010
0000
0001
0000
,
1000
0000
0100
0001
0000
0100
2000
0000
,
3001
0000
0000
0000
1000
0000
0000
0010
0000
0000
0100
0000
0010
0000
0000
0000
,
0100
0000
0000
0000
0001
0000
0000
1000
0000
0000
0100
0000
0100
0000
0000
0000
,
1000
0000
0001
0100
0001
0000
1000
0100
,
1000
0010
0102
1003
,
0010
0000
0100
0001
1000
0000
0001
1000
,
0100
0021
0130
1000
,
0010
0000
0001
0010
1000
0000
0100
0001
,
0100
1000
0102
1003
,
0010
0000
0100
0001
1000
0000
0001
0010
,
0100
1000
0010
0100
0001
1000
0010
0000
,
0200
1000
0010
0301
,
0010
0100
1000
0010
0100
0000
1001
0000
,
0020
0001
0100
1030
,
0001
0100
0010
1000
0001
0000
0110
0000
,
2000
0010
0001
3100
,
1000
0010
0100
0001
0010
0000
1100
0000
,
0002
0100
1000
0013
,
0100
1000
0010
0100
0001
0010
0100
0000
,
1000
0000
0000
0000
0010
0000
0000
0000
0200
0000
0000
0310
0000
0000
0100
0000
,
0001
0000
0000
0000
0010
0000
0000
0000
2000
0000
0000
3010
0000
0000
0001
0000
,
0100
0000
0000
0000
0010
0000
0000
0000
2000
0000
0000
3100
0000
0000
0010
0000
,
0002
0000
0000
0103
0000
0000
0001
0000
2000
0000
0000
3100
0000
0000
0010
0000
,
0002
0000
0000
0000
0100
0000
0000
0000
0203
0000
0000
0320
0000
0000
1030
0000
,
0200
0000
0000
0000
1000
0000
0000
0000
2300
0000
0000
3002
0000
0000
1003
0000
,
0020
0100
1030
0001
,
1100
0000
0000
0101
0000
0000
0110
0000
0000
0000
0000
0000
0000
0000
0000
0000
,
0102
0000
0000
0000
1000
0000
0000
0013
0000
0000
0001
0000
0100
0000
0000
0000
,
2010
0000
0000
0000
0001
0000
0000
3100
0000
0000
0010
0000
0100
0000
0000
0000
,
0201
0000
0000
0000
0010
0000
0000
1300
0000
0000
0001
0000
0100
0000
0010
0000
,
1000
0000
0100
0001
0000
0100
1000
0000
,
0101
0000
0000
0000
2010
0000
0000
3001
0000
0000
0010
0000
0100
0000
0000
0000
,
1010
0000
0000
0000
0102
0000
0000
1003
0000
0000
0100
0000
0010
0000
0000
0000
,
0011
0000
0000
0000
2100
0000
0000
3001
0000
0000
0100
0000
0010
0000
0100
0000
,
0001
0000
0010
1000
0000
0010
0001
0000
,
1001
0000
0000
0000
0100
0000
0000
0000
1000
0000
0010
0000
0100
0010
0100
0000
,
0001
0010
0001
1000
0001
0100
0010
0100
,
0002
0000
0000
0000
0010
0000
0000
0000
1000
0000
0000
1003
0000
0000
0010
0000
,
0100
1000
0100
0001
0000
0010
0100
1000
,
0000
0000
0001
0000
2000
0000
0000
0000
0100
0000
0000
3001
0000
0000
0100
0000
,
0010
0100
0001
0010
0000
1000
0010
0001
,
0000
0000
0100
0000
0020
0000
0000
0000
0100
0000
0000
1030
0000
0000
0001
0000
,
0010
0100
1000
0001
0000
1000
0010
0000
,
0101
0000
0000
0000
0010
0000
0000
1000
0000
0000
0001
0000
0010
0000
0000
0000
,
1100
0000
0000
0000
0001
0000
0000
0100
0000
0000
0001
0000
1000
0000
0000
0000
;

//---------------dance-single - ----------------
#NOTES:
     dance-single:
     :
     Medium:
     6:
     0.448,0.432,0.066,0.166,0.006:
0000
0000
0000
0000
,
0000
0000
0000
0000
,
0000
0000
0000
0000
,
0002
0000
0000
1003
0000
0000
0000
0000
,
0001
0000
1000
0000
0100
0000
0010
0001
,
1000
0000
0010
0000
0100
0000
0010
1000
,
0001
0000
0010
0000
0100
0000
1000
0001
,
0100
0000
1000
0100
0000
0001
1000
0000
,
0001
0000
0010
0000
0100
0000
1000
0010
,
1000
0000
0001
0000
1000
0000
0001
0010
,
0001
0000
1000
0000
0010
0000
0100
0001
,
1000
0000
0001
0010
0000
0100
1000
0000
,
0020
0100
1000
0230
,
1000
0010
0301
1010
,
0001
0000
1000
0010
1000
0000
0001
0010
,
0002
0100
1000
0013
,
0100
0000
1000
0001
1000
0000
0001
0100
,
0001
2100
0010
3010
,
0100
0000
0001
0100
0001
0000
1000
0100
,
1000
0010
0001
0010
,
1000
0000
0001
0100
0001
0000
1000
0000
,
0001
0100
0001
0100
0010
1000
0010
0000
,
1000
0000
0100
1000
0001
0000
0001
0000
,
1000
0010
1000
0000
0001
0000
0001
0000
,
1000
0000
0010
1000
0001
0000
1000
0000
,
0002
0010
0100
1003
,
0010
0000
0100
0001
0100
0000
0010
0000
,
2000
0100
0001
3010
,
0100
0000
1000
0100
0001
0000
1000
0000
,
0001
0100
0001
0100
0010
1000
0010
0000
,
1000
0000
0100
0000
0010
0001
1000
0000
,
0010
0000
0100
0000
0001
1000
0010
0000
,
0100
0000
0001
0000
0010
0100
1000
0000
,
0001
0000
0100
0000
1000
0100
0001
0000
,
1000
0000
0100
0000
0010
0001
1000
0000
,
0010
0000
0100
0000
0001
1000
0100
0000
,
0001
0100
1000
0000
0001
0100
1000
0000
,
0100
0000
0000
0001
0000
0000
1000
0000
0000
0000
0000
0000
0000
0000
0000
0000
,
0002
0000
0100
0000
0013
0000
1000
0010
,
0002
0000
0100
0000
1003
0000
0010
0100
,
0020
0000
0001
0000
1030
0000
0100
0010
,
0001
0000
0100
0010
0000
1000
0001
0000
,
2100
0001
3010
0100
,
0012
1000
0103
0010
,
2001
0100
0010
0100
,
3001
0000
0100
0010
0000
1000
0100
0010
,
0001
0000
0100
0000
0010
1000
0010
0010
,
0100
0001
0100
0000
0001
1000
0001
0000
,
2000
0100
0001
3010
,
0100
0001
0010
0000
0100
1000
0010
0000
,
0001
0020
0001
0100
,
1030
0000
0001
0010
0001
0000
1000
0010
,
1000
0000
0101
0000
0010
1000
0001
0000
,
1000
0100
0010
0001
0000
0100
0010
0000
,
1000
0000
0001
0000
1000
0001
0010
0000
,
0100
0000
1000
0000
0001
1000
0010
0000
;

//---------------dance-single - ----------------
#NOTES:
     dance-single:
     :
     Easy:
     4:
     0.302,0.278,0.033,0.277,0.000: // measure 1
0000
0000
0000
0000
,  // measure 2
0000
0000
0000
0000
,  // measure 3
0000
0000
0000
0000
,  // measure 4
1001
0000
0000
0000
,  // measure 5
2000
0000
3010
0100
,  // measure 6
0002
0000
0013
0100
,  // measure 7
2000
0000
3001
1000
,  // measure 8
0002
0000
0203
0000
,  // measure 9
0310
1000
0200
0000
,  // measure 10
0310
0001
0200
0000
,  // measure 11
0310
1000
0002
0000
,  // measure 12
1003
0000
0010
1000
,  // measure 13
0001
0000
0000
0000
,  // measure 14
1000
0000
0000
0000
,  // measure 15
0001
0100
0010
0000
,  // measure 16
1000
0100
2000
0000
,  // measure 17
3001
0100
1000
0000
,  // measure 18
1000
0100
0002
0000
,  // measure 19
1003
0010
0100
0000
,  // measure 20
0010
1000
0002
0000
,  // measure 21
1003
0010
1000
0000
,  // measure 22
1000
0010
0100
0001
,  // measure 23
0010
0001
0010
0000
,  // measure 24
0001
1000
0002
0000
,  // measure 25
1003
0010
1000
0000
,  // measure 26
0001
0100
0001
0001
,  // measure 27
1000
0100
1000
0000
,  // measure 28
0001
0010
0002
0000
,  // measure 29
1003
0010
0200
0000
,  // measure 30
0301
0010
0100
1000
,  // measure 31
0010
0010
0100
0100
,  // measure 32
0001
0001
1000
0000
,  // measure 33
0001
0001
1000
1000
,  // measure 34
0010
0010
0100
0100
,  // measure 35
0001
0001
0010
0010
,  // measure 36
0100
0100
1000
1000
,  // measure 37
0010
0010
0100
0100
,  // measure 38
1001
0000
0000
0000
,  // measure 39
1000
0010
2000
0000
,  // measure 40
3001
0010
0002
0000
,  // measure 41
1003
0100
2000
0000
,  // measure 42
3002
0000
2003
0000
,  // measure 43
3010
0100
0020
0000
,  // measure 44
0130
0001
0200
0000
,  // measure 45
0301
1000
0002
0000
,  // measure 46
0023
0000
0230
0000
,  // measure 47
1300
0010
1000
1000
,  // measure 48
0001
0001
0010
0100
,  // measure 49
1000
1000
0010
1000
,  // measure 50
0001
0010
0100
1000
,  // measure 51
0010
0010
0000
0100
,  // measure 52
0001
1000
0001
0010
,  // measure 53
0200
0000
0000
0000
,  // measure 54
1300
0010
1000
0001
,  // measure 55
1000
1000
0100
0100
,  // measure 56
0010
0010
0001
1001
;

//---------------dance-single - ----------------
#NOTES:
     dance-single:
     :
     Beginner:
     1:
     0.176,0.216,0.022,0.100,0.000: // measure 1
0000
0000
0000
0000
,  // measure 2
0000
0000
0000
0000
,  // measure 3
0000
0000
0000
0000
,  // measure 4
0001
0000
0000
0000
,  // measure 5
1000
0000
1000
0000
,  // measure 6
0001
0000
0001
0000
,  // measure 7
1000
0000
1000
0000
,  // measure 8
0010
0000
0000
0000
,  // measure 9
0100
0000
0100
0000
,  // measure 10
0010
0000
0010
0000
,  // measure 11
0100
0000
0100
0000
,  // measure 12
0001
0000
0000
1000
,  // measure 13
1000
0000
0000
0000
,  // measure 14
0000
0000
0000
0000
,  // measure 15
0001
0000
0100
0000
,  // measure 16
0001
0001
0001
0000
,  // measure 17
1000
0000
0100
0000
,  // measure 18
1000
1000
1000
0000
,  // measure 19
0010
0000
0100
0000
,  // measure 20
0010
0010
0010
0000
,  // measure 21
0100
0000
0010
0000
,  // measure 22
0100
0100
0100
0000
,  // measure 23
0001
0000
1000
0000
,  // measure 24
0010
0010
0010
0000
,  // measure 25
1000
0000
0001
0000
,  // measure 26
0010
0010
0010
0000
,  // measure 27
1000
0000
0001
0000
,  // measure 28
0100
0100
0100
0000
,  // measure 29
0001
0000
1000
0000
,  // measure 30
0100
0100
0100
0000
,  // measure 31
1000
0000
0010
0000
,  // measure 32
1000
0000
0001
0000
,  // measure 33
0010
0000
0001
0000
,  // measure 34
1000
0000
0001
0000
,  // measure 35
1000
0000
0010
0000
,  // measure 36
0100
0000
0001
0000
,  // measure 37
0010
0000
0100
0000
,  // measure 38
1001
0000
0000
0000
,  // measure 39
2000
0000
0000
0000
,  // measure 40
3020
0000
0000
0000
,  // measure 41
0230
0000
0000
0000
,  // measure 42
0302
0000
0023
0000
,  // measure 43
0230
0000
0000
0000
,  // measure 44
2300
0000
0000
0000
,  // measure 45
3020
0000
0000
0000
,  // measure 46
0230
0000
0000
0000
,  // measure 47
0301
0000
1000
1000
,  // measure 48
1000
0000
0001
0001
,  // measure 49
0001
0000
1000
0000
,  // measure 50
0010
0000
1000
0000
,  // measure 51
0001
0000
0000
0000
,  // measure 52
0010
0000
0100
0000
,  // measure 53
1000
0000
0000
0000
,  // measure 54
0001
0000
1000
0000
,  // measure 55
0010
0000
0000
0000
,  // measure 56
0100
0000
0000
1001
;
