#TITLE:ね~え?;
#SUBTITLE:;
#ARTIST:松浦亜弥;
#TITLETRANSLIT:Ne~e?;
#SUBTITLETRANSLIT:;
#ARTISTTRANSLIT:Aya Matsuura;
#CREDIT:Xythar;
#BANNER:Ne~e BN.avi;
#BACKGROUND:Ne~e BG.png;
#LYRICSPATH:Ne~e.lrc;
#CDTITLE:CDTitle.png;
#MUSIC:Ne~e.mp3;
#OFFSET:-0.449;
#SAMPLESTART:62.999;
#SAMPLELENGTH:12.693;
#SELECTABLE:YES;
#BPMS:0.000=169.950;
#STOPS:;
#BGCHANGES:-1.250=Ne~e.avi=1.000=0=0=0,
99999=-nosongbg-=1.000=0=0=0 // don't automatically add -songbackground-
;

//---------------dance-single - MANIAC----------------
#NOTES:
     dance-single:
     MANIAC:
     Hard:
     8:
     0.587,0.570,0.361,0.095,0.000: // measure 1
0000
0000
0000
0000
,  // measure 2
0000
0000
0000
0000
,  // measure 3
0000
0000
0000
0000
,  // measure 4
0000
0000
0001
0010
,  // measure 5
1100
0000
0010
0100
0000
0100
0010
0100
,  // measure 6
0001
0000
0001
1000
0000
1000
0001
1000
,  // measure 7
0010
0000
0100
0001
1000
0100
1000
0001
,  // measure 8
0000
0010
0100
1000
0010
0000
0100
0000
,  // measure 9
1001
0000
0100
0010
0000
0010
0100
1000
,  // measure 10
0010
0000
0100
0001
0000
0001
1000
0001
,  // measure 11
1000
0000
0100
0000
0010
0001
0010
0001
,  // measure 12
0000
0100
0010
0100
0000
0001
1000
0000
,  // measure 13
1100
0000
0011
0000
0001
0100
0010
1000
,  // measure 14
0000
0100
0010
0001
0000
0100
0010
0000
,  // measure 15
0100
0001
0100
0001
1000
0001
1000
0001
,  // measure 16
1000
0100
1000
0001
0010
0100
1000
0010
,  // measure 17
1000
0100
0010
0001
0100
0010
0100
0010
,  // measure 18
1000
0001
0010
0100
1000
0002
0000
0003
,  // measure 19
1000
0010
0100
0001
0010
0100
0010
0100
,  // measure 20
1000
0010
0100
0010
1000
0002
0000
0003
,  // measure 21
1000
0000
0010
0100
0000
0001
1000
0000
,  // measure 22
0100
0000
0010
0001
0000
0001
1000
0000
,  // measure 23
0010
0000
0100
0001
0000
0001
1000
0001
,  // measure 24
1000
0000
0100
0010
0000
0010
0100
0000
,  // measure 25
1000
0000
0010
0100
0000
0001
0100
0001
,  // measure 26
0100
0000
0010
1000
0000
0001
1000
0000
,  // measure 27
0001
0100
0010
1000
0100
0010
0100
0010
,  // measure 28
0001
0100
0010
1000
0001
0000
0110
0000
,  // measure 29
0001
0000
0010
0100
0000
1000
0100
1000
,  // measure 30
0010
0000
0100
0001
0000
2000
0000
3000
,  // measure 31
0100
0000
0010
0001
0000
0100
0010
0100
,  // measure 32
0001
0000
1000
0100
0000
1000
0010
0000
,  // measure 33
0101
0000
0010
1000
0000
1000
0001
0000
,  // measure 34
1100
0000
0001
0010
0000
0100
1000
0000
,  // measure 35
0010
0100
0001
1000
0100
0010
0100
0010
,  // measure 36
0001
0100
0010
1000
0001
0000
1000
0100
,  // measure 37
0010
0000
0001
1000
0000
0010
0100
0010
,  // measure 38
0100
0000
0001
1000
0000
1000
0001
0000
,  // measure 39
1010
0000
0101
0000
0010
1000
0001
0000
,  // measure 40
2100
0000
0010
0000
3001
0000
0010
0100
,  // measure 41
2000
0000
0001
3001
0000
0000
0110
0000
,  // measure 42
0002
0000
1000
1003
0000
0100
0010
0000
,  // measure 43
0001
0100
0001
1000
0100
1000
0001
0000
,  // measure 44
2000
0010
0100
3001
,  // measure 45
0110
0000
0000
0001
0010
0000
1010
0000
,  // measure 46
0011
0000
0100
0010
0000
0010
0100
0001
,  // measure 47
1000
0000
0100
0010
0000
0010
0100
0000
,  // measure 48
1100
0000
1001
0000
1010
0000
0100
0001
,  // measure 49
0000
0001
1000
0001
1000
0100
0010
0000
,  // measure 50
1100
0000
0001
0100
0000
0010
1000
0000
,  // measure 51
0011
0000
1000
0100
0000
0010
0001
0000
,  // measure 52
0110
0000
1001
0000
0110
0000
0001
0010
,  // measure 53
0000
0100
1000
0001
0000
0001
1000
0000
,  // measure 54
0020
0030
0100
0001
,  // measure 55
0011
0000
0100
1000
0001
1000
0010
0000
,  // measure 56
1100
0000
0010
0001
1000
0001
0100
0000
,  // measure 57
1010
0000
0101
0000
1001
0000
0100
0010
,  // measure 58
0001
0000
0100
0010
1000
0010
0100
0000
,  // measure 59
1001
0000
0010
0100
1000
0010
0100
0000
,  // measure 60
1001
0000
0100
0010
0001
0100
0010
0000
,  // measure 61
0101
0000
1001
0000
0011
0000
0100
1000
,  // measure 62
0000
0001
0100
0001
0000
1000
0100
0000
,  // measure 63
0011
0000
1100
0000
1001
0000
0010
0100
,  // measure 64
0000
0001
0100
0001
0000
0010
0100
0000
,  // measure 65
2001
0000
0010
0000
3001
0100
0010
0000
,  // measure 66
2100
0000
0001
0000
3010
0100
1000
0000
,  // measure 67
0001
0100
0010
1000
0100
0010
0100
0010
,  // measure 68
0001
0100
0010
1000
0100
0010
0100
0010
,  // measure 69
0001
0100
0010
1000
0100
0010
0100
0010
,  // measure 70
0001
0000
1000
0001
1001
0000
0000
0000
,  // measure 71
1000
0100
0010
0001
1000
0001
0000
0000
;

//---------------dance-single - TRICK----------------
#NOTES:
     dance-single:
     TRICK:
     Medium:
     7:
     0.449,0.469,0.142,0.247,0.000: // measure 1
0000
0000
0000
0000
,  // measure 2
0000
0000
0000
0000
,  // measure 3
0000
0000
0000
0000
,  // measure 4
0000
0000
0001
1000
,  // measure 5
1001
0000
0000
0010
0000
0100
0001
0000
,  // measure 6
1000
0000
0000
0100
0000
0010
0001
0000
,  // measure 7
0100
0000
0010
0000
0100
0000
0001
1000
,  // measure 8
0000
0000
0000
1000
0010
0000
0100
0000
,  // measure 9
0001
0000
0000
0010
0000
0100
1000
0000
,  // measure 10
0010
0000
0000
0100
0000
0010
1000
0000
,  // measure 11
0001
0000
0001
0000
1000
0000
1000
0001
,  // measure 12
0000
0001
1000
0001
0000
1000
0001
0000
,  // measure 13
0010
0000
0010
0000
0100
0000
0100
1000
,  // measure 14
0000
0001
1000
0001
0000
0100
0001
0000
,  // measure 15
1000
1000
1000
1000
,  // measure 16
0100
0100
0010
0001
,  // measure 17
1010
0000
0100
0001
0100
0000
0010
1000
,  // measure 18
0010
0000
1000
0001
1000
0002
0000
0003
,  // measure 19
0010
0000
0100
1000
0100
0000
0010
0001
,  // measure 20
0010
0000
0001
0100
0001
2000
0000
3000
,  // measure 21
0200
0000
0000
0310
0000
0000
0001
0000
,  // measure 22
0200
0000
0000
0310
0000
0000
1000
0000
,  // measure 23
0200
0000
0000
0310
0000
0000
0001
0000
,  // measure 24
2000
0000
0000
3010
0000
0000
1000
0000
,  // measure 25
0200
0000
0000
0310
0000
0000
0001
0000
,  // measure 26
2000
0000
0000
3010
0000
0000
0100
0000
,  // measure 27
0010
0000
1000
0010
1000
0000
0001
1000
,  // measure 28
0001
0000
0010
0001
0010
0000
0100
0000
,  // measure 29
2000
0000
0000
3001
0000
0000
1000
0000
,  // measure 30
0020
0000
0000
0130
0000
0002
0000
0003
,  // measure 31
2000
0000
0000
3100
0000
0000
0010
0000
,  // measure 32
0002
0000
0000
0103
0000
0001
1000
0000
,  // measure 33
0200
0000
0000
0310
0000
0000
0001
0000
,  // measure 34
2000
0000
0000
3010
0000
0000
0100
0000
,  // measure 35
0010
0000
1000
0010
1000
0000
0001
0010
,  // measure 36
0001
0000
1000
0001
1000
0000
0100
0000
,  // measure 37
0012
0000
0000
0103
0000
1000
0001
0000
,  // measure 38
0200
0000
0000
0310
0000
1000
0001
0000
,  // measure 39
1000
0100
0010
0001
,  // measure 40
2002
0000
3003
0010
,  // measure 41
0102
0000
0000
1003
0000
0000
0100
0000
,  // measure 42
0012
0000
0000
1003
0000
0001
1000
0001
,  // measure 43
1000
0010
0100
0001
,  // measure 44
2000
0000
0001
3010
,  // measure 45
0101
0000
0010
1000
,  // measure 46
1001
0000
0000
0100
0000
0010
0001
0000
,  // measure 47
1100
0000
0000
0010
0000
0100
0001
0000
,  // measure 48
1000
0000
0100
0000
1000
0001
1000
0001
,  // measure 49
0000
0000
0000
0010
0100
0000
0010
0000
,  // measure 50
1001
0000
0000
0010
0000
0100
0001
0000
,  // measure 51
1100
0000
0000
0001
0000
0010
0100
0000
,  // measure 52
1000
0000
0010
0000
0100
0000
0001
1000
,  // measure 53
0000
0001
1000
0001
0000
1000
0001
0000
,  // measure 54
2000
0000
3000
0001
0100
0000
0010
0000
,  // measure 55
1100
0000
0001
0100
0000
0100
0001
0000
,  // measure 56
1100
0000
0001
0010
0000
0010
0001
0000
,  // measure 57
1000
0000
0010
0000
0100
0001
0100
0002
,  // measure 58
0000
0000
1000
1003
,  // measure 59
0110
0000
0001
1000
0000
1000
0001
0000
,  // measure 60
0110
0000
1000
0001
0000
0001
1000
0000
,  // measure 61
0100
0000
0010
0000
0001
0000
0100
0010
,  // measure 62
0000
1000
0010
1000
0000
0001
1000
0000
,  // measure 63
0001
0000
0010
0000
0100
0000
1000
0100
,  // measure 64
0000
1000
0001
1000
0000
0001
0100
0000
,  // measure 65
0020
1000
0100
1030
,  // measure 66
0002
0010
1000
0013
,  // measure 67
0100
0000
0100
1000
0001
0000
0001
1000
,  // measure 68
0010
0000
0010
0100
0001
0000
0001
0010
,  // measure 69
0100
0000
0100
1000
0001
0000
0001
1000
,  // measure 70
0010
0000
1000
0001
1000
0000
0000
0000
,  // measure 71
0001
1000
0001
1000
0001
1000
0000
0000
;

//---------------dance-single - BASIC----------------
#NOTES:
     dance-single:
     BASIC:
     Easy:
     5:
     0.316,0.368,0.114,0.180,0.000: // measure 1
0000
0000
0000
0000
,  // measure 2
0000
0000
0000
0000
,  // measure 3
0000
0000
0000
0000
,  // measure 4
0000
0000
1000
0001
,  // measure 5
1000
0000
0000
0010
0000
0000
0010
0000
,  // measure 6
0100
0000
0000
0001
0000
0000
0001
0000
,  // measure 7
1000
0000
0100
0000
1000
0000
0000
0002
,  // measure 8
0000
0003
0100
0010
,  // measure 9
0100
0000
0000
0100
0000
0000
0010
0000
,  // measure 10
1000
0000
0000
1000
0000
0000
0100
0000
,  // measure 11
1000
0000
0001
0000
1000
0000
0000
0001
,  // measure 12
0000
0000
1000
0000
0000
0110
0000
0000
,  // measure 13
0100
0000
0001
0000
0100
0000
0000
0001
,  // measure 14
0000
0000
1000
0000
0000
1001
0000
0000
,  // measure 15
0001
0000
0001
0000
,  // measure 16
1000
0001
1000
0001
,  // measure 17
1000
0100
0010
0001
,  // measure 18
0100
0010
1000
0000
,  // measure 19
0001
0010
0100
1000
,  // measure 20
0010
0100
0001
0000
,  // measure 21
2000
0000
3000
0001
,  // measure 22
0200
0000
0300
0010
,  // measure 23
1000
0000
0100
0010
,  // measure 24
0200
0000
0300
0000
,  // measure 25
2000
0000
3000
0001
,  // measure 26
0200
0000
0300
0010
,  // measure 27
1000
0100
0010
0001
,  // measure 28
0100
0010
1000
0000
,  // measure 29
0002
0000
0003
1000
,  // measure 30
0200
0000
0300
0000
,  // measure 31
2000
0000
3000
0010
,  // measure 32
0200
0000
0300
0001
,  // measure 33
2000
0000
3000
0001
,  // measure 34
0200
0000
0300
0010
,  // measure 35
1000
0100
0010
0001
,  // measure 36
0100
0010
1000
0001
,  // measure 37
0002
0000
0000
1003
0000
0000
0100
0000
,  // measure 38
0020
0000
0000
0031
0000
0000
0100
0000
,  // measure 39
0010
1000
0001
1000
,  // measure 40
1001
0000
0010
0100
,  // measure 41
0001
0000
0000
1001
0000
0000
0100
0000
,  // measure 42
0010
0000
0000
0110
0000
0000
0100
0000
,  // measure 43
1000
0010
0100
0001
,  // measure 44
2000
0000
3001
1000
,  // measure 45
1001
0000
0001
0010
,  // measure 46
0100
0000
0000
0100
0000
0000
1000
0000
,  // measure 47
0001
0000
0000
0001
0000
0000
0100
0000
,  // measure 48
0010
0000
1000
0000
0001
0000
0000
1000
,  // measure 49
0000
0000
0100
0010
,  // measure 50
0100
0000
0000
0100
0000
0000
1000
0000
,  // measure 51
0010
0000
0000
0010
0000
0000
0100
0000
,  // measure 52
0001
0000
0010
0000
0100
0000
0000
1000
,  // measure 53
0000
0001
0000
1000
,  // measure 54
0020
0030
1000
0001
,  // measure 55
1001
0000
0000
1000
0000
0000
0010
0000
,  // measure 56
0110
0000
0000
0100
0000
0000
0001
0000
,  // measure 57
1000
0000
0100
0000
2000
0000
0000
3001
,  // measure 58
0000
0000
0100
0001
,  // measure 59
1001
0000
0000
0100
0000
0000
0010
0000
,  // measure 60
0110
0000
0000
0100
0000
0000
1000
0000
,  // measure 61
0010
0000
0100
0000
0001
0000
0000
1000
,  // measure 62
0000
0001
0000
1000
,  // measure 63
0001
0000
0100
0000
0010
0000
0000
1000
,  // measure 64
0000
0100
0000
1000
,  // measure 65
0002
0100
0100
0103
,  // measure 66
0020
1000
1000
1030
,  // measure 67
0100
0010
0001
0100
,  // measure 68
0010
1000
0100
0010
,  // measure 69
0001
0100
0010
1000
,  // measure 70
0001
1000
1001
0000
,  // measure 71
0100
0010
1001
0000
;

//---------------dance-single - BEGINNER ----------------
#NOTES:
     dance-single:
     BEGINNER:
     Beginner:
     2:
     0.151,0.167,0.019,0.000,0.000: // measure 1
0000
0000
0000
0000
,  // measure 2
0000
0000
0000
0000
,  // measure 3
0000
0000
0000
0000
,  // measure 4
0000
0000
0000
0000
,  // measure 5
1000
0000
0001
0000
,  // measure 6
1000
0000
0100
0000
,  // measure 7
1000
0000
0000
0000
,  // measure 8
0000
0000
0010
0000
,  // measure 9
0100
0000
0001
0000
,  // measure 10
0010
0000
0100
0000
,  // measure 11
1000
0000
0001
0000
,  // measure 12
1000
0000
0000
0000
,  // measure 13
0001
0000
1000
0000
,  // measure 14
0001
0000
0000
0000
,  // measure 15
1000
0000
0010
0000
,  // measure 16
0100
0000
0100
0000
,  // measure 17
0001
0000
0010
0000
,  // measure 18
0100
0000
1000
0000
,  // measure 19
0001
0000
0100
0000
,  // measure 20
0010
0000
1000
0000
,  // measure 21
0001
0000
0000
0000
,  // measure 22
1000
0000
0000
0000
,  // measure 23
0100
0000
0000
0000
,  // measure 24
1000
0000
0000
0000
,  // measure 25
0010
0000
0000
0000
,  // measure 26
0100
0000
0000
0000
,  // measure 27
0001
0000
0010
0000
,  // measure 28
0100
0000
1000
0000
,  // measure 29
0001
0000
0000
0000
,  // measure 30
0100
0000
0000
0000
,  // measure 31
0010
0000
0000
0000
,  // measure 32
1000
0000
0000
0000
,  // measure 33
0100
0000
0010
0000
,  // measure 34
0001
0000
0100
0000
,  // measure 35
0010
0000
1000
0000
,  // measure 36
0001
0000
1000
0000
,  // measure 37
0001
0000
0000
0000
,  // measure 38
0100
0000
0000
0000
,  // measure 39
0010
0000
1000
0000
,  // measure 40
0100
0000
0000
0000
,  // measure 41
1000
0000
0001
0000
,  // measure 42
1000
0000
0001
0000
,  // measure 43
1000
0000
0010
0000
,  // measure 44
0100
0000
0000
0000
,  // measure 45
1001
0000
0000
0000
,  // measure 46
0001
0000
0010
0000
,  // measure 47
0100
0000
1000
0000
,  // measure 48
0001
0000
1000
0000
,  // measure 49
0001
0000
0000
0000
,  // measure 50
1000
0000
0010
0000
,  // measure 51
0100
0000
0001
0000
,  // measure 52
1000
0000
0001
0000
,  // measure 53
1000
0000
0000
0000
,  // measure 54
0001
0000
0000
0000
,  // measure 55
1000
0000
0010
0000
,  // measure 56
0100
0000
0010
0000
,  // measure 57
1000
0000
0100
0000
,  // measure 58
0010
0000
0000
0000
,  // measure 59
0001
0000
0100
0000
,  // measure 60
0010
0000
0100
0000
,  // measure 61
0001
0000
1000
0000
,  // measure 62
0001
0000
0000
0000
,  // measure 63
1000
0000
0001
0000
,  // measure 64
1000
0000
0000
0000
,  // measure 65
0001
0000
0010
0000
,  // measure 66
0100
0000
1000
0000
,  // measure 67
0010
0000
0100
0000
,  // measure 68
0010
0000
0100
0000
,  // measure 69
0010
0000
1000
0000
,  // measure 70
0001
0001
0001
0000
,  // measure 71
0000
0000
1001
0000
;
