#TITLE:New Castle Legions;
#SUBTITLE:;
#ARTIST:Dirty Androids;
#TITLETRANSLIT:;
#SUBTITLETRANSLIT:;
#ARTISTTRANSLIT:;
#CREDIT:Xythar;
#BANNER:New Castle Legions.png;
#BACKGROUND:New Castle Legions-bg.png;
#LYRICSPATH:;
#CDTITLE:iidx.png;
#MUSIC:New Castle Legions.ogg;
#OFFSET:-2.047;
#SAMPLESTART:76.038;
#SAMPLELENGTH:11.280;
#SELECTABLE:YES;
#BPMS:0.000=120.000,96.000=150.000,156.000=120.000,160.000=170.000,192.000=180.000;
#STOPS:;
#BGCHANGES:;

//---------------dance-single - X. Ythar----------------
#NOTES:
     dance-single:
     X. Ythar:
     Challenge:
     11:
     0.927,0.954,0.108,0.348,1.000:
0000
0000
0000
0000
,
0000
0000
0000
0000
,
0000
0000
0000
0000
,
0000
0000
0000
0000
,
1000
0100
0010
0000
0001
0000
1000
0000
0010
0000
1000
0001
0000
0010
0100
1000
,
0000
0001
0100
0000
0010
0000
1000
0000
0100
0000
1000
0010
0000
0100
0001
1000
,
0000
0100
0010
0000
0001
0000
1000
0000
0001
0100
0010
0000
1000
0001
0010
0100
,
0000
1000
0010
0000
1000
0000
0001
0010
0100
1000
0001
0100
001M
1000
0100
0010
,
M002
0000
1000
0000
0013
0000
0000
0200
0000
1300
0001
0000
1001
0000
0001
0000
,
2000
0000
0100
0000
3001
0000
0000
0200
0000
0310
1000
0000
1010
0000
00M1
0000
,
0020
0000
0100
0000
0031
0000
0000
2000
0000
3010
0100
0000
1001
0000
0001
0000
,
0200
0000
1000
0000
0310
0000
0000
0200
0000
0301
1000
0000
1001
0000
0001
0000
,
2000
0000
0010
0000
3001
0000
0000
0200
0000
0310
1000
0000
1010
0000
01M0
0000
,
0020
0000
0001
0000
0130
0000
0000
2000
0000
3010
0100
0000
0101
0000
001M
0000
,
0200
0000
1000
0000
0310
0000
0000
2000
0000
3001
0010
0000
1100
0000
0M01
0000
,
1M00
0000
0010
0000
1000
0000
0000
0000
0M01
0000
0010
0000
0000
0000
0001
0000
4M00
0000
0040
0000
3000
0000
0030
0000
0100
0000
0001
0000
1000
0001
1000
0001
,
20M0
0000
0100
0000
3010
0000
0000
0200
0000
0301
1000
0000
1001
0000
001M
0000
,
0200
0000
1000
0000
0310
0000
0000
0200
0000
0301
0010
0000
0110
0000
1M00
0000
,
0020
0000
0100
0000
0031
0000
0000
2000
0000
3010
0100
0000
1001
0000
010M
0000
,
0020
0000
1000
0000
0031
0000
0000
0200
0000
0310
1000
0000
0001
0010
0100
1000
,
002M
0000
0001
0000
1030
0000
0000
0002
0000
0103
0010
0000
1100
0000
0M10
0000
,
0200
0000
1000
0000
0301
0000
0000
0020
0000
1030
0010
0000
0001
0000
1001
0000
,
002M
0000
0001
0000
1030
0000
0000
0100
M010
0000
0001
0000
0100
0000
0010
1000
,
0M01
0000
1000
0010
000M
0100
0001
1000
00M4
4000
0000
0M00
0000
0000
00M0
0003
,
3M10
0000
0100
0000
0001
0000
1000
0100
0000
1000
0001
0000
0100
0010
1000
0010
,
0100
0000
0001
0000
0010
0000
0100
1000
0000
0001
1000
0000
0010
0100
0001
0100
,
0010
0000
1000
0000
0001
0000
1000
0010
0000
0100
0001
0000
1000
0100
0010
0100
,
100M
0000
0001
0000
1000
0000
0001
0100
0000
0010
1000
0000
0001
0010
0100
0010
,
M001
0000
1000
0000
0010
0000
0100
0010
0000
1000
0001
0000
0010
0100
1000
0010
,
0100
0000
0001
0000
0010
0000
0100
1000
0000
0010
0100
0000
0001
0100
0010
1000
,
010M
0000
0010
0000
0001
0000
1000
0010
0000
0100
0010
0000
1000
0100
0010
0001
,
1M00
0000
0001
0100
0000
0010
1000
0010
0000
0100
0001
0000
1M01
0000
0000
0000
,
1000
0000
0100
0000
0010
0000
0001
0100
0000
0010
0100
0000
0001
1000
0100
0010
,
0001
0000
1000
0000
0010
0000
0100
0001
0000
0010
0001
0000
1000
0001
0100
0010
,
1000
0000
0001
0000
0100
0000
0010
1000
0000
0100
0010
0000
0001
1000
0010
0100
,
M001
0000
1000
0000
0100
0000
1000
0100
0000
0010
0100
0000
M001
0100
0010
0100
,
100M
0000
0001
0000
0100
0000
0010
1000
0000
0100
0010
0000
0001
0100
0010
1000
,
0100
0000
0010
0000
0001
0000
1000
0010
0000
0100
0010
0000
0100
0001
0010
0100
,
100M
0000
0000
0001
0000
0000
0100
0000
0000
0001
0100
0001
M100
0000
0000
0010
0000
0000
1000
0000
0000
0010
1000
0010
,
1M0M
0000
0001
0000
M040
0400
0000
0000
M000
M000
M000
M000
M00M
0000
000M
0030
,
130M
0000
0001
1000
0001
0000
1000
0100
0000
0010
0001
0000
1000
0000
0010
0000
,
0100
0000
0001
0100
0001
0000
1000
0010
0000
0100
0001
0000
0010
0000
0100
0000
,
1000
0000
0010
1000
0010
0000
0100
0001
0000
1000
0001
0000
1000
0000
0010
0000
,
0100
0000
0001
0100
0001
0000
1000
0100
0000
0010
0001
0000
0100
0000
0010
0000
,
1000
0000
0001
0100
0001
0000
1000
0100
0000
1000
0001
0000
0100
0000
0010
0000
,
1000
0000
0010
1000
0010
0000
0100
0001
0000
0100
0010
0000
1000
0000
0100
0000
,
0010
0000
0001
0010
0001
0000
1000
0010
0000
0100
0010
0000
1000
0000
0001
0000
,
M010
0000
0100
0010
0100
0000
1000
0000
0000
0001
0100
0000
001M
0000
1000
0000
,
0MM1
0000
1000
0000
0100
0000
1000
0100
1000
0100
0010
0100
0010
0100
1000
0100
,
1000
0000
0010
0000
1000
0000
0010
0100
0010
0100
0001
0100
0001
0100
0010
0100
,
0010
0000
1000
0000
0001
0000
0010
0100
0010
0100
1000
0100
1000
0100
0010
0100
,
0010
0000
0001
0000
0100
0000
0001
0100
0001
0100
0010
0100
0010
0100
0001
0100
,
M001
0000
1000
0000
0010
0000
1000
0010
1000
0010
0100
0010
0100
0010
1000
0010
,
100M
0000
0001
0000
0010
0000
0001
0010
0001
0010
0100
0010
0100
0010
0001
0010
,
M001
0000
0010
0000
0100
0000
0001
0100
0001
0100
0010
0100
0010
0100
1000
0100
,
1000
0100
1000
0001
1000
0010
1000
0001
1000
0000
0010
0000
0400
0004
0000
0300
,
20M3
0000
0000
3001
0100
0000
0010
0100
0000
0000
0001
0000
1000
0000
0100
0000
,
0020
0000
0000
0130
1000
0000
0001
1000
0000
0000
0010
0000
0100
0000
0001
0000
,
0020
0000
0000
0130
1000
0000
0001
0100
0000
0000
1000
0000
0100
0000
0010
0000
,
2000
0000
0000
3001
0010
0000
0100
1000
0000
0000
0001
1000
0100
0010
0001
1000
,
0020
0000
0000
0130
0001
0000
1000
0100
0000
0000
0010
0000
0001
0000
0100
0000
,
0020
0000
0000
1030
0100
0000
0010
0001
0000
0000
0100
0000
0010
0000
1000
0000
,
0002
0000
0000
0013
0100
0000
1000
0001
0000
0000
1000
0000
0001
1000
0100
1000
,
0001
0100
0010
1000
0001
0010
0001
1000
0010
0100
0001
1000
0100
0010
0001
1000
,
0010
1000
0100
0010
0001
0100
0010
0100
0000
0001
0010
0100
1000
0010
0100
0010
,
0000
1000
0100
0010
0001
0100
0010
0100
0000
0001
0010
0100
1000
0010
0100
0010
,
0000
1000
0001
0010
0100
1000
0010
0100
0000
0001
1000
0100
0010
0001
0100
0010
,
0000
1000
0001
0010
0100
1000
0010
0100
0001
0010
0100
1000
0001
1000
0100
0010
,
0001
1000
0100
1000
0001
0100
0010
1000
0000
0001
0010
0001
1000
0010
0100
0001
,
0000
1000
0100
1000
0001
0100
0010
1000
0000
0001
0010
0001
1000
0010
0100
0001
,
0000
1000
0010
0100
0001
0010
0100
1000
0000
0001
0100
0010
1000
0100
0010
0001
,
0000
0000
0000
1000
0000
0000
0010
0000
0000
0100
0000
0000
0001
0000
0000
0010
0000
0000
0100
0000
0000
1000
0000
0000
0001
0000
0000
1000
0000
0000
0100
0000
1000
0000
0100
0000
0010
0000
0100
0000
0010
0000
0001
0000
0010
0000
0001
0000
,
M000
0000
0000
0000
;

//---------------dance-single - ----------------
#NOTES:
     dance-single:
     :
     Hard:
     8:
     0.565,0.536,0.149,0.207,0.191:
0000
0000
0000
0000
,
0000
0000
0000
0000
,
0000
0000
0000
0000
,
0000
0000
0000
0000
,
1000
0000
0010
0000
0100
0000
0010
0000
1000
0000
0001
0010
0000
0100
0000
0010
,
0000
0001
1000
0000
0010
0000
1000
0000
0001
0000
0100
0010
0000
1000
0000
0001
,
0000
1000
0100
0000
0010
0000
0001
0000
1000
0000
0010
0000
0100
0000
0010
0000
,
1000
0100
0010
0001
0100
1000
0100
0001
,
0020
0000
0000
0000
0100
0000
0000
0130
0000
0000
1000
0000
0010
0000
0000
0000
,
0200
0000
0000
0000
0001
0000
0000
0301
0000
0000
1000
0000
0100
0000
0000
0000
,
0020
0000
0000
0000
0001
0000
0000
0031
0000
0000
1000
0000
0010
0000
0000
0000
,
0100
0000
0001
0000
0010
0000
0000
0100
0000
0000
1000
0000
0001
0000
0000
0000
,
2000
0000
0000
0000
0010
0000
0000
3010
0000
0000
0100
0000
0001
0000
0000
0000
,
2000
0000
0000
0000
0100
0000
0000
3100
0000
0000
0010
0000
0001
0000
0000
0000
,
0200
0000
0000
0000
0010
0000
0000
0310
0000
0000
1000
0000
0001
0000
0000
0000
,
0010
0000
1100
0000
0001
0100
0010
1000
,
0200
0000
0000
0000
0001
0000
0000
0310
0000
0000
0001
0000
1000
0000
0000
0000
,
0200
0000
0000
0000
1000
0000
0000
0310
0000
0000
0001
0000
0100
0000
0000
0000
,
0020
0000
0000
0000
0001
0000
0000
0100
0000
0000
1030
0000
0001
0000
0000
0000
,
1000
0000
0100
0000
0010
0000
0000
0001
0000
0000
0100
0000
0010
0000
1000
0000
,
0002
0000
0000
0000
0100
0000
0000
1003
0000
0000
0100
0000
0010
0000
0000
0000
,
0001
0000
0100
0000
0020
0000
0000
0001
0000
0000
1030
0000
0100
0000
0000
0000
,
0010
0000
0001
0000
0200
0000
0000
1000
0000
0000
0000
0000
0310
0000
1000
0000
,
0002
0000
0000
0000
0020
0003
0000
0000
,
0130
0000
1000
0000
0001
0000
0000
1000
0000
0000
0010
0000
0100
0000
0000
0000
,
0010
0000
1000
0000
0001
0000
0000
0010
0000
0000
0100
0000
1000
0000
0000
0000
,
0001
0000
0100
0000
0010
0000
0000
1000
0000
0000
0100
0000
0010
0000
0000
0000
,
0001
0000
1000
0000
0010
0000
0000
0101
0000
0000
0010
0000
1000
0000
0001
0000
,
0010
0000
0100
0000
1000
0000
0000
0010
0000
0000
0100
0000
0001
0000
1000
0000
,
0001
0000
0010
0000
0100
0000
0000
1000
0000
0000
0010
0000
0100
0000
0010
0000
,
1000
0000
0100
0000
0010
0000
0000
0001
0000
0000
0100
0000
0010
0000
0100
0000
,
0001
0000
1000
0001
0000
1000
0001
1000
0000
0001
1000
0000
0020
0000
0000
0000
,
0130
0000
0000
0000
0101
0000
0000
1010
0000
0000
0001
0000
0010
0000
0100
0000
,
1000
0000
0000
0000
0101
0000
0000
1100
0000
0000
0001
0000
0100
0000
0010
0000
,
1000
0000
0000
0000
0110
0000
0000
1001
0000
0000
1000
0000
0010
0000
0100
0000
,
0001
0000
0010
0000
0100
0000
0000
1000
0000
0000
0001
0000
0100
0000
0010
0000
,
1000
0000
0000
0000
0011
0000
0000
0101
0000
0000
0010
0000
1000
0000
0001
0000
,
1000
0000
0000
0000
0110
0000
0000
0011
0000
0000
0100
0000
1000
0000
0001
0000
,
1001
0000
0100
0010
1001
0000
0010
0100
,
2002
0000
0000
3003
,
1000
0100
0010
0000
0001
0000
0100
0000
,
0010
0000
1000
0001
0000
0010
0100
1000
,
0000
0001
0100
0000
1000
0000
0100
0000
,
0010
0000
1000
0100
0000
0010
0001
0100
,
0000
0010
2000
0000
0100
0000
0001
0000
,
3010
0000
0100
0001
0000
0010
0100
1000
,
0000
0001
0100
0000
0010
0000
1100
0000
,
0011
0000
0100
1000
0000
0001
0100
0010
,
1000
0100
1000
0100
0010
0001
0010
0001
,
1000
0010
1000
0010
0100
0001
0100
0001
,
1000
0100
1000
0100
0010
0001
0010
0001
,
1000
0010
1000
0010
0100
0001
0100
0001
,
1000
0100
0010
0100
1000
0010
0100
0010
,
1000
0100
0010
0100
1000
0010
0100
0010
,
1000
0100
0001
0100
1000
0100
0001
0100
,
1000
0010
0100
0001
0010
0100
1000
0000
,
0102
0000
0000
0000
1000
0000
0000
0013
0000
0000
0001
0000
0010
0000
0100
0000
,
2000
0000
0000
0000
0010
0000
0000
3001
0000
0000
0100
0000
0010
0000
1000
0000
,
0200
0000
0000
0000
0001
0000
0000
0310
0000
0000
0100
0000
1000
0000
0010
0000
,
0200
0000
0000
0000
1000
0000
0000
0310
0000
0000
0100
0000
0001
0000
0010
0000
,
0200
0000
0000
0000
1000
0000
0000
0310
0000
0000
0100
0000
1000
0000
0010
0000
,
0200
0000
0000
0000
1000
0000
0000
0310
0000
0000
0100
0000
0001
0000
0010
0000
,
0200
0000
0000
0000
0001
0000
0000
0310
0000
0000
0100
0000
1000
0000
0010
0000
,
0100
0001
0010
0100
1000
0010
0100
0001
,
1000
0100
1000
0001
1000
0100
1000
0001
,
1000
0100
1000
0010
1000
0100
1000
0010
,
0100
0001
0010
0100
1000
0010
0100
0001
,
1000
0100
0010
0001
0100
0010
1000
0001
,
1000
0010
0100
0010
1000
0100
0010
0100
,
1000
0001
0100
0001
1000
0100
0001
0100
,
1000
0001
0010
0001
1000
0010
0001
0010
,
1000
0100
0010
0001
0100
0010
1000
0001
;

//---------------dance-single - ----------------
#NOTES:
     dance-single:
     :
     Medium:
     6:
     0.466,0.506,0.066,0.331,0.000: // measure 1
0000
0000
0000
0000
,  // measure 2
0000
0000
0000
0000
,  // measure 3
0000
0000
0000
0000
,  // measure 4
0000
0000
0000
0000
,  // measure 5
1000
0001
0010
0100
1000
0000
0001
0000
,  // measure 6
1000
0001
0100
0010
1000
0000
0100
0000
,  // measure 7
1000
0010
0100
0001
0010
0000
0100
0000
,  // measure 8
1000
0010
0100
0010
1000
0100
0010
0001
,  // measure 9
2000
0000
3010
0000
0100
0001
1000
0000
,  // measure 10
0200
0000
0310
0000
0001
1000
0010
0000
,  // measure 11
0200
0000
0301
0000
0010
0100
1000
0000
,  // measure 12
0002
0000
0103
0000
0010
1000
0001
0000
,  // measure 13
2000
0000
3100
0000
0010
0001
0100
0000
,  // measure 14
0020
0000
1030
0000
0001
0100
0010
0000
,  // measure 15
2000
0000
3001
0000
1000
0010
0100
0000
,  // measure 16
1001
0000
1001
0000
0010
0100
0010
0100
,  // measure 17
0002
0000
0100
0000
1003
0010
0100
0000
,  // measure 18
0020
0000
0100
0000
1030
0100
0010
0000
,  // measure 19
0002
0000
0100
0000
0013
0001
0100
0000
,  // measure 20
0020
0000
0001
0000
1030
0100
0010
0001
,  // measure 21
2000
0000
0100
0000
3010
0100
0001
0000
,  // measure 22
0020
0000
1000
0000
0031
0100
0010
0000
,  // measure 23
2000
0000
0100
0000
3001
0100
0010
0000
,  // measure 24
2000
0000
3200
0000
,  // measure 25
0310
0000
0001
0000
0100
0000
0010
1000
,  // measure 26
0010
0000
0100
0000
0001
0000
1000
0100
,  // measure 27
1000
0000
0001
0000
0010
0000
0100
1000
,  // measure 28
0100
0000
1000
0000
0010
0000
0100
0001
,  // measure 29
0100
0000
0010
0000
1000
0000
0001
1000
,  // measure 30
0001
0000
0010
0000
0100
0000
1000
0010
,  // measure 31
1000
0000
0001
0000
0100
0000
0010
1000
,  // measure 32
0010
0100
0001
0000
1000
0100
0010
0000
,  // measure 33
0001
0000
1000
0000
0010
0000
0100
0001
,  // measure 34
1000
0000
0100
0000
0010
0000
0001
0100
,  // measure 35
0010
0000
1000
0000
0010
0000
0100
0001
,  // measure 36
2000
0000
0100
0000
0010
0000
3001
1000
,  // measure 37
0010
0000
0100
0000
0010
0000
1000
0100
,  // measure 38
0010
0001
1000
0010
,  // measure 39
0101
0010
1100
0001
,  // measure 40
2020
0000
0000
3030
,  // measure 41
1000
0100
0010
0001
,  // measure 42
0100
0000
0010
1000
0000
0001
0000
0010
,  // measure 43
0000
0100
1000
0000
0001
0000
0100
0000
,  // measure 44
0001
0000
1000
0100
0000
0010
0000
0001
,  // measure 45
0000
1000
0010
0000
1000
0000
0001
0000
,  // measure 46
0010
0000
0100
1000
0000
0010
0000
0100
,  // measure 47
0000
0001
0010
0000
0001
0000
1000
0000
,  // measure 48
0110
0000
0001
1000
0000
0000
0000
0000
,  // measure 49
0001
0100
0001
0100
0020
0000
2030
0000
,  // measure 50
3100
0010
0100
0010
0002
0000
2003
0000
,  // measure 51
3010
0100
0010
0100
0002
0000
2003
0000
,  // measure 52
3001
0010
0001
0010
0200
0000
2300
0000
,  // measure 53
3001
0100
0001
0100
0020
0000
0230
0000
,  // measure 54
0301
0010
0001
0010
0200
0000
2300
0000
,  // measure 55
3001
0100
0010
0100
0002
0000
2003
0000
,  // measure 56
3100
0010
0001
0100
0010
0000
1001
0000
,  // measure 57
0002
0100
1000
0013
,  // measure 58
0200
0001
0010
1300
,  // measure 59
0020
0001
0100
1030
,  // measure 60
0002
0000
1000
0000
0013
0000
0100
1000
,  // measure 61
0020
0001
0100
1030
,  // measure 62
0200
0001
0010
1300
,  // measure 63
0002
0100
1000
0013
,  // measure 64
1001
0000
0001
0000
0100
0010
1000
0000
,  // measure 65
0001
0010
0100
0000
0100
0010
0001
0000
,  // measure 66
0001
1000
0010
0000
0010
1000
0001
0000
,  // measure 67
0010
0100
1000
0000
1000
0100
0010
0000
,  // measure 68
0010
0100
1000
0001
1000
0100
0010
0000
,  // measure 69
0100
1000
0010
0000
0010
0100
0001
0000
,  // measure 70
0001
1000
0010
0000
0010
1000
0100
0000
,  // measure 71
0100
0010
0001
0000
0001
1000
0010
0000
,  // measure 72
0010
0100
0001
0100
0010
0000
1000
0001
;

//---------------dance-single - ----------------
#NOTES:
     dance-single:
     :
     Easy:
     4:
     0.276,0.296,0.058,0.191,0.000: // measure 1
0000
0000
0000
0000
,  // measure 2
0000
0000
0000
0000
,  // measure 3
0000
0000
0000
0000
,  // measure 4
0000
0000
0000
0000
,  // measure 5
1000
0010
1000
0100
,  // measure 6
0010
0001
0100
0001
,  // measure 7
0010
0100
1000
0010
,  // measure 8
0100
0001
0010
0100
,  // measure 9
2000
0000
3010
0000
,  // measure 10
0200
0000
0301
0000
,  // measure 11
2000
0000
3100
0000
,  // measure 12
2000
0000
3010
0000
,  // measure 13
0200
0000
0301
0000
,  // measure 14
0020
0000
0130
0000
,  // measure 15
2000
0000
3010
0000
,  // measure 16
1001
1001
1001
0000
,  // measure 17
2000
0000
3100
0000
,  // measure 18
0020
0000
0031
0000
,  // measure 19
2000
0000
3010
0000
,  // measure 20
0000
0001
0100
0001
,  // measure 21
2000
0000
3100
0000
,  // measure 22
0020
0000
0031
0000
,  // measure 23
2000
0000
3010
0000
,  // measure 24
0200
0000
0000
0000
,  // measure 25
0301
0010
0100
1000
,  // measure 26
0010
1000
0100
0010
,  // measure 27
0001
0100
0010
1000
,  // measure 28
0001
0010
0100
1000
,  // measure 29
0010
0010
1000
0100
,  // measure 30
0010
0010
0001
0100
,  // measure 31
0010
0010
1000
0001
,  // measure 32
1001
0000
0000
0000
,  // measure 33
1000
0100
0010
0001
,  // measure 34
0100
0010
0100
0001
,  // measure 35
0010
0100
1000
0010
,  // measure 36
0100
0001
1000
0001
,  // measure 37
1000
0100
0010
0001
,  // measure 38
0100
0010
1000
0001
,  // measure 39
1001
0000
0110
0000
,  // measure 40
2002
0000
0000
3003
,  // measure 41
1000
0100
0010
0100
,  // measure 42
1000
0000
0010
0000
,  // measure 43
0100
0001
0010
0001
,  // measure 44
0100
0000
0010
0000
,  // measure 45
1000
0001
0010
0001
,  // measure 46
1000
0000
0001
0000
,  // measure 47
0100
0010
1000
0010
,  // measure 48
0100
0000
0001
0000
,  // measure 49
1000
0100
1000
0100
,  // measure 50
0010
0001
0010
0001
,  // measure 51
1000
0010
1000
0010
,  // measure 52
0100
0001
0100
0001
,  // measure 53
1000
0100
0010
0100
,  // measure 54
1000
0010
0100
0010
,  // measure 55
1000
0100
0010
0001
,  // measure 56
0100
0010
1000
0000
,  // measure 57
0002
0000
0000
0000
,  // measure 58
0203
0000
0000
0000
,  // measure 59
0320
0000
0000
0000
,  // measure 60
2030
0000
0000
3100
,  // measure 61
0020
0000
0000
0000
,  // measure 62
0032
0000
0000
0000
,  // measure 63
0203
0000
0000
0000
,  // measure 64
0310
1000
0001
0010
,  // measure 65
0100
1000
0001
1000
,  // measure 66
0010
1000
0001
1000
,  // measure 67
0100
0010
0001
0100
,  // measure 68
0010
1000
0100
1000
,  // measure 69
0010
0100
0001
0010
,  // measure 70
0100
1000
0010
0100
,  // measure 71
0010
1000
0100
0010
,  // measure 72
0001
1000
0001
0000
;

//---------------dance-single - ----------------
#NOTES:
     dance-single:
     :
     Beginner:
     2:
     0.167,0.207,0.000,0.265,0.000: // measure 1
0000
0000
0000
0000
,  // measure 2
0000
0000
0000
0000
,  // measure 3
0000
0000
0000
0000
,  // measure 4
0000
0000
0000
0000
,  // measure 5
1000
0000
1000
0000
,  // measure 6
0001
0000
0001
0000
,  // measure 7
1000
0000
1000
0000
,  // measure 8
0010
0000
0010
0000
,  // measure 9
0200
0000
0000
0000
,  // measure 10
0302
0000
0000
0000
,  // measure 11
2003
0000
0000
0000
,  // measure 12
3200
0000
0000
0000
,  // measure 13
0320
0000
0000
0000
,  // measure 14
0032
0000
0000
0000
,  // measure 15
2003
0000
0000
0000
,  // measure 16
3020
0000
0000
0000
,  // measure 17
0230
0000
0000
0000
,  // measure 18
0302
0000
0000
0000
,  // measure 19
0023
0000
0000
0000
,  // measure 20
0230
0000
0000
0000
,  // measure 21
2300
0000
0000
0000
,  // measure 22
3020
0000
0000
0000
,  // measure 23
0230
0000
0000
0000
,  // measure 24
0302
0000
0000
0000
,  // measure 25
1003
0000
0100
0000
,  // measure 26
0010
0000
0001
0000
,  // measure 27
1000
0000
0010
0000
,  // measure 28
0100
0000
0010
0000
,  // measure 29
1000
0000
0100
0000
,  // measure 30
0010
0000
0001
0000
,  // measure 31
1000
0000
0010
0000
,  // measure 32
0100
0000
0000
0000
,  // measure 33
0100
0000
0010
0000
,  // measure 34
1000
0000
0001
0000
,  // measure 35
1000
0000
0100
0000
,  // measure 36
1000
0000
0001
0000
,  // measure 37
1000
0000
0010
0000
,  // measure 38
0100
0000
0010
0000
,  // measure 39
1000
0000
0100
0000
,  // measure 40
0010
0000
0000
0000
,  // measure 41
0001
0000
0100
0000
,  // measure 42
0010
0000
1000
0000
,  // measure 43
0001
0000
0100
0000
,  // measure 44
0010
0000
1000
0000
,  // measure 45
0001
0000
0100
0000
,  // measure 46
0010
0000
1000
0000
,  // measure 47
0001
0000
0010
0000
,  // measure 48
0100
0000
1000
0000
,  // measure 49
0001
0000
0002
0000
,  // measure 50
1003
0000
2000
0000
,  // measure 51
3010
0000
0020
0000
,  // measure 52
0130
0000
0200
0000
,  // measure 53
0301
0000
0200
0000
,  // measure 54
0310
0000
2000
0000
,  // measure 55
3100
0000
0020
0000
,  // measure 56
0031
0000
1000
0000
,  // measure 57
0002
0000
0000
0000
,  // measure 58
0203
0000
0000
0000
,  // measure 59
0320
0000
0000
0000
,  // measure 60
2030
0000
0000
0000
,  // measure 61
3002
0000
0000
0000
,  // measure 62
2003
0000
0000
0000
,  // measure 63
3020
0000
0000
0000
,  // measure 64
0230
0000
0000
0000
,  // measure 65
0301
0000
0010
0000
,  // measure 66
0100
0000
1000
0000
,  // measure 67
0010
0000
0100
0000
,  // measure 68
0010
0000
1000
0000
,  // measure 69
0100
0000
0010
0000
,  // measure 70
0001
0000
0100
0000
,  // measure 71
0010
0000
1000
0000
,  // measure 72
0002
0000
0003
0000
;
