#TITLE:渚のGO-GO GIRL!;
#SUBTITLE:;
#ARTIST:The do-nuts;
#TITLETRANSLIT:Nagisa no GO-GO GIRL!;
#SUBTITLETRANSLIT:;
#ARTISTTRANSLIT:;
#CREDIT:Xythar;
#BANNER:Nagisa no GO-GO GIRL!.png;
#BACKGROUND:Nagisa no GO-GO GIRL!-bg.png;
#LYRICSPATH:Nagisa no GO-GO GIRL!.lrc;
#CDTITLE:blank.png;
#MUSIC:Nagisa no GO-GO GIRL!.mp3;
#OFFSET:-0.446;
#SAMPLESTART:21.767;
#SAMPLELENGTH:14.220;
#SELECTABLE:YES;
#BPMS:0.000=135.000;
#STOPS:;
#BGCHANGES:-0.470=Nagisa no GO-GO GIRL!.avi=1.000=1=0=0,
268.000=Nagisa no GO-GO GIRL!-bg.png=1.000=0=0=1,
99999=-nosongbg-=1.000=0=0=0 // don't automatically add -songbackground-
;

//---------------dance-single - ----------------
#NOTES:
     dance-single:
     :
     Hard:
     7:
     0.432,0.522,0.213,0.107,0.012:
0000
0000
0000
0000
,
0000
0000
0000
0000
,
0000
0000
0000
0000
,
0000
0000
0000
0000
,
1000
0000
0000
0000
,
0100
0000
0000
0000
,
0010
0000
0000
0000
,
0001
0000
0000
0000
,
1000
0000
0000
0010
0010
0000
0101
0000
,
0010
0000
0000
1000
1000
0100
0000
0100
,
1000
0000
0000
0001
0001
0000
0110
0000
,
1000
0000
0100
1000
0001
0001
0010
0100
,
1000
0000
0010
0100
0001
0200
0000
0010
,
0000
0310
0000
0010
1000
0100
1000
0100
,
0010
0010
0001
0100
0010
0010
1000
0001
,
0000
0001
0010
0100
1000
0010
0100
0001
,
1000
0000
0010
0100
0001
0020
0000
0100
,
0000
0130
0000
0100
0010
0001
0010
0001
,
1000
1000
0010
0100
0001
0001
1000
0100
,
0000
1000
0001
0000
1001
0000
0010
0100
,
0001
0000
1100
0100
1000
0010
0100
0000
,
0001
0010
0100
0100
1000
0010
0100
0100
,
0001
1000
0100
0100
1000
0001
0100
0100
,
0010
1000
0001
0001
1000
0001
1001
0000
,
1100
0000
0001
0010
0100
1000
0001
0000
,
1010
0000
0100
0001
1000
0100
1000
0000
,
0011
0000
1100
0000
0001
0100
0010
0010
,
1000
1000
0001
0001
1000
0100
0010
0001
,
1000
0010
0100
0001
0000
0010
0100
1000
,
0010
0010
0100
0100
0000
0001
1000
0100
,
1000
1000
0001
0001
0000
1000
0010
0100
,
0001
1000
0100
1000
0001
0000
1100
0000
,
0010
0000
0000
0100
0000
0000
0001
0000
0000
0000
1000
0000
0100
0000
1000
0000
,
0001
0000
0000
0010
0000
0000
0100
0000
0000
0000
1000
0000
0010
0000
0100
0000
,
0010
0000
0000
1000
0000
0000
0100
0000
0000
0000
0010
0000
0001
0000
1000
0000
,
0000
0000
0000
0000
,
0002
0000
0013
0001
0010
0000
1100
0000
,
0020
0000
0130
0001
0100
0000
1010
0000
,
0200
0000
0310
0001
0010
0000
1001
0000
,
0020
0000
0130
0001
0100
0000
1010
0000
,
0200
0000
1300
0001
1000
0000
0110
0000
,
0002
0000
1003
0100
1000
0000
0011
0000
,
1100
0101
1100
1010
,
0022
0000
0033
0000
,
1000
0000
0010
0100
0001
0200
0000
1000
,
0000
1300
0000
1000
0100
0001
0100
0001
,
1000
1000
0100
0010
0001
0001
1000
0010
,
0000
0010
0100
0001
0100
0010
0100
0001
,
1000
0000
0100
1000
0001
2000
0000
0010
,
0000
3010
0000
0010
0100
1000
0100
0010
,
1000
1000
0100
0010
0001
0001
0100
0110
,
0000
1000
1000
0100
0010
0010
0001
0101
,
0000
0010
0010
1000
0100
0100
0010
0011
,
0000
0000
0000
0000
,
0000
0000
0000
0000
,
1000
0100
0100
1000
0001
0001
0100
0010
,
0100
0001
0001
0010
0100
0100
1000
0001
,
0100
0010
0010
0100
0001
0001
1000
0100
,
1000
0010
0010
0100
0001
0001
1000
0100
,
1000
0001
0001
0010
0100
0100
1000
0001
,
0100
0010
0010
1000
0100
0100
0010
0001
,
0101
0100
0010
0010
1000
0010
1000
0001
,
1001
0000
0000
0000
,
0200
0000
0000
0000
,
0000
0000
0000
0000
,
0000
0000
0000
0000
,
0000
0000
0000
0000
,
0300
0000
0000
0000
;

//---------------dance-single - ----------------
#NOTES:
     dance-single:
     :
     Medium:
     5:
     0.322,0.412,0.156,0.025,0.000: // measure 1
0000
0000
0000
0000
,  // measure 2
0000
0000
0000
0000
,  // measure 3
0000
0000
0000
0000
,  // measure 4
0000
0000
0000
0000
,  // measure 5
0001
0000
0000
0000
,  // measure 6
0010
0000
0000
0000
,  // measure 7
0100
0000
0000
0000
,  // measure 8
1000
0000
0000
0000
,  // measure 9
0010
0000
0000
0100
0100
0000
0001
0000
,  // measure 10
1000
0000
0000
0100
0100
0000
1000
0000
,  // measure 11
0010
0000
0000
0100
0100
0000
0001
0000
,  // measure 12
1000
0001
1000
0100
,  // measure 13
1000
0000
0001
0100
0001
0000
0000
1000
,  // measure 14
0000
1000
0000
1000
0100
0000
0100
0000
,  // measure 15
0010
0000
0010
0000
0001
0000
1000
0100
,  // measure 16
0000
0100
1000
0000
0010
0000
0100
0000
,  // measure 17
0001
0000
0001
0000
1000
0000
0000
0100
,  // measure 18
0000
0100
0000
0100
0010
0000
0010
0000
,  // measure 19
0001
0000
0001
0000
0100
0000
0010
1000
,  // measure 20
0000
0001
1001
0000
,  // measure 21
0100
0000
1000
0000
0010
0100
0010
0000
,  // measure 22
0100
0001
0100
0000
0001
1000
0001
0000
,  // measure 23
1000
0000
1000
0000
0100
1000
0001
0000
,  // measure 24
0100
0000
0100
0000
0010
1000
0001
0000
,  // measure 25
0010
0000
0100
0000
1000
0010
0100
0000
,  // measure 26
0001
0000
1000
0000
0100
1000
0100
0000
,  // measure 27
0011
0011
0100
0100
,  // measure 28
1000
0100
1000
0000
0001
0100
0001
0000
,  // measure 29
1001
0000
0100
0010
0000
0010
0100
0000
,  // measure 30
1001
0000
0010
0100
0000
0100
0010
0000
,  // measure 31
0100
0001
0100
0001
0000
1000
0000
0100
,  // measure 32
0000
1000
0000
0001
1000
0000
0010
0000
,  // measure 33
0100
0000
1000
0001
0000
0001
1000
0000
,  // measure 34
0010
0000
0100
0001
0000
0001
0100
0000
,  // measure 35
0010
0000
1000
0100
0000
0100
1000
0000
,  // measure 36
0001
0000
0000
0000
,  // measure 37
1001
0000
0100
1000
0100
0000
0010
0000
,  // measure 38
0011
0000
0001
0010
0001
0000
0100
0000
,  // measure 39
0110
0000
1000
0010
1000
0000
0100
0000
,  // measure 40
0011
0000
1000
0001
1000
0000
0100
0000
,  // measure 41
1001
0000
0001
0100
0001
0000
0010
0000
,  // measure 42
1100
0000
0010
1000
0010
0000
0100
0000
,  // measure 43
0101
0101
0101
0101
,  // measure 44
2002
0000
3003
0000
,  // measure 45
1000
0000
0010
0100
0010
0000
0000
0100
,  // measure 46
0000
0100
0000
0100
0001
0000
1001
0000
,  // measure 47
0100
0000
0100
0000
1000
0000
0001
1000
,  // measure 48
0000
0010
0100
0010
0100
0000
0001
0000
,  // measure 49
1100
0000
0100
0010
0100
0000
0000
0010
,  // measure 50
0000
0010
0000
0010
0001
0000
1001
0000
,  // measure 51
0010
0000
0010
0000
0100
0001
0100
0001
,  // measure 52
0000
1000
0100
0000
1000
0001
1000
0001
,  // measure 53
0000
0100
0010
0000
1000
0001
1000
0001
,  // measure 54
0000
0000
0000
0000
,  // measure 55
0000
0000
0000
0000
,  // measure 56
1000
0000
0100
1000
0001
0000
0100
0000
,  // measure 57
0010
0000
1000
0100
0010
0000
0001
0000
,  // measure 58
0001
0000
1000
0010
0100
0000
0010
0000
,  // measure 59
0010
0000
1000
0100
1000
0000
0001
0000
,  // measure 60
0001
1000
0100
0000
1000
0001
0100
0000
,  // measure 61
0010
1000
0001
0000
1000
0001
0010
0000
,  // measure 62
0100
1000
0100
1000
0100
1000
0100
1000
,  // measure 63
0001
0000
0000
0000
,  // measure 64
0200
0000
0000
0000
,  // measure 65
0000
0000
0000
0000
,  // measure 66
0000
0000
0000
0000
,  // measure 67
0000
0000
0000
0000
,  // measure 68
0300
0000
0000
0000
;

//---------------dance-single - ----------------
#NOTES:
     dance-single:
     :
     Easy:
     3:
     0.214,0.329,0.066,0.025,0.000: // measure 1
0000
0000
0000
0000
,  // measure 2
0000
0000
0000
0000
,  // measure 3
0000
0000
0000
0000
,  // measure 4
0000
0000
0000
0000
,  // measure 5
1000
0000
0000
0000
,  // measure 6
0010
0000
0000
0000
,  // measure 7
0100
0000
0000
0000
,  // measure 8
0001
0000
0000
0000
,  // measure 9
1000
0000
0100
1000
,  // measure 10
0100
0000
0010
0001
,  // measure 11
0010
0000
0001
0100
,  // measure 12
0001
0000
0010
0000
,  // measure 13
0100
1000
0001
0000
,  // measure 14
1000
0010
0100
0000
,  // measure 15
0001
0010
0100
1000
,  // measure 16
0010
0000
0010
0000
,  // measure 17
0100
0001
0100
0000
,  // measure 18
0001
0010
0100
0000
,  // measure 19
1000
0001
1000
0001
,  // measure 20
1000
0000
1001
0000
,  // measure 21
1000
0000
0100
1000
,  // measure 22
0010
0010
0100
0100
,  // measure 23
0001
0001
1000
1000
,  // measure 24
0100
0100
1000
0001
,  // measure 25
1000
0010
0100
0010
,  // measure 26
0100
0001
1000
0100
,  // measure 27
1000
1000
0001
0001
,  // measure 28
1000
0010
0100
0001
,  // measure 29
1000
0000
0100
0000
,  // measure 30
1000
1000
0000
0001
,  // measure 31
0100
0001
0000
0010
,  // measure 32
0010
0100
0100
0000
,  // measure 33
1000
0000
0001
0000
,  // measure 34
1000
0100
1000
0010
,  // measure 35
0100
0000
0001
0000
,  // measure 36
1001
0000
0000
0000
,  // measure 37
0010
0000
0100
0000
,  // measure 38
1000
0000
0010
0100
,  // measure 39
0001
0000
1000
0000
,  // measure 40
0100
1000
0001
0000
,  // measure 41
0100
0000
0010
0000
,  // measure 42
1000
0100
0010
0000
,  // measure 43
0001
1001
1000
1001
,  // measure 44
2002
0000
3003
0000
,  // measure 45
0001
1000
0100
0000
,  // measure 46
1000
1000
0010
0010
,  // measure 47
0100
0001
0100
0001
,  // measure 48
1000
0000
0000
0000
,  // measure 49
0001
0010
0100
0000
,  // measure 50
1000
1000
0001
0001
,  // measure 51
1000
0010
0100
0010
,  // measure 52
1000
0100
0010
0100
,  // measure 53
1000
0001
0100
0001
,  // measure 54
1000
0000
0000
0000
,  // measure 55
0000
0000
0000
0000
,  // measure 56
0001
0010
0010
0100
,  // measure 57
0100
1000
1000
0010
,  // measure 58
0010
0100
0100
0001
,  // measure 59
0001
1000
1000
0100
,  // measure 60
0100
1000
1000
0010
,  // measure 61
0010
0100
0100
0001
,  // measure 62
0001
1001
1000
1001
,  // measure 63
1001
0000
0000
0000
,  // measure 64
0200
0000
0000
0000
,  // measure 65
0000
0000
0000
0000
,  // measure 66
0000
0000
0000
0000
,  // measure 67
0000
0000
0000
0000
,  // measure 68
0300
0000
0000
0000
;
