#TITLE:NEVER GONNA GIVE YOU UP;
#SUBTITLE:;
#ARTIST:Mai-K feat. Michael Africk;
#TITLETRANSLIT:;
#SUBTITLETRANSLIT:;
#ARTISTTRANSLIT:;
#CREDIT:Super_Ray & Xythar;
#BANNER:NEVER GONNA GIVE YOU UP.png;
#BACKGROUND:NEVER GONNA GIVE YOU UP-bg.png;
#LYRICSPATH:;
#CDTITLE:cdtitle.png;
#MUSIC:NEVER GONNA GIVE YOU UP.ogg;
#OFFSET:-1.107;
#SAMPLESTART:93.371;
#SAMPLELENGTH:9.197;
#SELECTABLE:YES;
#DISPLAYBPM:104.055;
#BPMS:0.000=104.055,150.001=52.028,151.001=104.055;
#STOPS:;
#BGCHANGES:16.000=NEVER GONNA GIVE YOU UP.avi=1.000=1=0=0,
99999=-nosongbg-=1.000=0=0=0 // don't automatically add -songbackground-
;

//---------------dance-single - MANIAC----------------
#NOTES:
     dance-single:
     MANIAC:
     Hard:
     6:
     0.335,0.390,0.086,0.086,0.060: // measure 1
0000
0000
0000
0000
,  // measure 2
0000
0000
0000
0000
,  // measure 3
0000
0000
0000
0000
,  // measure 4
0000
0000
0000
0000
,  // measure 5
1000
0000
0100
0000
1000
0001
0100
0000
,  // measure 6
0010
0000
1000
0000
0001
1000
0100
0000
,  // measure 7
1000
0001
0010
0000
0100
0000
0010
0000
,  // measure 8
0001
0100
1000
0000
0100
0000
0001
0000
,  // measure 9
1000
0100
1000
0000
0001
0000
0100
0010
,  // measure 10
0000
0000
2000
0000
0000
0001
0000
0000
0100
0000
0000
0000
3010
0000
0000
0000
,  // measure 11
0100
0010
1000
0000
0001
0000
0010
0000
,  // measure 12
0200
1000
0001
1300
,  // measure 13
0001
0100
0010
1000
0100
0000
1000
0020
,  // measure 14
0000
0000
0100
0000
0000
0130
0000
0000
0001
0000
0000
0000
1000
0000
0000
0000
,  // measure 15
0001
1000
0100
1000
0001
0000
0010
0000
,  // measure 16
0100
0010
0001
1000
0100
0000
0000
0000
,  // measure 17
1010
0000
0000
0000
1000
0001
0010
0001
,  // measure 18
1000
0000
0010
0000
0100
1000
0100
0010
,  // measure 19
1000
0000
0110
0000
0000
0000
0001
1000
,  // measure 20
0100
0000
0010
0001
1000
0000
0000
0000
,  // measure 21
0001
0000
0000
0000
1000
0100
0001
0100
,  // measure 22
1000
0000
0000
0000
0001
0100
0010
0000
,  // measure 23
0002
0000
2000
0000
3003
0000
0000
0001
,  // measure 24
1000
0000
0100
1000
0000
0001
0000
2000
0000
0000
0000
0000
3100
0000
0000
0000
,  // measure 25
1001
0000
0001
0100
0010
0100
0010
1000
,  // measure 26
0001
0000
0010
0100
1000
0001
1000
0001
,  // measure 27
1000
0000
0001
0010
0100
0000
1001
0000
,  // measure 28
0100
0000
0010
0100
0010
0000
1000
0100
,  // measure 29
0010
0000
0001
0100
1000
0100
0001
0010
,  // measure 30
0100
0000
1000
0010
0001
0010
1000
0100
,  // measure 31
0001
0000
0100
1000
0010
0000
1001
0000
,  // measure 32
0100
0000
1000
0000
0100
0000
0010
0000
0001
0000
1000
0000
0010
0100
0010
0100
,  // measure 33
0001
0000
1000
0100
1000
0100
1000
0000
0001
0000
0100
0000
1010
0000
0000
0000
,  // measure 34
0000
0000
0001
0010
0001
0010
0001
0000
1000
0000
0100
0000
0011
0000
0000
0000
,  // measure 35
0000
0000
0100
0010
0100
0010
0100
0000
0001
0000
1000
0000
0100
0000
1000
0000
,  // measure 36
0001
0100
1000
0100
0001
1000
1001
0000
,  // measure 37
0000
0000
0001
0100
0001
0000
1000
0000
0100
0000
1000
0000
0010
0000
0100
0000
,  // measure 38
0001
0010
0100
0000
2000
0000
3001
1000
,  // measure 39
0001
0010
1000
0010
0001
1000
0002
0000
,  // measure 40
2003
3020
0030
0100
,  // measure 41
0001
1000
0100
0000
0010
0001
1000
0000
,  // measure 42
0010
0000
0100
0001
0010
0000
0100
0000
,  // measure 43
1000
0010
0100
0000
1001
0000
0010
0000
,  // measure 44
0100
0010
1000
0000
0001
0100
1000
0000
,  // measure 45
0100
0000
0010
1000
0100
1000
0001
0000
,  // measure 46
0100
0000
0010
1000
0100
0010
0001
0000
,  // measure 47
0100
1000
0100
0000
1001
0000
0010
0000
,  // measure 48
0100
0001
0010
0000
0100
0000
1000
0000
;

//---------------dance-single - TRICK----------------
#NOTES:
     dance-single:
     TRICK:
     Medium:
     4:
     0.213,0.246,0.009,0.000,0.000:
0000
0000
0000
0000
,
0000
0000
0000
0000
,
0000
0000
0000
0000
,
0000
0000
0000
0000
,
1000
0000
0000
0000
0001
1000
0001
0000
,
0010
0000
0100
1000
,
0010
0100
0010
0000
1000
0000
0000
0000
,
0001
0010
0100
0000
,
1000
0000
0010
0000
0100
0000
0001
1000
,
0000
0000
0000
0000
,
0001
0000
0100
0000
0010
0000
1000
0001
,
0000
0000
1000
0000
,
0010
0000
0100
0000
0010
0000
1000
0001
,
0000
0000
0000
0010
,
0100
0000
1000
0001
1000
0000
0010
0000
,
0100
0000
0010
1000
0010
0000
0000
0000
,
1000
0000
0001
0010
,
0001
0000
1000
0010
,
0100
0001
0000
1000
,
0100
0000
1000
0010
1000
0000
0000
0000
,
0001
0000
1000
0010
,
0100
0000
0000
0000
0001
0000
0010
0100
,
0010
0001
1000
0000
,
0010
0100
0001
0000
,
1000
0000
0100
0000
1000
0001
1000
0000
,
0001
0000
0100
0000
0001
1000
0001
0000
,
0010
0100
1000
0000
,
0001
0000
0100
0001
0100
0000
0000
0000
,
0010
0000
1000
0000
0001
1000
0001
0000
,
0010
0000
0100
0000
1000
0001
1000
0000
,
0010
0100
0001
0000
,
1000
0000
0001
0100
0001
0000
0000
0000
,
1000
0000
0001
1000
0001
1000
0001
0000
,
0000
0000
1000
0001
1000
0001
1000
0000
,
0000
0000
0010
0100
0010
0100
0010
0000
,
0000
0000
0100
0010
0100
0010
0100
0000
,
0000
0000
0001
0100
0001
0100
0001
0000
,
1000
0100
1000
0000
0001
0000
1000
0001
,
1000
0001
1000
0000
0000
0000
0001
0000
,
1000
0000
0010
0100
0010
0000
0100
0000
,
0001
0000
1000
0100
1000
0000
0010
0000
,
0100
0000
0001
0010
0001
0000
1000
0000
,
0100
0010
0000
0001
,
0100
0010
0000
1000
,
0001
0000
0010
0100
0010
0000
0001
0000
,
1000
0000
0010
0100
0010
0000
0100
0000
,
0001
1000
0000
0001
,
1000
0100
0000
1001
;

//---------------dance-single - BASIC----------------
#NOTES:
     dance-single:
     BASIC:
     Easy:
     3:
     0.171,0.226,0.017,0.043,0.000:
0000
0000
0000
0000
,
0000
0000
0000
0000
,
0000
0000
0000
0000
,
0000
0000
0000
0000
,
1000
0100
1000
0000
,
0100
0001
0100
0000
,
0010
0001
0010
0000
,
0001
1000
0001
0000
,
0010
0000
0001
0000
,
0010
0000
0000
0000
,
1000
0000
0001
0000
,
1000
0000
0000
0000
,
0010
0000
0100
0000
,
0010
0000
0000
0000
,
0001
0000
1000
0000
,
0001
0000
0010
0000
,
0001
0010
1000
0000
,
0100
0001
1000
0000
,
1000
0100
0001
0000
,
0100
1000
0001
0000
,
0001
0100
1000
0000
,
1000
0100
0001
0000
,
0001
0010
0100
1000
,
2002
0000
0000
3003
,
1000
0100
0001
0010
,
1000
0001
1000
0001
,
0100
0100
0100
0000
,
0010
0010
0010
0000
,
1000
0100
0001
0010
,
1000
0001
0100
0010
,
1000
1000
1000
0000
,
0001
0001
0001
0000
,
1000
0001
0010
0100
,
0000
0010
0001
1000
,
0000
0100
0010
0100
,
1000
0010
1000
1001
,
0000
0010
0100
0001
,
1000
0100
1000
0000
,
0001
1000
0100
2000
,
3002
0023
0030
0001
,
0010
1000
0100
0001
,
1000
0001
0010
0001
,
0001
0001
0000
0100
,
0100
0100
0000
0001
,
0010
1000
0100
0001
,
1000
0010
0100
0001
,
0001
0001
0000
1000
,
1000
1000
1000
1000
;
