#TITLE:♡桃色片想い♡;
#SUBTITLE:;
#ARTIST:松浦亜弥;
#TITLETRANSLIT:Momoiro Kataomoi;
#SUBTITLETRANSLIT:;
#ARTISTTRANSLIT:Aya Matsuura;
#CREDIT:Xythar;
#BANNER:Momoiro Kataomoi.png;
#BACKGROUND:Momoiro Kataomoi BG.png;
#LYRICSPATH:Momoiro Kataomoi.lrc;
#CDTITLE:CDTitle.png;
#MUSIC:Momoiro Kataomoi.mp3;
#OFFSET:-1.036;
#SAMPLESTART:10.387;
#SAMPLELENGTH:13.000;
#SELECTABLE:YES;
#BPMS:0.000=153.974;
#STOPS:251.500=0.390
;
#BGCHANGES:-0.500=Momoiro Kataomoi.avi=1.000=1=1=0,
296.000=Momoiro Kataomoi BG.png=1.000=0=0=1,
99999=-nosongbg-=1.000=0=0=0 // don't automatically add -songbackground-
;

//---------------dance-single - MANIAC----------------
#NOTES:
     dance-single:
     MANIAC:
     Hard:
     7:
     0.498,0.470,0.263,0.025,0.076:
0000
0000
0000
0000
,
1000
0100
0010
0011
,
0001
0001
0010
0010
0100
1000
0010
0100
,
0001
0001
0010
0100
0000
0000
0110
0000
,
0001
0001
0100
0100
0010
1000
0100
0010
,
0001
0001
0000
1000
0000
0000
1001
0000
,
1000
0000
0001
0000
0100
0000
0010
0000
0100
0000
0001
0000
,
0010
0000
0100
1000
0000
0001
0000
0100
,
0000
0010
1000
0010
0000
0100
0000
0001
,
0000
0010
0100
0010
0000
0001
0000
1000
,
0000
0010
1000
0010
0000
0100
0000
0001
,
0000
0010
0001
0010
0000
0001
0000
1000
,
0000
0010
1000
0010
0000
0100
0000
0010
,
1000
0100
0010
0001
0000
0100
0000
0110
,
0000
0000
0000
0000
0000
0000
0000
0000
0000
0100
0000
0000
0001
0000
0000
0000
0010
0000
0000
0000
0100
0000
0000
0000
,
1000
0000
0000
0010
0100
0000
0001
0000
,
0100
0001
1000
1100
,
0100
0100
0010
0010
0001
0100
0010
1000
,
0001
0001
0010
0100
0000
0000
1100
0000
,
1000
1000
0001
0001
0100
0010
0100
0001
,
0010
0010
0000
0100
0000
0000
0110
0000
,
1000
0100
0000
1000
0000
0001
0100
0000
,
0001
0010
0100
1000
0000
0010
0100
0000
,
1010
0110
0101
1001
,
0010
0001
0000
1000
0001
0100
0010
1000
,
0100
0010
0000
0100
0000
1000
0010
0100
,
0001
0010
0100
1000
0000
0001
0100
0000
,
1000
0100
0001
1000
,
1000
0100
0010
0001
0000
0100
0010
0100
,
0000
0001
0010
0001
0000
1000
0100
0000
,
1000
0000
0001
0100
0000
0100
0001
0000
,
1000
0000
0100
0010
0000
0010
0100
0000
,
1000
1000
0001
0001
,
0100
0100
0010
0010
,
0101
0000
0001
0010
0000
0010
0001
0000
,
0100
0000
0010
1000
0000
1000
0010
0000
,
1000
0000
0100
0010
0000
0010
0001
0000
,
0000
1000
0100
0010
0001
0000
0100
0000
,
0010
0000
0100
0001
0000
0001
0010
0000
,
0100
0000
0001
0100
0000
0100
1000
0000
,
1000
0001
0000
1001
0000
0000
0010
0000
,
0100
0010
0000
0110
0000
0000
0100
0000
,
0001
1001
1000
1010
,
0010
0110
0100
0101
,
0001
0010
0100
0000
0010
0100
1000
0000
,
0010
0100
0001
0010
0000
0011
0000
0001
,
2000
0000
0000
0000
3001
0010
0100
1000
,
0000
0000
0100
0000
1000
0000
0010
0000
0100
0000
0001
0000
,
0010
0100
0000
0010
0000
0001
0000
0100
,
0000
0010
1000
0010
0000
1000
0000
0100
,
0000
0010
0001
0010
0000
0100
0000
1000
,
0000
0010
0100
0010
0000
0100
0000
0001
,
0000
0010
0100
0010
0000
0001
0000
1000
,
0000
0010
1000
0010
0000
0100
0000
0001
,
1000
0010
0100
0001
0000
1000
0000
1001
,
0000
0000
1000
0000
0100
0000
0010
0000
0001
0000
1000
0000
,
0100
0000
1000
0010
0000
0100
0000
0101
,
0000
0001
0010
0100
0000
0010
0000
0110
,
0000
0100
1000
0010
0000
0100
0000
0101
,
0000
0001
1000
0010
0000
1000
0000
1100
,
0000
0100
0010
0001
0000
1000
0000
1001
,
0000
0001
0100
0010
0000
1000
0000
0100
,
1000
0001
0010
0100
0000
1000
0000
0010
,
0000
0000
0000
0100
0000
0000
0001
0000
0000
0000
0010
0000
0000
0000
0100
0000
0000
0000
1000
0000
0000
0000
0000
0000
,
0000
0001
0100
0000
0010
0000
1000
0000
,
0100
0000
0010
0000
0001
0000
0100
0100
,
0010
0010
1000
0100
0010
0001
0100
0100
,
0010
1000
0000
0000
1001
0000
0001
0001
,
0100
0100
0010
0100
0001
0010
0100
0100
,
0000
1000
0000
0000
1100
0000
0100
0000
,
0010
0001
0000
0001
0100
0000
0010
0000
,
1000
0010
0000
0010
0100
0000
0001
0000
,
0010
0000
0000
0100
0000
0000
0000
0000
0000
0100
0000
0000
0010
0000
0000
0000
0000
0000
0011
0000
0000
0000
0110
0000
,
0000
1100
0000
2002
0000
0000
0000
0000
0000
0000
0000
0000
,
3003
0000
0000
0000
;

//---------------dance-single - TRICK----------------
#NOTES:
     dance-single:
     TRICK:
     Medium:
     6:
     0.392,0.376,0.076,0.025,0.076:
0000
0000
0000
0000
,
1000
0001
1000
1001
,
0001
0000
0010
0000
0100
0000
0010
0100
,
0010
0000
0001
0100
0000
0000
0101
0000
,
1000
0000
0010
0000
0100
0000
0001
0100
,
0001
0000
0000
0100
0000
0000
0110
0000
,
1000
0000
0100
0000
0010
0000
0001
0000
0100
0000
0010
0000
,
1000
0000
0100
0010
0000
0100
0000
1000
,
0000
0000
0001
0100
0000
0010
0000
1000
,
0000
0000
0100
0010
0000
0001
0000
0010
,
0000
0000
0001
0100
0000
0001
0000
1000
,
0000
0000
0100
0010
0000
0100
0000
1000
,
0000
0000
0001
0100
0000
0010
0000
0000
,
0100
0000
0001
0010
0000
0100
0000
1000
,
0000
0000
0000
0000
0000
0000
0000
0000
0000
0001
0000
0000
0100
0000
0000
0000
0010
0000
0000
0000
1000
0000
0000
0000
,
0100
0000
0000
0010
0100
0000
1000
0000
,
0001
0100
0001
1000
,
0001
0000
0010
0000
0100
0000
1000
0100
,
1000
0000
0001
0100
0000
0000
0110
0000
,
1000
0000
0010
0000
0100
0000
0001
1000
,
0001
0000
0000
0010
0000
0000
0011
0000
,
0100
0000
0000
1000
0000
0000
0001
0000
,
0100
0001
0100
0001
0000
0000
0100
0000
,
1000
0100
0001
1000
,
0001
0010
0000
0200
0000
0000
0000
0300
,
1000
0010
0000
0100
0000
0001
0100
0000
,
0001
0010
0001
0010
0000
0100
0010
0000
,
0001
0100
0010
1000
,
0100
0000
1000
0001
0000
0010
0100
0010
,
0000
0001
0100
0001
0000
1000
0100
0000
,
1000
0000
0010
0100
0000
0000
0001
0000
,
0010
0000
0100
1000
0000
0000
0001
0000
,
0100
0100
0100
0100
,
0010
0010
0010
0010
,
1000
0000
0010
0100
0000
0000
0001
0000
,
0010
0000
0100
0010
0000
0000
0001
0000
,
0100
0000
0010
1000
0000
0000
0001
0000
,
0000
0010
0100
0000
1000
0000
0001
0000
,
0100
0000
0001
1000
0000
0000
0100
0000
,
1000
0000
0001
0010
0000
0000
0100
0000
,
0010
0001
0000
0001
0000
0000
1001
0000
,
0001
1000
0000
1000
0000
0000
0101
0000
,
0100
1000
0100
0001
,
0010
1000
0010
0001
,
1000
0100
1000
0000
0001
0100
0001
0000
,
1000
0100
0000
0010
0000
0001
0000
0100
,
0020
0000
0000
0000
0130
0001
0100
0001
,
0000
0000
1000
0000
0010
0000
0100
0000
0001
0000
0010
0000
,
0100
0000
0010
0001
0000
0100
0000
0010
,
0000
0000
0100
0001
0000
0010
0000
0100
,
0000
0000
1000
0010
0000
0100
0000
0010
,
0000
0000
0100
0001
0000
0010
0000
0100
,
0000
0000
1000
0100
0000
0010
0000
0001
,
0000
0000
0100
0010
0000
0100
0000
0000
,
0001
0000
1000
0010
0000
0100
0000
0010
,
0000
0000
1000
0000
0100
0000
0010
0000
0001
0000
0010
0000
,
0100
0000
1000
0100
0000
1000
0000
0010
,
0000
0000
0100
0001
0000
0100
0000
0001
,
0000
0000
1000
0100
0000
1000
0000
0010
,
0000
0000
0100
0010
0000
1000
0000
0100
,
0000
0000
0010
0001
0000
0100
0000
0010
,
0000
0000
0100
0001
0000
0010
0000
0000
,
0100
0000
0010
0001
0000
0100
0000
0010
,
0000
0000
0000
1000
0000
0000
0010
0000
0000
0000
0100
0000
0000
0000
0001
0000
0000
0000
0100
0000
0000
0000
0000
0000
,
0000
0001
0010
0000
1000
0000
0010
0000
,
0001
0100
0010
1000
,
0100
0000
0010
0000
0100
0010
0001
0000
,
0100
0010
0000
0000
0101
0000
0001
0000
,
0010
0000
0100
0000
0010
0100
1000
0000
,
0010
0100
0000
0000
1010
0000
0100
0000
,
0001
0000
0000
0010
0001
0000
0010
0000
,
0100
0000
0000
1000
0100
0000
1000
0000
,
0010
0000
0000
0000
0000
0000
0000
0000
0000
0100
0000
0000
0010
0000
0000
0000
0000
0000
1000
0000
0000
0000
0100
0000
,
0000
0010
0000
0002
0000
0000
0000
0000
0000
0000
0000
0000
,
0003
0000
0000
0000
;

//---------------dance-single - BASIC----------------
#NOTES:
     dance-single:
     BASIC:
     Easy:
     3:
     0.260,0.279,0.076,0.025,0.000: // measure 1
0000
0000
0000
0000
,  // measure 2
1000
0100
1000
0001
,  // measure 3
0010
0100
0010
0001
,  // measure 4
0100
0000
0000
0010
0000
0000
1010
0000
,  // measure 5
1000
0100
0010
0100
,  // measure 6
1000
0000
0000
0001
0000
0000
1001
0000
,  // measure 7
0000
0000
0000
0000
,  // measure 8
1000
0100
0010
0000
,  // measure 9
0100
0010
0001
0000
,  // measure 10
0001
0100
0010
0000
,  // measure 11
0100
0010
1000
0000
,  // measure 12
0100
1000
0001
0000
,  // measure 13
0100
0001
1000
0000
,  // measure 14
0010
0000
0100
0001
,  // measure 15
0010
0000
0002
0000
,  // measure 16
1003
0000
0001
1000
,  // measure 17
0010
0000
0100
0000
,  // measure 18
0001
0010
0100
0000
,  // measure 19
1000
0000
0000
0010
0000
0000
0110
0000
,  // measure 20
0100
0001
0010
0000
,  // measure 21
0100
0000
0000
1000
0000
0000
0001
0000
,  // measure 22
1000
0000
0000
0010
,  // measure 23
0100
0001
0010
0100
,  // measure 24
0010
0000
0001
0000
,  // measure 25
0100
0010
1000
0000
,  // measure 26
0100
0000
0000
0010
0000
0000
0100
0000
,  // measure 27
1000
0001
0100
0000
,  // measure 28
0010
0000
0100
0000
,  // measure 29
0010
0000
1000
0000
,  // measure 30
0100
0000
0010
0000
,  // measure 31
0001
0000
0100
0010
,  // measure 32
0100
0000
0010
1000
,  // measure 33
0100
0100
0100
0100
,  // measure 34
0000
0000
0000
0000
,  // measure 35
0010
0000
0001
0010
,  // measure 36
0100
0000
1000
0010
,  // measure 37
0100
0010
1000
0001
,  // measure 38
0010
0000
0100
0000
,  // measure 39
0010
0000
0001
1000
,  // measure 40
0010
0000
0100
0001
,  // measure 41
1001
0000
0000
1001
0000
0000
0000
0000
,  // measure 42
0110
0000
0000
0110
0000
0000
0000
0000
,  // measure 43
0100
1000
0100
0010
,  // measure 44
0001
0100
0010
1000
,  // measure 45
0001
0000
0010
0000
,  // measure 46
0100
0010
0100
0010
,  // measure 47
0002
0000
0000
0000
,  // measure 48
1003
0000
0000
0000
,  // measure 49
0001
0010
0100
0000
,  // measure 50
1000
0010
0100
0000
,  // measure 51
0001
1000
0100
0000
,  // measure 52
0010
0001
1000
0000
,  // measure 53
0010
1000
0100
0000
,  // measure 54
0010
0001
0100
0000
,  // measure 55
0001
0000
0010
0100
,  // measure 56
1000
0000
0000
0000
,  // measure 57
0001
0000
1000
0100
,  // measure 58
0010
0000
0100
1000
,  // measure 59
0010
0000
1000
0001
,  // measure 60
0100
0000
0001
0010
,  // measure 61
0100
0000
1000
0010
,  // measure 62
0100
0000
0010
1000
,  // measure 63
0001
0000
0000
0000
0200
0000
0000
0300
,  // measure 64
0000
0001
0100
0010
,  // measure 65
0000
0100
0000
0001
,  // measure 66
0000
0010
0000
0100
,  // measure 67
1000
0100
0010
0001
,  // measure 68
0000
0100
0000
0000
0101
0000
0001
0000
,  // measure 69
0010
0100
1000
0010
,  // measure 70
0000
0100
0000
0000
0101
0000
0001
0000
,  // measure 71
1000
0000
0010
0100
,  // measure 72
0001
0000
0010
0100
,  // measure 73
0010
0000
0001
0100
,  // measure 74
0010
1000
0000
0000
;
