#TITLE:ミラクルペイント;
#SUBTITLE:;
#ARTIST:OSTER project feat. 初音ミク;
#TITLETRANSLIT:Miracle Paint;
#SUBTITLETRANSLIT:;
#ARTISTTRANSLIT:OSTER project feat. Miku Hatsune;
#CREDIT:Xythar;
#BANNER:Miracle Paint-bn.avi;
#BACKGROUND:black.png;
#LYRICSPATH:Miracle Paint.lrc;
#CDTITLE:mikunokanzume.png;
#MUSIC:Miracle Paint.ogg;
#OFFSET:-1.159;
#SAMPLESTART:54.734;
#SAMPLELENGTH:17.780;
#SELECTABLE:YES;
#BPMS:0.000=215.000;
#STOPS:;
#BGCHANGES:-0.496=Miracle Paint.avi=1.000=1=0=0,
352.000=Miracle Paint-eg.png=1.000=0=0=1,
99999=-nosongbg-=1.000=0=0=0 // don't automatically add -songbackground-
;

//---------------dance-single - ----------------
#NOTES:
     dance-single:
     :
     Hard:
     8:
     0.489,0.512,0.126,0.340,0.326:
0000
0000
0000
0000
,
0000
0000
0000
0000
,
0000
0000
0000
0000
,
0000
0000
0000
0000
,
0000
0001
0000
0001
,
0000
0001
0000
0001
,
0100
0000
0000
0010
0000
0000
0100
0000
0000
0000
0000
1001
,
0000
0000
0000
0000
,
0001
0000
0000
1000
0000
0010
0000
0000
0000
0100
0000
0001
,
0000
0000
0000
1000
0000
0100
0000
0000
0000
0010
0000
0000
,
0001
0000
0000
0100
0000
0010
0000
0000
0000
0100
0000
0000
,
0002
0000
0000
0010
0000
0013
0000
0000
0000
0100
0000
0000
,
1000
0000
0000
0001
0000
0100
0000
0000
0000
0010
0000
1000
,
0000
0000
0000
0001
0000
0010
0000
0000
0000
0001
0000
0000
,
0100
0020
1000
1030
,
0100
0000
0010
0000
0000
1001
0000
0000
0000
1000
0000
0000
,
0010
0000
0000
1000
0000
0001
0000
0000
0010
0000
0000
1000
,
0000
0000
0010
0000
0000
0001
0000
0000
0000
0100
0000
0000
,
0020
1000
1030
0100
,
0020
0001
0031
0100
,
1000
0000
0100
0001
,
2000
0000
3002
0000
,
0023
0000
0030
1000
,
0010
0000
0000
0001
0000
1000
0000
0000
0000
0001
0000
0000
,
0100
0000
0000
0001
0000
2000
0000
0000
0010
0000
0000
3010
,
0000
0000
0100
0000
0000
0002
0000
0000
0000
0010
0000
0000
,
0013
0100
1000
0010
,
1000
0001
0100
0010
,
1100
0000
0101
0000
,
2100
0000
0000
0000
0000
0000
0001
0000
0000
0000
0000
3020
,
0000
0100
0130
0001
,
1000
0000
0000
0100
0000
0010
0000
0000
0000
0011
0000
0000
,
1100
0000
0000
0001
0000
0100
0000
0000
0000
0001
0000
0000
,
0010
0001
1000
0010
,
0100
0000
0000
0001
0000
0020
0000
0000
0000
0100
0000
0000
,
0130
0001
0100
1000
,
0010
0000
0000
1000
0000
0000
0001
0000
0000
0100
0000
0010
,
0000
0100
0001
0010
,
0001
0000
0000
0100
0000
0010
0000
0000
1000
0000
0000
0100
,
0000
0000
0001
0100
,
2000
0000
3002
0000
,
0103
0010
0100
0001
,
0010
0000
0000
0001
0000
0000
1000
0000
0010
0000
0000
0100
,
0000
1000
0100
0001
,
0010
0000
0000
0100
0000
2000
0000
0000
0000
0010
0000
0000
,
0010
0001
3001
0100
,
0010
0000
0100
0001
,
0010
0000
0100
0000
0000
1001
0000
0000
0000
0001
0000
0000
,
0100
1000
0100
0001
,
0020
0000
0000
0000
0000
0130
0000
0000
1000
0001
0000
0000
,
0100
0010
0100
0001
,
0020
0000
0000
0000
0000
0130
0000
0000
1000
0001
0000
0000
,
2000
0010
3010
0100
,
0002
0010
0013
0100
,
1000
0001
1000
0020
,
0000
0130
1000
0100
,
0010
0000
0000
1000
0000
0000
0001
0000
0000
0010
0000
0001
,
0000
0100
0010
0100
,
0002
0100
2003
0100
,
3002
0010
1000
0103
,
0010
0000
0000
1000
0000
0000
0001
0000
0010
0000
0000
0001
,
0000
0000
0000
0100
0000
0000
1000
0000
0000
0100
0000
0010
,
0000
0000
0000
1000
0000
0001
0000
0000
0010
0100
0000
0000
,
1001
0000
0000
0100
0000
0010
0000
0000
0000
0101
0000
0000
,
0010
1000
0001
1000
,
0200
0000
0000
0000
0000
0310
0000
0000
0001
1000
0000
0000
,
0010
0100
1000
0100
,
0010
0000
0000
1000
0000
0001
0000
0000
0000
0010
0000
0000
,
0200
1000
1300
0010
,
0200
0001
0301
1000
,
0001
1000
0010
0100
,
0000
1000
0100
0010
,
1001
0000
0000
0001
0000
0000
1000
0000
0000
0100
0000
0010
,
0000
0001
0100
1000
,
0200
0001
0320
0100
,
2030
0001
0100
3010
,
0100
0000
0000
0010
0000
0000
1000
0000
0001
0000
0000
0220
,
0000
0000
0000
0000
,
0000
0000
0330
0000
,
0002
0000
0023
0000
,
0230
0000
0000
1000
0000
0000
1300
0000
0010
0000
0000
0100
,
0000
0000
0010
0000
0000
1000
0001
0000
0000
0001
0000
0000
,
0020
0000
0000
0100
0000
0000
0130
0000
1000
0000
0000
0001
,
0000
0000
0100
0010
0000
0100
0000
0000
0001
0000
0000
0000
,
1000
0000
0000
0010
0000
0000
0100
0000
0001
0100
0000
0001
,
0000
0000
1000
0100
0000
1000
0000
0000
0001
1000
0000
0001
,
0000
0000
0000
0000
,
0000
0000
0000
1001
;

//---------------dance-single - ----------------
#NOTES:
     dance-single:
     :
     Medium:
     6:
     0.374,0.469,0.087,0.272,0.058:
0000
0000
0000
0000
,
0000
0000
0000
0000
,
0000
0000
0000
0000
,
0000
0000
0000
0000
,
0000
0000
0000
0000
,
0000
0000
0000
0000
,
0000
0000
0000
0000
0000
0000
0001
0000
0000
0000
0000
1000
,
0000
0000
0000
0000
,
0001
0100
0001
0100
,
0010
1000
0010
1000
,
0001
0010
0001
0010
,
0100
1000
0001
0000
,
1000
0010
1000
0010
,
0100
0001
0100
0001
,
0010
0100
1000
0010
,
0100
0000
0000
0000
0000
1001
0000
0000
0000
0000
0000
0000
,
0001
0000
0100
0000
,
0010
0000
1000
0000
,
0001
0010
0001
0000
,
1000
0010
1000
0010
,
0200
0000
0302
0000
,
0023
0000
0230
0000
,
1300
0000
0000
0001
,
0100
0000
0000
0000
0000
0001
0000
0000
0000
1000
0000
0000
,
0100
0000
1000
0000
,
0010
0000
0100
0000
,
1000
0100
0001
0000
,
1000
0100
0001
0000
,
1100
0000
0001
0000
,
1100
0000
0010
0000
,
1001
0000
0001
0001
,
0001
0000
0000
0000
,
1000
0010
0100
0010
,
1000
0001
0010
0001
,
2000
0000
0001
0001
,
3001
0000
0100
0010
,
0100
0000
0001
1000
,
0100
0000
1000
0001
,
0100
0001
1000
0000
,
0001
0010
0100
1000
,
0020
0000
0130
0000
,
0010
1000
0001
1000
,
0010
0000
0000
0000
0000
0000
0100
0000
0000
0000
0000
1001
,
0000
0000
0100
1000
,
0020
0000
0100
0000
,
1000
1000
1030
0000
,
0012
0000
1000
0000
,
0103
0000
0000
0000
0000
1010
0000
0000
0000
0000
0000
0000
,
0001
0100
0010
1000
,
0200
0000
0000
0000
0000
0310
0000
0000
0000
0000
0000
0000
,
0100
1000
0010
1000
,
0002
0000
0000
0000
0000
0103
0000
0000
0000
0000
0000
0000
,
0020
0000
1030
0001
,
0020
0000
0130
1000
,
0002
0100
0103
0010
,
0000
1000
0100
1000
,
0010
0000
1000
0001
,
0100
1000
0100
0001
,
2000
0000
3200
0000
,
0320
0001
0031
1000
,
0010
0000
0000
1000
0000
0000
0001
0000
0000
0000
0000
0110
,
0000
0000
0000
0000
0000
0000
0002
0000
0000
0000
0000
1003
,
0000
0000
0000
0001
,
0010
0001
1000
0000
,
0010
0100
0010
0100
,
0002
0000
0000
0000
0000
1003
0000
0000
0000
0000
0000
0000
,
0100
0010
0100
0010
,
0002
0000
0000
0000
0000
1003
0000
0000
0000
0000
0000
0000
,
0020
0100
0130
0001
,
2000
0100
3100
0010
,
0001
1000
0001
0010
,
0000
0001
1000
0010
,
0100
0000
1000
0100
,
0001
1000
0100
1000
,
0020
0000
0230
0000
,
0302
1000
1003
0000
,
0001
0000
0000
0100
0000
0000
0010
0000
0000
0000
0000
2000
,
0000
0000
0000
0000
,
0000
0000
3000
0000
,
0002
0000
0023
0000
,
0230
0000
1300
0000
,
0001
0100
0001
0001
,
1000
0100
1000
0000
,
0001
0100
0010
1000
,
0001
0010
1000
0010
,
0001
0100
1000
0100
,
0001
0000
0000
0000
,
0000
0000
0000
1001
;

//---------------dance-single - ----------------
#NOTES:
     dance-single:
     :
     Easy:
     4:
     0.268,0.341,0.058,0.272,0.000: // measure 1
0000
0000
0000
0000
,  // measure 2
0000
0000
0000
0000
,  // measure 3
0000
0000
0000
0000
,  // measure 4
0000
0000
0000
0000
,  // measure 5
0000
0000
0000
0000
,  // measure 6
0000
0000
0000
0000
,  // measure 7
0000
0000
0000
0000
,  // measure 8
0000
0000
0000
0000
,  // measure 9
1000
0000
0001
0000
,  // measure 10
1000
0000
0010
0000
,  // measure 11
1000
0000
0001
0000
,  // measure 12
1000
0001
1000
0000
,  // measure 13
0001
0000
0100
0000
,  // measure 14
0001
0000
1000
0000
,  // measure 15
0001
0000
0000
0000
,  // measure 16
1001
0000
0000
0000
,  // measure 17
0001
0000
0100
0000
,  // measure 18
0010
0000
0100
0000
,  // measure 19
0001
1000
0001
0000
,  // measure 20
1000
0001
1000
0000
,  // measure 21
0010
0000
0100
0000
,  // measure 22
0010
0000
1000
0000
,  // measure 23
0001
0000
0000
1000
,  // measure 24
0001
0000
1000
0001
,  // measure 25
1000
0000
0001
0000
,  // measure 26
0010
0000
0001
0000
,  // measure 27
1000
0010
1000
0000
,  // measure 28
0001
0100
0001
0000
,  // measure 29
1001
0000
0100
0000
,  // measure 30
1001
0000
0001
1000
,  // measure 31
0001
0000
0000
0000
,  // measure 32
0100
0000
0010
0000
,  // measure 33
1000
0000
0001
0000
,  // measure 34
1000
0000
0001
1000
,  // measure 35
0002
0000
0000
0003
,  // measure 36
1000
0000
0010
0000
,  // measure 37
0100
0000
0010
0000
,  // measure 38
1000
0000
0001
0000
,  // measure 39
0010
0000
0100
0000
,  // measure 40
1000
0000
0001
0000
,  // measure 41
2000
0000
3020
0000
,  // measure 42
1030
0000
0001
1000
,  // measure 43
0001
0000
1000
0000
,  // measure 44
0020
0000
0000
0000
,  // measure 45
2030
0000
0000
0000
,  // measure 46
3000
0000
0000
0100
,  // measure 47
0020
0000
0000
0000
,  // measure 48
0031
0000
0000
0000
,  // measure 49
1000
0010
1000
0000
,  // measure 50
0002
0000
0003
0000
,  // measure 51
1000
0100
1000
0000
,  // measure 52
0020
0000
0030
0000
,  // measure 53
2000
0000
0001
0000
,  // measure 54
3002
0000
0203
0000
,  // measure 55
0320
0000
0000
1030
,  // measure 56
0000
0001
1000
0000
,  // measure 57
0010
0000
0100
0000
,  // measure 58
0001
0000
1000
0001
,  // measure 59
2000
0000
3020
0000
,  // measure 60
0230
0000
0300
0001
,  // measure 61
1000
0000
0010
0000
,  // measure 62
0100
0000
0000
0000
,  // measure 63
1001
0000
0000
0001
,  // measure 64
1000
0000
0010
0000
,  // measure 65
0100
0001
0100
0000
,  // measure 66
0020
0000
0030
0000
,  // measure 67
1000
0100
1000
0000
,  // measure 68
0002
0000
0003
0000
,  // measure 69
2000
0000
0010
0000
,  // measure 70
3020
0000
0230
0000
,  // measure 71
0302
0000
0000
1003
,  // measure 72
0000
0001
1000
0000
,  // measure 73
0110
0000
0001
0000
,  // measure 74
0010
0000
0001
1000
,  // measure 75
0002
0000
2003
0000
,  // measure 76
3020
0000
0030
0000
,  // measure 77
0100
0000
0001
0000
,  // measure 78
2000
0000
0000
0000
,  // measure 79
0000
0000
3000
0000
,  // measure 80
0002
0000
0203
0000
,  // measure 81
0320
0000
1030
0000
,  // measure 82
0001
1000
0001
0000
,  // measure 83
1000
0000
0010
0000
,  // measure 84
0100
0010
0100
0000
,  // measure 85
0001
0010
0001
0000
,  // measure 86
1000
0010
1000
0000
,  // measure 87
0001
0000
0000
0000
,  // measure 88
0000
0000
0000
1001
;

//---------------dance-single - ----------------
#NOTES:
     dance-single:
     :
     Beginner:
     2:
     0.186,0.256,0.058,0.165,0.000: // measure 1
0000
0000
0000
0000
,  // measure 2
0000
0000
0000
0000
,  // measure 3
0000
0000
0000
0000
,  // measure 4
0000
0000
0000
0000
,  // measure 5
0000
0000
0000
0000
,  // measure 6
0000
0000
0000
0000
,  // measure 7
0000
0000
0000
0000
,  // measure 8
0000
0000
0000
0000
,  // measure 9
1000
0000
0000
0000
,  // measure 10
1000
0000
0000
0000
,  // measure 11
0001
0000
0000
0000
,  // measure 12
0001
0000
0001
0000
,  // measure 13
0001
0000
0000
0000
,  // measure 14
0100
0000
0000
0000
,  // measure 15
0010
0000
0000
0000
,  // measure 16
1001
0000
0000
0000
,  // measure 17
0001
0000
0100
0000
,  // measure 18
0001
0000
0000
0000
,  // measure 19
1000
0000
0100
0000
,  // measure 20
1000
0000
0000
0000
,  // measure 21
0020
0000
0000
0000
,  // measure 22
0230
0000
0000
0000
,  // measure 23
0310
0000
0000
0000
,  // measure 24
1000
0000
1000
0000
,  // measure 25
0001
0000
0010
0000
,  // measure 26
0001
0000
0000
0000
,  // measure 27
1000
0000
0010
0000
,  // measure 28
1000
0000
0001
0000
,  // measure 29
1000
0000
0000
0000
,  // measure 30
1001
0000
0000
0000
,  // measure 31
0110
0000
0000
0000
,  // measure 32
0001
0000
0100
0000
,  // measure 33
0010
0000
0000
0000
,  // measure 34
1000
0000
0001
0000
,  // measure 35
1000
0000
0000
0000
,  // measure 36
0001
0000
0000
0000
,  // measure 37
1000
0000
0010
0000
,  // measure 38
1000
0000
0001
0000
,  // measure 39
1000
0000
0000
0000
,  // measure 40
0001
0000
0000
0000
,  // measure 41
0010
0000
0100
0000
,  // measure 42
1000
0000
0010
0000
,  // measure 43
0100
0000
0000
0000
,  // measure 44
0001
0000
0000
0000
,  // measure 45
2000
0000
0000
0000
,  // measure 46
3000
0000
0000
0000
,  // measure 47
0001
0000
0000
0000
,  // measure 48
1000
0000
0010
0000
,  // measure 49
1000
0000
0001
0000
,  // measure 50
0002
0000
0000
0000
,  // measure 51
1003
0000
0010
0000
,  // measure 52
0020
0000
0000
0000
,  // measure 53
0230
0000
0000
0000
,  // measure 54
0302
0000
0000
0000
,  // measure 55
0023
0000
0000
0000
,  // measure 56
0130
0000
1000
0000
,  // measure 57
0010
0000
1000
0000
,  // measure 58
0001
0000
0010
0000
,  // measure 59
0001
0000
0001
0000
,  // measure 60
1001
0000
0000
0000
,  // measure 61
1000
0000
0010
0000
,  // measure 62
0100
0000
0000
0000
,  // measure 63
0010
0000
1000
0000
,  // measure 64
0001
0000
1001
0000
,  // measure 65
0001
0000
0100
0000
,  // measure 66
0020
0000
0000
0000
,  // measure 67
1030
0000
0100
0000
,  // measure 68
0020
0000
0000
0000
,  // measure 69
0032
0000
0000
0000
,  // measure 70
2003
0000
0000
0000
,  // measure 71
3002
0000
0000
0000
,  // measure 72
0103
0000
0010
0000
,  // measure 73
0010
0000
1000
0000
,  // measure 74
0001
0000
1000
0000
,  // measure 75
0010
0000
0010
0000
,  // measure 76
0200
0000
0000
0000
,  // measure 77
0301
0000
1000
0000
,  // measure 78
0001
0000
0000
0000
,  // measure 79
0000
0000
0000
0000
,  // measure 80
2000
0000
3002
0000
,  // measure 81
2003
0000
0000
0000
,  // measure 82
3000
0000
0000
0000
,  // measure 83
0001
0000
0100
0000
,  // measure 84
0001
0000
1000
0000
,  // measure 85
0001
0000
0000
0000
,  // measure 86
0010
0000
0100
0000
,  // measure 87
1000
0000
0000
0000
,  // measure 88
0000
0000
0000
1001
;
