#TITLE:冥;
#SUBTITLE:(for OSC4);
#ARTIST:Amuro vs Killer;
#TITLETRANSLIT:Mei;
#SUBTITLETRANSLIT:;
#ARTISTTRANSLIT:;
#CREDIT:Steps by Xythar;
#BANNER:Mei.png;
#BACKGROUND:Mei-bg.png;
#LYRICSPATH:;
#CDTITLE:cdtitle.png;
#MUSIC:Mei.mp3;
#OFFSET:-0.412;
#SAMPLESTART:56.000;
#SAMPLELENGTH:12.000;
#SELECTABLE:YES;
#DISPLAYBPM:100.000:200.000;
#BPMS:0.000=100.000,48.000=99.000,52.000=100.000,64.000=109.000,65.000=110.000,68.000=119.000,69.000=120.000,72.000=129.000,73.000=130.000,76.000=139.000,77.000=140.000,80.000=149.000,81.000=150.000,84.000=159.000,85.000=160.000,88.000=169.000,89.000=170.000,92.000=179.000,93.000=180.000,96.000=189.000,97.000=190.000,100.000=404.000,108.000=200.000,220.000=176.000,220.500=175.000,221.000=174.000,221.500=173.000,222.000=172.000,226.000=165.000,228.000=140.000,229.000=100.000,230.000=110.000,231.000=90.000,232.000=66.000;
#STOPS:108.000=0.675 //#BPMS:0.000=100.000,64.000=110.000,68.000=120.000,72.000=130.000,76.000=140.000,80.000=150.000,84.000=160.000,88.000=170.000,92.000=180.000,96.000=190.000,100.000=400.000,108.000=200.000,220.000=180.000,222.000=175.000,226.000=165.000,228.000=140.000,229.000=100.000,230.000=110.000,231.000=90.000,232.000=66.000; //#STOPS:108.000=0.675
;
#BGCHANGES:0.000=Mei.avi=1.000=1=1=0
;

//---------------dance-single - ----------------
#NOTES:
     dance-single:
     :
     Hard:
     8:
     0.471,0.769,0.253,0.030,0.157:
0000
0000
0000
0000
,
0000
0000
0000
0000
,
0000
0000
0000
0000
,
0000
0000
0000
0000
,
1001
0000
0000
0000
0000
0010
0001
0000
0101
0000
0000
0000
0000
0010
1000
0000
,
1100
0000
0000
0000
0000
1000
0010
0000
0110
0000
0000
0001
0000
1000
0100
1000
,
0010
0000
0000
0000
0000
0100
0001
0000
1001
0000
0000
0010
0000
0100
0010
0000
,
0011
0000
0000
1000
0000
0001
0100
0000
0110
0000
0000
0001
0000
0010
0100
0010
,
0001
0000
0000
1000
0000
0010
0100
0000
0101
0000
0000
0010
0000
1000
0100
0000
,
1001
0000
0000
0010
0000
0100
1000
0000
1010
0000
0000
1000
0000
0100
0010
0000
,
0011
0000
1000
0001
0000
1000
0010
0000
0110
0000
1000
0010
0000
0100
0001
0000
,
1001
0000
0100
0010
0000
1000
0001
0000
0011
0000
1000
0100
0000
0010
0001
0010
,
0100
1000
0010
0100
,
0001
0010
0100
1000
,
0001
0100
0010
1000
,
0001
1000
0100
0010
,
1001
0010
0100
1000
,
1001
0100
0010
0001
,
1001
1000
0001
0010
,
0110
0100
1000
0010
,
0110
0001
0101
0010
,
0011
0100
0110
1000
,
0100
0010
0000
0100
0010
0100
0000
0010
,
0001
0010
0100
0010
,
0001
0010
0100
1000
0100
0010
0001
0100
,
0020
0000
0000
0000
,
0000
0000
0000
0030
,
0000
0000
0000
0000
1000
0100
0010
0001
,
0100
0010
1000
0000
0001
0010
0001
1000
,
0100
1000
0010
0000
0100
0001
0010
0100
,
1000
0010
0100
0000
0001
1000
0010
1000
,
0001
0100
0001
0000
1000
0100
0010
0001
,
0010
0100
1000
0000
0001
0100
0010
1000
,
0010
0100
0001
0000
1000
0010
1000
0100
,
0010
0100
1000
0010
0100
0001
0100
0001
,
0010
0100
1000
0000
1001
0000
0000
0010
,
0001
0100
0001
0010
0000
0001
0000
1000
,
0010
1000
0100
1000
0000
0000
0000
0010
,
0100
0001
0010
0100
0000
0010
0000
0001
,
0010
0100
1000
0100
1000
0000
0000
0001
,
0000
1000
0100
0010
0001
0000
0000
0000
,
0100
0000
0010
0000
1000
0001
1000
0010
,
0100
0010
0100
0001
0010
0000
0000
0100
,
0010
0000
0000
0000
1000
0001
0100
0001
,
1000
0010
1000
0001
0010
0100
0010
0100
,
1000
0100
1000
0001
0010
0001
0100
0010
,
0100
0010
1000
0100
0010
0001
0010
0100
,
1000
0000
0001
0100
0010
0000
0000
0000
,
0100
0001
0010
0100
0000
1000
0000
0000
,
0010
0100
0000
0001
0010
0000
0100
0000
,
1000
0010
1000
0010
0000
1000
0100
0000
,
1001
1001
1000
0010
,
0100
0001
1000
0100
,
0010
0001
0100
0010
,
1000
0100
1000
0100
,
0010
0001
1000
0100
,
1000
0010
0100
0000
,
0002
0000
2000
0000
,
0000
0000
3003
0000
;

//---------------dance-single - ----------------
#NOTES:
     dance-single:
     :
     Beginner:
     2:
     0.150,0.174,0.091,0.000,0.000: // measure 1
0000
0000
0000
0000
,  // measure 2
0000
0000
0000
0000
,  // measure 3
0000
0000
0000
0000
,  // measure 4
0000
0000
0000
0000
,  // measure 5
1000
0000
0010
0000
,  // measure 6
0100
0000
0001
0000
,  // measure 7
0010
0000
0100
0000
,  // measure 8
0010
0000
0001
0000
,  // measure 9
1000
0000
0100
0000
,  // measure 10
0010
0000
0001
0000
,  // measure 11
1000
0000
0010
0000
,  // measure 12
0100
0000
0001
0000
,  // measure 13
0010
0000
0100
0000
,  // measure 14
0010
0000
0001
0000
,  // measure 15
1000
0000
0100
0000
,  // measure 16
1000
0000
0010
0000
,  // measure 17
1001
0000
0000
0000
,  // measure 18
0110
0000
0000
0000
,  // measure 19
1001
0000
0000
0000
,  // measure 20
0110
0000
0000
0000
,  // measure 21
1001
0000
0000
0000
,  // measure 22
0110
0000
0000
0000
,  // measure 23
1001
0000
0010
0000
,  // measure 24
0001
0000
0100
0000
,  // measure 25
1000
1000
0000
0001
,  // measure 26
0001
0000
0000
0000
,  // measure 27
0000
0000
0000
0000
,  // measure 28
0000
0000
0010
0000
,  // measure 29
0100
0000
0010
0000
,  // measure 30
0001
0000
0100
0000
,  // measure 31
0010
0000
0100
0000
,  // measure 32
0001
0000
1000
0000
,  // measure 33
0100
0000
1000
0000
,  // measure 34
0010
0000
1000
0000
,  // measure 35
0100
0000
0010
0000
,  // measure 36
0001
0000
1001
0000
,  // measure 37
0010
0000
0100
0000
,  // measure 38
0010
0000
0110
0000
,  // measure 39
0001
0000
1000
0000
,  // measure 40
0001
0000
1000
0000
,  // measure 41
0100
0000
1000
0000
,  // measure 42
0010
0000
1000
0000
,  // measure 43
0001
0000
0010
0000
,  // measure 44
0100
0000
0010
0000
,  // measure 45
0001
0000
0010
0000
,  // measure 46
0100
0000
1000
0000
,  // measure 47
0001
0000
1000
0000
,  // measure 48
0010
0000
0100
0000
,  // measure 49
0010
0000
1000
0000
,  // measure 50
0001
0000
0010
0000
,  // measure 51
0001
0000
0100
0000
,  // measure 52
0010
0000
1000
0000
,  // measure 53
0000
0000
0001
0000
,  // measure 54
0000
0000
0010
0000
,  // measure 55
0000
0000
0100
0000
,  // measure 56
0000
0000
1000
0000
,  // measure 57
0100
0000
0010
0000
,  // measure 58
0001
0000
1000
0000
;

//---------------dance-single - ----------------
#NOTES:
     dance-single:
     :
     Medium:
     7:
     0.373,0.533,0.091,0.020,0.111:
0000
0000
0000
0000
,
0000
0000
0000
0000
,
0000
0000
0000
0000
,
0000
0000
0000
0000
,
1000
0000
0000
1000
0001
0000
0000
0001
,
0010
0000
0000
0000
0000
0000
0010
0000
0001
0000
0000
0100
0000
0000
0010
0000
,
1000
0000
0000
0100
0000
0000
0010
0000
0001
0000
0000
0100
0000
0000
0010
0000
,
1000
0000
0000
0001
0000
0000
0010
0000
0100
0000
0000
0010
0000
0000
0001
0000
,
1000
0000
0000
0100
0000
1000
0010
0000
0100
0000
0000
0010
0000
1000
0001
0000
,
1000
0000
0000
0100
0000
0010
0100
0000
1000
0000
0000
0010
0000
0100
0010
0000
,
1000
0000
0000
0001
0000
0100
0010
0000
0100
0000
0000
0001
0000
0010
0100
0000
,
0010
0000
0000
0001
0000
0010
0100
0000
1000
0000
0000
0100
0000
0010
0100
0010
,
0001
0010
0100
1000
,
0010
0100
0001
0010
,
0001
1000
0100
0010
,
0001
0100
0010
1000
,
1001
0100
0001
0010
,
0110
0010
0100
1000
,
1001
0001
0010
0100
,
0110
0100
0010
0001
,
1001
0000
1100
0000
,
0110
0000
0011
0000
,
1000
0100
0000
0010
0001
0010
0000
0001
,
0010
0100
1000
0010
,
0100
0001
0010
0100
,
2000
0000
0000
0000
,
0000
0000
0000
3000
,
0000
0000
0000
0000
0100
1000
0100
0000
,
0010
0001
0010
0000
0001
0100
0001
0000
,
1000
0010
1000
0000
0010
0100
0010
0000
,
0100
0001
0010
0000
0100
1000
0010
0000
,
0100
0000
0001
0000
1000
0000
0000
0001
,
0010
0100
1000
0010
,
0100
0001
0100
0000
0001
0010
0001
0010
,
0100
0000
0010
0100
0010
0100
1000
0000
,
0100
0010
0001
0000
1000
0000
0000
0001
,
0010
0100
0010
0001
0000
0000
0000
1000
,
0100
0010
0100
1000
0000
0000
0000
0001
,
0100
0010
0100
0001
0000
0000
0000
1000
,
0010
0000
0100
0010
1000
0000
0001
0000
,
0010
0100
1000
0000
0001
0000
0100
0000
,
0010
1000
0010
0100
,
0001
0100
0001
0000
0100
0000
0010
0000
,
1000
0100
1000
0000
0001
0010
0001
0100
,
0001
0000
1000
0010
1000
0100
0010
0000
,
0100
0010
0001
0010
0100
0000
0010
0100
,
1000
0100
0010
0000
0001
1000
0001
0000
,
0100
0010
0100
0001
,
0100
0010
0100
0000
0001
0000
0010
0000
,
0001
1000
0001
0000
1000
0000
0100
0000
,
0010
0001
0010
0100
,
1000
1001
0001
0000
,
0100
0000
0010
0000
,
1000
0001
1000
0000
,
0010
0000
0100
0000
,
0001
0010
0001
0000
,
0010
0000
0100
0000
,
1000
0000
0002
0000
,
0000
0000
0003
0000
;

//---------------dance-single - ----------------
#NOTES:
     dance-single:
     :
     Easy:
     5:
     0.238,0.266,0.010,0.061,0.000:
0000
0000
0000
0000
,
0000
0000
0000
0000
,
0000
0000
0000
0000
,
0000
0000
0000
0000
,
1000
0010
0100
0000
,
0001
1000
0010
0000
,
0100
0001
0010
0000
,
0001
1000
0100
1000
,
0010
0100
0001
0000
,
0010
0100
1000
0000
,
0001
0100
0010
0000
,
0100
0001
1000
0001
,
0020
0000
0100
0000
,
0230
0000
1000
0000
,
2300
0000
0010
0000
,
3020
0000
0100
0000
,
0130
0000
0001
0010
,
0100
0000
1000
0100
,
0010
0000
0001
0100
,
0010
0000
1000
0001
,
0010
0000
0001
1000
,
0100
0000
1000
0010
,
0100
0000
0001
0000
,
0010
0100
1000
0001
,
1000
0100
0010
0001
,
0200
0000
0000
0000
,
0000
0000
0000
0300
,
0000
0000
0001
0010
,
0100
0000
0010
0100
,
1000
0000
0001
0010
,
0100
1000
0100
0010
,
0001
0000
1000
0010
,
0100
0000
0010
0100
,
0001
0000
1000
0001
,
0010
0001
0100
0010
,
1000
0100
0010
0000
,
0001
1000
0010
0000
,
1000
0001
0100
0000
,
0001
0010
0100
0000
,
1000
0100
0010
0000
,
0001
0100
0010
0000
,
1000
0010
0100
0001
,
0100
0010
1000
0000
,
1001
0000
1000
0100
,
1000
0100
0010
0001
,
0010
0001
0010
0100
,
1000
0010
0100
0001
,
0010
0100
0010
0000
,
0001
1000
0010
0000
,
1000
0100
0010
0000
,
0001
0010
0001
0010
,
0100
1000
0001
0000
,
0010
0000
0001
0000
,
1000
0000
0010
0000
,
0100
0000
0001
0000
,
0010
0000
0001
0010
,
0001
0010
0100
0000
,
1000
0000
0020
0000
,
0000
0000
0030
0000
;
