#TITLE:魔法の言葉;
#SUBTITLE:~Would you marry me?~;
#ARTIST:Do As Infinity;
#TITLETRANSLIT:Mahou no Kotoba;
#SUBTITLETRANSLIT:;
#ARTISTTRANSLIT:;
#CREDIT:Xythar;
#BANNER:Mahou no Kotoba-bn.avi;
#BACKGROUND:Mahou no Kotoba-bg.png;
#LYRICSPATH:Mahou no Kotoba.lrc;
#CDTITLE:daiseries.png;
#MUSIC:Mahou no Kotoba.mp3;
#OFFSET:0.432;
#SAMPLESTART:63.319;
#SAMPLELENGTH:11.957;
#SELECTABLE:YES;
#BPMS:0.000=159.995;
#STOPS:;
#BGCHANGES:1.750=Mahou no Kotoba.avi=1.000=0=0=1,
99999=-nosongbg-=1.000=0=0=0 // don't automatically add -songbackground-
;

//---------------dance-single - ----------------
#NOTES:
     dance-single:
     :
     Hard:
     8:
     0.566,0.563,0.340,0.265,0.000:
0000
0000
0000
0000
,
2000
0000
0001
0000
3001
0010
0100
1000
,
0000
0010
0000
0100
0000
0010
1000
0002
,
0000
0000
0100
0000
0103
0010
1000
0001
,
0000
0000
0000
0020
0000
0230
0000
2300
,
0000
0000
0010
0000
3010
0100
0001
1000
,
0000
0001
0000
0010
0000
0100
1000
0000
,
0101
0000
1010
0000
0001
0010
0100
0000
,
1000
0010
0100
0001
0010
0100
0010
0001
,
2000
0000
0010
0000
3010
0100
0001
1000
,
0000
0100
1000
0001
0000
0010
0100
0010
,
0002
0000
0100
0000
0103
0010
1000
0001
,
0000
0000
0000
2000
0000
3020
0000
0230
,
0000
0000
0001
0000
0301
1000
0100
1000
,
0000
0001
0000
0100
0000
0010
1000
0000
,
1100
0000
0011
0000
0100
1000
0001
0000
,
0001
0100
0010
1000
0100
0010
0001
0000
,
1001
0000
0010
0100
0001
0100
0000
1000
,
0000
0100
0001
0010
0000
1000
0010
0000
,
0100
0000
1010
0000
0101
0000
0001
0010
,
0000
0100
1000
0001
0000
0001
1000
0000
,
0010
0000
1100
0000
0011
0000
0100
1000
,
0000
0001
1000
0001
0000
0010
0100
0010
,
0001
0000
0101
0000
0010
1000
0001
0000
,
0001
0100
0010
1000
0100
0010
0001
1000
,
0001
0000
1000
0100
1000
0001
0000
0100
,
0000
1000
0100
0001
0000
1000
0100
1000
,
0001
0000
1010
0000
0101
0000
0010
1000
,
0100
0000
0010
0001
0100
0000
0010
1000
,
0001
0000
1100
0000
0011
0000
0100
1000
,
0000
0001
0100
0010
0000
0100
0001
1000
,
0001
1010
0101
1001
,
0100
0010
0001
0100
0010
1000
0100
0010
,
0002
1000
2003
0010
,
3010
0000
0100
0001
0000
0001
1000
0100
,
1000
0000
0010
0100
0000
0100
0001
0000
,
1000
0100
1000
0001
0000
0010
0000
0100
,
2000
0001
3020
0100
,
1030
0000
0100
0010
0000
0010
0001
1000
,
1001
0000
0010
0110
0000
0100
0001
0000
,
1100
0000
0001
0101
0000
0010
1000
0100
,
0110
0000
0001
1001
0000
0010
0100
0001
,
1000
0000
0000
0000
1000
0100
0010
0001
,
0200
0000
0010
0000
0310
0000
0100
0001
,
0000
0001
1000
0000
0001
0010
0100
1000
,
0020
0000
0100
0000
0130
0000
0010
1000
,
0000
1000
0001
0000
1000
0010
0100
0001
,
2000
0000
0100
0000
3100
0000
0010
0001
,
0000
0001
1000
0000
0010
0100
0001
0000
,
1100
0011
0101
1010
,
0001
0010
0100
1000
0010
0100
0001
1000
,
0002
0000
1000
0000
1003
0000
0100
0010
,
0000
0010
0100
0000
1000
0010
0100
0001
,
0020
0000
0100
0000
0130
0000
1000
0001
,
0000
0001
1000
0000
0010
0100
0001
0100
,
0020
0000
1000
0000
1030
0000
0100
0010
,
0000
0010
0001
0000
0100
0010
0100
0000
,
1001
0110
1001
0110
,
0001
0010
0100
1000
0010
0100
0001
0010
,
0200
0000
1000
0000
1300
0001
1000
0001
,
0000
0100
0010
0100
0000
0001
1000
0100
,
2000
0000
0010
0000
3010
0100
0001
1000
,
0000
0100
0010
0002
0000
2003
0000
3020
,
0000
0000
0001
0000
0031
0010
1000
0001
,
0000
0100
0010
1000
0000
0100
0010
0000
,
0110
0000
1001
0000
0010
0100
0001
0000
,
0001
0100
0010
1000
0100
0010
0001
1000
,
0020
0000
0100
0000
0130
0001
1000
0100
,
0000
1000
0001
0100
0000
1000
0100
0001
,
0020
0000
1000
0000
1030
0010
0001
1000
,
0000
0010
0100
0002
0000
0023
0000
0230
,
0000
0000
0001
0000
0301
0100
1000
0001
,
0000
0100
0010
1000
0000
0100
0010
0000
,
0011
1100
0010
0101
,
1010
0100
0011
1100
,
0001
0110
2002
0000
,
0000
0000
0000
0000
,
0000
0000
0000
0000
,
0000
0000
0000
0000
,
0000
0000
0000
0000
0000
0000
0000
3003
;

//---------------dance-single - ----------------
#NOTES:
     dance-single:
     :
     Medium:
     6:
     0.443,0.430,0.191,0.323,0.000:
0000
0000
0000
0000
,
2000
0000
0010
0000
3010
0000
0100
0001
,
0000
0010
0000
0100
0000
1000
0001
2000
,
0000
0000
0100
0000
3100
0000
0010
0001
,
0000
0000
0000
2000
0000
3020
0000
0230
,
0000
0000
0001
0000
0301
0000
1000
0001
,
0000
0010
0000
0100
0000
1000
0100
0000
,
1000
0010
0100
0001
,
0100
0010
1000
0000
0001
0010
0100
0000
,
2000
0000
0010
0000
3010
0000
1000
0001
,
0000
1000
0000
0100
0000
0010
0001
0020
,
0000
0000
0001
0000
0031
0000
0100
0010
,
0000
0000
0000
0200
0000
0302
0000
2003
,
0000
0000
0100
0000
3100
0000
0010
0001
,
0000
0100
0000
0010
0000
0100
0001
0000
,
1000
0110
0001
0010
,
0100
1000
0001
0000
0100
0001
1000
0000
,
0100
0000
0100
0000
0010
0001
0000
1000
,
0000
0010
0000
0100
0000
0001
0000
0000
,
1000
0000
0001
0000
1001
0000
0001
0010
,
0000
0000
0010
0100
0000
0100
1000
0000
,
0001
0000
0100
0000
1010
0000
0100
0001
,
0000
0001
1000
0001
0000
1000
0000
0100
,
0010
0001
0100
0010
,
1000
0100
1000
0000
0001
0100
0001
0000
,
1000
0000
0010
0100
0010
0000
0000
0100
,
0000
0001
0000
1000
0000
0200
0000
0000
,
0310
0000
0001
0000
1001
0000
0000
0010
,
0000
0100
0000
0001
0000
2000
0000
0000
,
3100
0000
1000
0000
0101
0000
0000
0010
,
0000
1000
0000
0100
0000
1000
0000
0001
,
0100
0110
1000
0100
,
0010
0000
0001
0000
1000
0001
1000
0001
,
2000
0000
3002
0000
,
0203
0000
0000
0010
0000
0310
1000
0000
,
0100
0010
0001
1000
,
0001
0100
0000
0010
0000
1000
0000
0100
,
0020
0000
0032
0000
,
0203
0000
0000
0320
0000
0000
2030
0000
,
0100
0000
0000
3001
0000
0000
0100
0000
,
0010
0000
0000
1010
0000
0000
0001
0000
,
0020
0000
0000
0100
0000
0000
0100
0000
,
0130
0000
1000
0001
,
2001
0000
0100
0000
3100
0000
0010
0001
,
0000
1000
0000
0000
0001
0000
0100
0000
,
0120
0000
1000
0000
1030
0000
0100
0010
,
0000
0001
0000
0000
0100
0000
0010
0000
,
2010
0000
0001
0000
3001
0000
0010
0100
,
0000
1000
0000
0000
0001
1000
0001
0000
,
1001
0010
0101
0010
,
1100
0000
0010
0000
0001
1000
0001
0000
,
2001
0000
0010
0000
3010
0000
0100
0001
,
0000
1000
0000
0000
0100
0000
0010
0000
,
0012
0000
1000
0000
1003
0000
0010
0100
,
0000
0001
0000
0000
1000
0000
0100
0000
,
0210
0000
1000
0000
1300
0000
0010
0100
,
0000
0001
0000
0000
0010
0100
0010
0000
,
0110
0001
1010
0100
,
0011
0000
0100
0000
1000
0001
1000
0001
,
2000
0000
0010
0000
3010
0000
0100
0001
,
0000
1000
0000
0100
0000
0010
0001
0020
,
0000
0000
0100
0000
0130
0000
1000
0001
,
0000
0000
0000
0200
0000
0320
0000
2030
,
0000
0000
0100
0000
3100
0000
1000
0001
,
0000
0100
0000
0010
0000
0100
0001
0100
,
0001
0010
0100
1000
,
0010
0000
0100
0000
0001
1000
0100
0000
,
2000
0000
0001
0000
3001
0000
0100
0010
,
0000
0100
0000
0001
0000
1000
0100
2000
,
0000
0000
0010
0000
3010
0000
0100
0001
,
0000
0000
0000
0200
0000
0320
0000
2030
,
0000
0000
0100
0000
3100
0000
0010
0001
,
0000
0100
0000
0010
0000
0100
0001
0000
,
1000
0100
0011
0100
,
1000
0101
0010
1000
,
0011
0100
2002
0000
,
0000
0000
0000
0000
,
0000
0000
0000
0000
,
0000
0000
0000
0000
,
0000
0000
0000
0000
0000
0000
0000
3003
;

//---------------dance-single - ----------------
#NOTES:
     dance-single:
     :
     Easy:
     4:
     0.302,0.331,0.116,0.240,0.000:
0000
0000
0000
0000
,
1000
0000
0001
0000
0001
0000
0000
0010
,
0000
0000
0000
0100
0000
0000
1000
0000
,
0000
0000
0001
0000
0001
0000
0000
0100
,
0000
0000
0000
0020
0000
2030
0000
3002
,
0000
0003
0010
0000
0010
0000
0000
0100
,
0000
0000
0000
1000
0000
0000
0001
0000
,
0100
0010
0100
0001
,
1000
0100
0010
0001
,
1000
0000
0100
0000
0100
0000
0000
1000
,
0000
0000
0000
0010
0000
0000
0100
0000
,
0000
0000
0001
0000
0001
0000
0000
0010
,
0000
0000
0000
0200
0000
2300
0000
3002
,
0000
0003
0100
0000
0100
0000
0000
0010
,
0000
0000
0000
1000
0000
0000
0100
0000
,
0010
0001
0100
0010
,
0100
0001
0010
0100
,
1001
0000
0000
0000
0001
0000
0000
1000
,
0000
0000
0000
0001
0000
0000
0000
0000
,
0000
0000
0100
0000
0010
0000
0000
0100
,
0000
0000
0000
0001
0000
0000
1000
0000
,
0000
0000
0100
0000
0010
0000
0000
0001
,
0000
0000
0000
0100
0000
0000
0010
0000
,
1000
0001
1000
0100
,
1000
0010
0100
0001
,
1000
0000
0000
0000
0010
0000
0000
0100
,
0000
0000
0000
0001
0000
0000
0000
0000
,
1000
0000
0100
0000
0010
0000
0000
0001
,
0000
0000
0000
0100
0000
0000
0010
0000
,
1000
0000
0001
0000
1001
0000
0000
0010
,
0000
0000
0000
0100
0000
0000
1000
0000
,
1001
0001
0100
0010
,
1000
0100
0010
0001
,
2000
0000
3002
0000
,
2003
0000
0000
0000
,
3002
0000
0203
0000
,
0320
0000
0030
0000
,
2000
0000
3200
0000
,
0320
0000
0000
0001
0000
0000
0031
0000
,
1001
0000
0000
1001
0000
0000
0000
0000
,
0110
0000
0000
0110
0000
0000
0000
0000
,
1001
0000
0000
2001
0000
0000
0000
0000
,
3100
0000
0010
0001
,
2000
0000
0000
3001
,
0000
0000
0100
0010
,
2000
0000
0000
3100
,
0000
0000
0010
0001
,
2000
0000
0000
3010
,
0000
0000
0100
0001
,
1000
0100
0010
0001
,
0100
0010
0100
0001
,
2000
0000
0000
3100
,
0000
0000
1000
0010
,
0200
0000
0000
0301
,
0000
0000
0010
0100
,
2000
0000
0000
3001
,
0000
0000
0100
0010
,
0100
0001
0010
0100
,
1000
0001
1001
1001
,
1000
0000
0010
0000
0100
0000
0000
0001
,
0000
0000
0000
1000
0000
0000
0001
0000
,
0000
0000
0010
0000
0100
0000
0000
1000
,
0000
0000
0000
0020
0000
0230
0000
0302
,
0000
0003
1000
0000
0100
0000
0000
1000
,
0000
0001
0000
0100
0000
0001
0000
0000
,
1000
0100
0010
0100
,
1000
0010
0100
0001
,
1000
0000
0100
0000
1000
0000
0000
0010
,
0000
0100
0000
0010
0000
0000
0100
0000
,
0000
0000
0001
0000
1000
0000
0000
0100
,
0000
0000
0000
2000
0000
3002
0000
0203
,
0000
0300
0010
0000
0010
0000
0000
0100
,
0000
0001
0000
1000
0000
0000
0100
0000
,
1000
0001
1001
0001
,
1000
1001
0010
0100
,
0110
0100
0020
0000
,
0000
0000
0000
0000
,
0000
0000
0000
0000
,
0000
0000
0000
0000
,
0000
0000
0000
0000
0000
0000
0000
0030
;

//---------------dance-single - ----------------
#NOTES:
     dance-single:
     :
     Beginner:
     2:
     0.175,0.188,0.066,0.000,0.000:
0000
0000
0000
0000
,
1000
0000
0001
0000
,
0100
0000
0010
0000
,
1000
0000
0100
0000
,
0010
0000
0000
0000
,
0001
0000
0100
0000
,
0010
0000
0100
0000
,
0001
0001
0000
1000
,
1000
0000
0100
0000
,
0010
0000
0100
0000
,
1000
0000
0010
0000
,
0100
0000
0001
0000
,
1000
0000
0000
0000
,
0001
0000
0010
0000
,
0100
0000
1000
0000
,
0001
0001
0000
1000
,
1000
0000
0001
0000
,
1001
0000
0001
0000
,
0100
0000
0010
0000
,
0000
0100
0100
0000
,
0001
0000
1000
0000
,
0000
0100
0100
0000
,
0010
0000
0001
0000
,
1000
1000
0000
0001
,
0001
0000
1001
0000
,
1000
0000
0010
0000
,
0100
0000
0000
0000
,
0000
0001
0001
0000
,
1000
0000
0100
0000
,
0000
1000
1000
0000
,
0010
0000
0100
0000
,
0001
0001
0000
1000
,
1000
0000
0110
0000
,
0001
0000
1000
0000
,
0001
0000
0000
0000
,
0100
0000
0010
0000
,
0100
0000
0000
0000
,
0001
0000
0010
0000
,
0100
0000
1000
0000
,
1001
0000
0000
0000
,
0110
0000
0000
0000
,
1001
0000
0000
0000
,
1001
0000
0000
0000
,
0001
0000
0000
0000
,
0100
0000
0001
0000
,
1000
0000
0000
0000
,
0100
0000
0010
0000
,
0001
0000
0000
0000
,
0001
0000
0000
0000
,
1000
1000
0000
0001
,
0001
0000
1000
0000
,
0100
0000
0000
0000
,
0010
0000
0001
0000
,
0100
0000
0000
0000
,
0010
0000
1000
0000
,
0100
0000
0000
0000
,
1000
0000
0001
0000
,
1000
1000
0000
0001
,
0001
0000
1000
0000
,
0010
0000
0000
0000
,
0100
0000
0001
0000
,
1000
0000
0000
0000
,
0100
0000
0010
0000
,
0001
0000
0000
0000
,
0100
0000
0010
0000
,
0100
0100
0000
0010
,
0010
0000
0110
0000
,
0100
0000
0001
0000
,
1000
0000
0100
0000
,
0010
0000
0001
0000
,
1000
0000
0010
0000
,
0100
0000
0010
0000
,
1000
0000
0001
0000
,
0010
0010
0000
0100
,
0100
0000
1000
1000
,
0000
0001
0001
0000
;
