#TITLE:M.A.G.I.C speed ball;
#SUBTITLE:;
#ARTIST:kenta-v.ez. ft. good-cool;
#TITLETRANSLIT:;
#SUBTITLETRANSLIT:;
#ARTISTTRANSLIT:;
#CREDIT:Xythar;
#BANNER:M.A.G.I.C speed ball.png;
#BACKGROUND:M.A.G.I.C speed ball-bg.png;
#LYRICSPATH:;
#CDTITLE:cdtitle.png;
#MUSIC:M.A.G.I.C speed ball.mp3;
#OFFSET:-12.085;
#SAMPLESTART:27.280;
#SAMPLELENGTH:12.000;
#SELECTABLE:YES;
#DISPLAYBPM:150.000:300.000;
#BPMS:0.000=300.000,230.000=150.000,264.000=300.000,268.000=152.350,272.000=162.085,276.000=172.361,280.000=182.344,284.000=192.206,288.000=202.191,292.000=212.040,296.000=449.876,298.000=459.276,300.000=235.236,302.000=244.052,304.000=261.917,306.000=268.395,308.000=289.573,310.000=299.814,312.000=309.615,314.000=323.244,316.000=340.033,318.000=373.175,320.000=417.254,322.000=448.809,324.000=480.571,326.000=581.281,328.000=586.442,330.000=586.371,332.000=636.196,334.000=671.827,336.000=721.297,338.000=756.935,340.000=806.345,342.000=841.285,344.000=891.093,346.000=926.186,348.000=976.845,350.000=1011.132,352.000=1061.482,354.000=1096.372,356.000=1146.396,358.000=1181.285,360.000=1231.936,362.000=1266.295,364.000=1361.337,366.000=1396.238,368.000=1446.573,370.000=1481.765,372.000=1531.492,374.000=1566.666,376.000=1616.296,378.000=1651.264,380.000=1701.276,382.000=1736.396,384.000=1786.406,386.000=1821.692,388.000=1871.497,390.000=1906.244,392.000=1956.993,394.000=1991.447,396.000=2041.285,427.000=300.000;
#STOPS:68.000=1.200
,230.000=0.800
,264.000=0.200
,265.000=0.200
,266.000=0.200
,267.000=0.200
,296.000=0.133
,297.000=0.133
,298.000=0.128
,299.000=0.128
,427.000=0.472
,476.000=1.200
,614.000=1.200
;
#BGCHANGES:;

//---------------dance-single - ----------------
#NOTES:
     dance-single:
     :
     Easy:
     6:
     0.359,0.503,0.150,0.079,0.000:
0000
0000
0000
0000
,
1000
0000
0100
0000
,
1000
0010
0100
0000
,
0001
0000
0010
0000
,
0100
0010
0001
0000
,
1000
0000
0010
0000
,
0100
0001
0100
0000
,
0001
0000
0010
0000
,
0100
1000
0100
0000
,
1000
0000
0001
0000
,
1000
0100
1000
0000
,
0001
0000
1000
0000
,
0010
0100
0010
0000
,
0101
0000
0000
0000
,
1010
0000
0000
0000
,
1100
0000
0110
0000
,
0001
0010
0001
0010
,
0001
0000
1000
0000
,
0010
0000
0100
0000
,
0001
0000
1000
0000
,
0100
0000
0010
0100
,
0010
0000
0001
0000
,
0100
0000
0010
0000
,
1000
0000
0010
0000
,
0110
0000
0001
0000
,
1001
0000
1000
0000
,
0100
0000
0010
0001
,
0010
0000
0100
0000
,
1000
0000
0010
0100
,
0010
0000
0100
0000
,
0001
0000
1000
0001
,
1000
0000
0001
0000
,
0011
0000
0100
0000
,
1100
0000
1000
0000
,
0010
0000
0100
0001
,
0100
0000
0001
0010
,
0001
0000
1000
0100
,
1000
0100
1000
0000
,
0001
0000
0100
0000
,
0010
0000
1000
0001
,
1000
0000
0001
0100
,
0001
0100
0001
0000
,
1000
0000
0010
0000
,
0100
0000
0101
0000
,
0110
0000
1010
0000
,
1001
0000
0011
0000
,
1000
0000
0100
0000
,
0010
0000
0001
1000
,
0001
1000
0001
1000
,
0001
0000
0100
0000
,
0010
0000
1000
0000
,
0100
0000
0010
0000
,
0001
0000
1000
0000
,
0010
0000
0100
0000
,
0001
0000
0100
0000
,
0010
0000
1000
0000
,
0100
0000
0010
0000
,
0001
0000
1000
0000
,
0001
0010
0100
1000
,
0010
0000
0100
0001
,
0010
0000
0100
1000
,
0010
0000
0100
0001
,
1000
0000
0010
1000
,
0001
0000
1000
0100
,
0010
0000
0001
0100
,
0010
0000
1000
0001
,
1001
0000
1001
0000
,
0001
0000
0010
0100
,
1000
0000
0100
0010
,
0001
0000
1000
0010
,
0100
0000
0001
0100
,
0010
0000
1000
0001
,
1000
0000
0010
0100
,
0010
0000
0100
0010
,
0110
0000
0110
0000
,
1000
0000
0100
0000
,
0010
0000
0001
0000
,
0100
0000
0010
0000
,
0100
0000
0001
0000
,
2000
0000
0000
0000
,
0000
0000
0000
0000
,
0000
0000
0000
0000
,
0000
0000
0000
0000
,
0000
0000
0000
0000
,
0000
0000
0000
0000
,
0000
0000
0000
0000
,
0000
0000
0000
0000
,
0000
0000
0000
0000
,
0000
0000
0000
0000
,
0000
0000
0000
0000
,
0000
0000
0000
0000
,
0000
0000
0000
0000
,
0000
0000
0000
0000
,
0000
0000
0000
0000
,
0000
0000
0000
0000
,
0000
0000
0000
0000
,
0000
0000
0000
0000
,
0000
0000
0000
0000
,
0000
0000
0000
0000
,
0000
0000
0000
0000
,
0000
0000
0000
0000
,
0000
0000
0000
0000
,
0000
0000
0000
0000
,
0000
0000
0000
0000
,
0000
0000
0000
0000
,
0000
0000
0000
0000
,
0000
0000
0000
3000
,
0001
0000
0010
0000
,
0100
0000
1000
0000
,
0101
0000
0100
0000
,
0010
0000
1000
0000
,
1001
0000
1000
0000
,
0010
0000
0100
0000
,
0101
0000
1000
0000
,
0100
0010
0100
0010
,
0100
0000
0010
0000
,
0001
0000
0100
0000
,
1010
0000
0001
0000
,
0010
0000
0100
0000
,
2000
0000
0100
0000
,
0100
0000
0100
0000
,
3100
0000
1000
0000
,
0010
0000
0100
0000
,
0010
0000
1000
0000
,
0100
0000
0010
0000
,
0001
1000
0001
0000
,
0010
0000
0100
0000
,
1000
0000
0010
0000
,
0100
0001
0100
0001
,
0100
0000
0000
0000
0010
0000
0000
1000
,
0000
0000
0100
0000
0010
0000
0000
0001
,
0000
0000
0100
0000
0010
0000
0000
1000
,
0000
0000
0100
0000
0010
0000
0000
0001
,
0000
0000
1000
0000
0010
0000
0000
0100
,
0000
0000
0001
0000
1000
0000
0000
0010
,
0000
0000
0100
0000
0001
0000
0000
1000
,
0000
0010
0100
0001
,
0100
0010
0100
0001
,
0100
0000
0010
1000
,
0010
0000
1000
0100
,
1000
0000
0010
0100
,
0010
0000
0100
0001
,
0100
0000
0001
0010
,
0001
0000
1000
0100
,
1000
0100
0010
0001
,
0010
0000
0100
0010
,
0100
0000
1000
0001
,
1000
0000
0010
0100
,
0010
0000
1000
0001
,
1000
0000
0002
0000
,
2003
0000
3002
0000
,
2003
0000
3020
0000
,
0230
0000
0302
0000
,
2003
0000
3200
0000
,
0010
0000
0010
0000
,
0010
0000
0310
0000
,
0001
0000
0000
0000
;

//---------------dance-single - ----------------
#NOTES:
     dance-single:
     :
     Hard:
     10:
     0.767,0.950,0.394,0.036,0.133:
0000
0000
0000
0000
,
1001
1000
0100
0010
,
0001
0100
0001
0100
0000
0100
0010
0000
,
1010
1000
0001
0010
,
0100
0010
0100
0010
0000
0010
0100
0000
,
1100
1000
0001
0100
,
0001
0100
0001
0100
0000
0100
0001
0000
,
1001
1000
0010
0100
,
0010
0100
0010
0100
0000
0100
0001
0000
,
1100
0010
0001
1000
,
0001
0010
0001
0010
0000
0010
0100
0000
,
0011
1000
0010
0100
,
0001
0100
0001
0100
0000
0100
0010
0000
,
0101
0001
1000
0100
,
0010
0001
0010
0001
0000
0001
1000
0000
,
1001
0000
1100
0000
,
0100
0010
0001
0010
0001
0010
0100
0010
,
0001
0000
1000
0100
,
0010
0001
0100
0010
,
1000
0100
0010
0100
1000
0000
0001
0000
,
0100
0010
0100
0001
,
1000
0100
0000
0100
1000
0000
0001
0000
,
0010
0001
1000
0010
,
0100
0001
1000
0001
0010
0000
0000
0100
,
0010
0000
0001
0010
0001
0000
1000
0010
,
0000
0010
0100
0000
0101
0000
0001
0000
,
1000
0100
0010
0001
,
0100
0010
0100
0001
1000
0000
0100
0000
,
1000
0001
0010
0001
,
0010
0100
0000
0100
1000
0000
0100
0000
,
0010
0001
0100
0010
,
1000
0001
0010
0001
1000
0000
0000
0100
,
1000
0000
0001
1000
0001
0000
0010
0001
,
0000
0001
0100
0000
1001
0000
0100
0000
,
0010
0000
1000
0000
0001
0010
0001
1000
,
0000
1000
0010
0000
1000
0100
1000
0100
,
0010
0000
0100
0010
0100
0010
0001
0010
,
0001
0010
0001
0100
0001
0000
0100
0000
,
0010
0000
1000
0000
0100
0010
0001
0010
,
0000
0010
0001
0000
0100
0010
0000
0110
,
0000
1010
0000
1000
0010
0000
0010
0100
,
0000
0100
0001
0000
0101
0000
0010
0000
,
1000
0000
0100
0000
1000
0100
1000
0001
,
0000
0001
0100
0000
0001
0100
0001
0000
,
1000
0100
1000
0000
0001
0010
0001
0000
,
1000
0010
1000
0000
1001
0000
0001
0000
,
1000
0000
0010
0000
0100
0001
0100
0010
,
0000
0000
1000
0000
0100
1000
0000
1000
,
0001
0000
1000
0100
0010
0000
0010
0100
,
0000
1000
0001
0000
1001
0000
0100
0000
,
0010
0000
0100
0000
0001
0100
0001
1000
,
0000
1000
0100
0000
0011
0000
0001
0000
,
0100
0000
0010
0000
1000
0001
0010
0100
,
0000
0100
1000
0000
0011
0000
0100
0000
,
0010
0001
1000
0010
,
0100
0000
0010
0100
0010
0000
0000
0100
,
0001
0000
0001
1000
0001
0000
1000
0100
,
0000
0100
0010
0000
0002
0000
0000
0000
,
1000
1000
1000
1003
,
1000
0000
0000
0100
0000
0000
0010
0000
0001
0000
0000
0001
1000
0000
0000
1000
,
0001
0000
0000
0010
0000
0000
0100
0000
1000
0000
0000
1000
0001
0000
0000
0001
,
0100
0000
0000
0010
0000
0000
1000
0000
0100
0000
0000
0010
0001
0000
0000
0001
,
1000
1010
0100
0101
,
0001
0000
0000
0100
0000
0000
0010
0000
0100
0000
0000
0100
0001
0000
0000
0001
,
1000
0000
0000
0010
0000
0000
0100
0000
0010
0000
0000
1000
0001
0000
0000
0001
,
0010
0000
0000
0100
0000
0000
0010
0000
0001
0000
0000
0001
0100
0000
0000
0000
,
0101
1000
1010
0100
,
1000
0000
0000
0100
0000
0000
1000
0000
0010
0000
0000
0010
0100
0000
0000
0100
,
0001
0000
0000
1000
0000
0000
0001
0000
0010
0000
0000
0010
0100
0000
0000
0100
,
1000
0000
0000
0001
0000
0000
1000
0000
0010
0000
0000
0010
1000
0000
0000
1000
,
0001
0000
0000
0010
0000
0000
0100
0000
1000
0000
0000
0100
1000
0000
0000
1000
,
0010
0000
0000
0100
0000
0000
0001
0000
1000
0000
0000
1000
0001
0000
0000
0001
,
0010
0000
0000
0100
0000
0000
1000
0000
0010
0000
0000
0100
0010
0000
0000
0010
,
1000
0000
0000
0010
0000
0000
0100
0000
0001
0000
0000
0000
0001
1000
0000
0000
,
1001
0100
0110
0001
,
1000
0100
0010
0001
,
1000
0010
0100
0001
,
1000
0001
0010
0100
,
1000
0001
0100
0001
,
2002
0000
0000
0000
,
0M00
0000
0000
0000
,
00M0
0000
0000
0000
,
0M00
0000
0000
0000
,
00M0
0000
0000
0000
,
0M00
0000
0000
0000
,
00M0
0000
0000
0000
,
0M00
0000
0000
0000
,
00M0
0000
0000
0000
,
0M00
0000
0000
0000
,
00M0
0000
0000
0000
,
0M00
0000
0000
0000
,
00M0
0000
0000
0000
,
0M00
0000
0000
0000
,
00M0
0000
0000
0000
,
0M00
0000
0000
0000
,
00M0
0000
0000
0000
,
0M00
0000
0000
0000
,
00M0
0000
0000
0000
,
0M00
0000
0000
0000
,
00M0
0000
0000
0000
,
0M00
0000
0000
0000
,
00M0
0000
0000
0000
,
0M00
0000
0000
0000
,
00M0
0000
0000
0000
,
0M00
0000
0000
0000
,
00M0
0000
0000
0000
,
0M00
0000
0000
3003
,
1001
0000
1000
0100
0010
0100
1000
0010
,
0100
0001
0100
0001
1000
0100
0010
0000
,
0011
0000
0001
0100
0001
1000
0001
0010
,
0100
0010
0001
1000
0010
1000
0001
0000
,
1100
0000
0100
0010
0001
1000
0010
0100
,
0010
1000
0100
0010
0001
1000
0100
0000
,
0110
0000
0010
0001
1000
0001
0100
0000
,
0101
0100
0110
0010
,
1010
0000
1000
0100
1000
0001
1000
0001
,
0010
0001
1000
0010
0100
0001
1000
0000
,
1010
0000
0100
0001
1000
0100
1000
0001
,
0010
0100
1000
0100
0010
0001
1000
0000
,
0002
0000
1000
0000
,
1000
0000
0003
0000
1000
0001
1000
0001
,
1000
0001
1000
0000
0001
0000
0010
0000
,
0100
1000
0100
0010
,
0001
0100
0010
0100
0001
0000
1000
0000
,
0001
0100
0010
1000
,
0100
1000
0000
1000
0001
0000
1000
0000
,
0010
0100
0010
1000
,
0001
1000
0100
0010
0001
0000
0000
0001
,
1000
0000
1000
0010
0100
0000
0100
0001
,
0000
0001
1000
0000
1100
0000
0000
0110
,
0000
0000
0011
0000
0101
0000
0000
0110
,
0000
0000
1010
0000
1001
0000
0000
0110
,
0000
0000
1100
0000
1001
0000
0000
0101
,
0000
0000
0110
0000
1010
0000
0000
1001
,
0000
0000
0011
0000
0110
0000
0000
1100
,
0000
0000
1001
0000
0101
0000
0000
0110
,
0000
1010
1000
0100
,
0010
0000
0001
0000
1000
0100
1000
0100
,
1000
0100
0010
0000
0001
0100
0001
0100
,
0001
0100
0010
0000
1000
0100
0010
0001
,
0100
0010
1000
0001
1000
0010
0100
0001
,
0010
0100
1000
0000
0001
0010
0001
0010
,
0100
0010
0100
0010
0100
1000
0100
1000
,
0001
1000
0100
0000
1000
0001
0010
0001
,
0010
0100
1000
0000
0100
1000
0100
0010
,
0001
0100
0010
0000
0100
0001
0100
0001
,
1000
0100
0010
0100
0010
0001
0010
0001
,
1000
0010
0100
0000
0001
0100
0010
1000
,
0100
1000
0001
0100
0001
1000
0010
0100
,
0001
0010
0100
1000
0100
0010
0100
0010
,
0001
0100
0010
0100
0001
1000
0100
1000
,
0001
0010
0100
1000
0010
0100
0010
1000
,
0100
1000
0001
0100
0010
0100
0001
1000
,
0010
1000
0001
0010
0200
0000
0000
0000
,
0010
0000
0010
0000
,
0010
0000
0310
0000
,
1001
0000
0000
0000
;

//---------------dance-single - ITG Style----------------
#NOTES:
     dance-single:
     ITG Style:
     Edit:
     10:
     0.779,1.000,0.423,0.107,0.133: // measure 1
0000
0000
0000
0000
,  // measure 2
1001
1000
0100
0010
,  // measure 3
0001
0100
0001
0100
000M
0100
0010
0000
,  // measure 4
1010
1000
0001
0010
,  // measure 5
0100
0010
0100
0010
M000
0010
0100
0000
,  // measure 6
1100
1000
0001
0100
,  // measure 7
0001
0100
0001
0100
000M
0100
0001
0000
,  // measure 8
1001
1000
0010
0100
,  // measure 9
0010
0100
0010
0100
M000
0100
0001
0000
,  // measure 10
1100
0010
0001
1000
,  // measure 11
0001
0010
0001
0010
M000
0010
0100
0000
,  // measure 12
0011
1000
0010
0100
,  // measure 13
0001
0100
0001
0100
000M
0100
0010
0000
,  // measure 14
0101
0001
1000
0100
,  // measure 15
M010
0001
0010
0001
0M00
0001
1000
0000
,  // measure 16
1MM1
0000
11MM
0000
,  // measure 17
0100
0010
0001
0010
0001
0010
0100
0010
,  // measure 18
0001
000M
0000
0000
1000
0000
0100
0000
,  // measure 19
0010
0001
0100
0010
,  // measure 20
1000
0100
0010
0100
1000
0000
0001
0000
,  // measure 21
0100
0010
0100
0001
,  // measure 22
1000
0100
00M0
0100
1000
0000
0001
0000
,  // measure 23
0010
0001
1000
0010
,  // measure 24
0100
0001
1000
0001
0010
0000
M000
0100
,  // measure 25
0010
0M00
0001
0010
0001
0M00
1000
0010
,  // measure 26
000M
0010
0100
0000
0101
0000
0001
0000
,  // measure 27
1000
0100
0010
0001
,  // measure 28
0100
0010
0100
0001
1000
0000
0100
0000
,  // measure 29
1000
0001
0010
0001
,  // measure 30
0010
0100
00M0
0100
1000
0000
0100
0000
,  // measure 31
0010
0001
0100
0010
,  // measure 32
1000
0001
0010
0001
1000
0000
00M0
0100
,  // measure 33
1000
00M0
0001
1000
0001
0M00
0010
0001
,  // measure 34
M000
0001
0100
0000
1001
0000
0100
0000
,  // measure 35
0010
0000
1000
0000
0001
0010
0001
1000
,  // measure 36
000M
1000
0010
0000
1000
0100
1000
0100
,  // measure 37
0010
000M
0100
0010
0100
0010
0001
0010
,  // measure 38
0001
0010
0001
0100
0001
0000
0100
0000
,  // measure 39
0010
0000
1000
0000
0100
0010
0001
0010
,  // measure 40
0M00
0010
0001
0000
0100
0010
0000
M11M
,  // measure 41
0000
1M1M
0000
1000
0010
0M00
0010
0100
,  // measure 42
00M0
0100
0001
0000
0101
0000
0010
0000
,  // measure 43
1000
0000
0100
0000
1000
0100
1000
0001
,  // measure 44
00M0
0001
0100
0000
0001
0100
0001
00M0
,  // measure 45
1000
0100
1000
0M00
0001
0010
0001
0M00
,  // measure 46
1000
0010
1000
0M00
1001
0000
0001
0000
,  // measure 47
1000
0000
0010
0000
0100
0001
0100
0010
,  // measure 48
000M
0000
1000
0000
0100
1000
00M0
1000
,  // measure 49
0001
0000
1000
0100
0010
000M
0010
0100
,  // measure 50
0000
1000
0001
0000
1001
0000
0100
0000
,  // measure 51
0010
0000
0100
0000
0001
0100
0001
1000
,  // measure 52
0M00
1000
0100
0000
0011
0000
0001
0000
,  // measure 53
0100
0000
0010
0000
1000
0001
0010
0100
,  // measure 54
00M0
0100
1000
0000
0011
0000
0100
0000
,  // measure 55
0010
0001
1000
0010
,  // measure 56
0100
0000
0010
0100
0010
000M
0000
0100
,  // measure 57
0001
M000
0001
1000
0001
0000
1000
0100
,  // measure 58
M000
0100
0010
0000
2002
0000
0000
0000
,  // measure 59
0010
0010
0010
3013
,  // measure 60
1000
0000
0000
0100
0000
0000
0010
0000
0001
0000
0000
0001
1000
0000
0000
1000
,  // measure 61
0001
0000
0000
0010
0000
0000
0100
0000
1000
0000
0000
1000
0001
0000
0000
0001
,  // measure 62
0100
0000
0000
0010
0000
0000
1000
0000
0100
0000
0000
0010
0001
0000
0000
0001
,  // measure 63
1000
1M1M
0100
M1M1
,  // measure 64
0001
0000
0000
0100
0000
0000
0010
0000
0100
0000
0000
0100
0001
0000
0000
0001
,  // measure 65
1000
0000
0000
0010
0000
0000
0100
0000
0010
0000
0000
1000
0001
0000
0000
0001
,  // measure 66
0010
0000
0000
0100
0000
0000
0010
0000
0001
0000
0000
0001
0100
0000
0000
0000
,  // measure 67
M2M2
1313
22MM
3311
,  // measure 68
1000
0000
0000
0100
0000
0000
1000
0000
0010
0000
0000
0010
0100
0000
0000
0100
,  // measure 69
0001
0000
0000
1000
0000
0000
0001
0000
0010
0000
0000
0010
0100
0000
0000
0100
,  // measure 70
1000
0000
0000
0001
0000
0000
1000
0000
0010
0000
0000
0010
1000
0000
0000
1000
,  // measure 71
0001
0000
0000
0010
0000
0000
0100
0000
1000
0000
0000
0100
1000
0000
0000
1000
,  // measure 72
0010
0000
0000
0100
0000
0000
0001
0000
1000
0000
0000
1000
0001
0000
0000
0001
,  // measure 73
0010
0000
0000
0100
0000
0000
1000
0000
0010
0000
0000
0100
0010
0000
0000
0010
,  // measure 74
1000
0000
0000
0010
0000
0000
0100
0000
0001
0000
0000
0000
0001
1000
0000
0000
,  // measure 75
2002
3003
M00M
0000
0220
0330
0MM0
0000
,  // measure 76
1000
0100
0010
0001
,  // measure 77
1000
0010
0100
0001
,  // measure 78
1000
0001
0010
0100
,  // measure 79
1000
0001
0100
0001
,  // measure 80
2002
0000
0000
0000
,  // measure 81
0M00
00M0
0M00
0000
0M00
00M0
0M00
00M0
,  // measure 82
0000
0MM0
0MM0
0MM0
0000
0M00
00M0
0MM0
,  // measure 83
0000
0MM0
0000
0MM0
0MM0
0MM0
0000
0M00
,  // measure 84
00M0
0MM0
0000
0MM0
0000
0MM0
0000
0MM0
,  // measure 85
0MM0
0MM0
0000
0MM0
0MM0
0000
0M00
0MM0
,  // measure 86
0000
0MM0
0MM0
0M00
00M0
0000
0M00
0MM0
,  // measure 87
00M0
0000
00M0
0M00
0000
0MM0
0MM0
0000
,  // measure 88
00M0
0MM0
0000
0MM0
00M0
0000
0MM0
0M00
,  // measure 89
00M0
0000
0M00
00M0
0M00
0MM0
0000
00M0
,  // measure 90
0MM0
0MM0
0MM0
0000
0M00
0MM0
0000
0MM0
,  // measure 91
0M00
0MM0
00M0
0000
0M00
0MM0
00M0
0000
,  // measure 92
0M00
0000
00M0
0MM0
0MM0
0000
0M00
0MM0
,  // measure 93
00M0
0MM0
0M00
0MM0
0000
0MM0
00M0
0M00
,  // measure 94
0MM0
0000
0MM0
0M00
0MM0
0MM0
0000
0MM0
,  // measure 95
0000
00M0
0M00
00M0
0M00
0000
00M0
0MM0
,  // measure 96
0000
0M00
0MM0
00M0
0000
0M00
00M0
0MM0
,  // measure 97
0MM0
0MM0
0000
0MM0
0MM0
0MM0
0MM0
0MM0
,  // measure 98
0000
0MM0
0MM0
0MM0
0MM0
0MM0
0000
0MM0
,  // measure 99
00M0
0M00
00M0
0M00
0000
0MM0
0MM0
00M0
,  // measure 100
0000
0M00
0MM0
0000
0MM0
0MM0
0000
00M0
,  // measure 101
0000
0MM0
0000
0M00
00M0
0M00
00M0
0000
,  // measure 102
0M00
0000
00M0
0MM0
0M00
00M0
0000
00M0
,  // measure 103
0M00
0000
0M00
00M0
0MM0
0M00
0000
00M0
,  // measure 104
0000
0000
0000
0000
0MM0
00M0
0M00
00M0
,  // measure 105
0000
0M00
0MM0
0M00
00M0
0000
0MM0
0M00
,  // measure 106
0MM0
0M00
0000
0MM0
0MM0
0MM0
0000
0MM0
,  // measure 107
0M00
0MM0
0000
00M0
0M00
00M0
3003
0000
,  // measure 108
1001
0000
1000
0100
0010
0100
1000
0010
,  // measure 109
0100
0001
0100
0001
1000
0100
0010
0000
,  // measure 110
MM11
0000
0001
0100
0001
1000
0001
0010
,  // measure 111
0100
0010
0001
1000
0010
1000
0001
0000
,  // measure 112
11MM
0000
0100
0010
0001
1000
0010
0100
,  // measure 113
0010
1000
0100
0010
0001
1000
0100
0000
,  // measure 114
M11M
0000
0010
0001
1000
0001
0100
0000
,  // measure 115
M1M1
010M
M11M
0M10
,  // measure 116
1M1M
0000
1000
0100
1000
0001
1000
0001
,  // measure 117
0010
0001
1000
0010
0100
0001
1000
0000
,  // measure 118
1M1M
0000
0100
0001
1000
0100
1000
0001
,  // measure 119
0010
0100
1000
0100
0010
0001
1000
0000
,  // measure 120
2002
0000
0010
0000
,  // measure 121
0010
0000
3003
0000
1000
0001
1000
0001
,  // measure 122
1000
0001
1000
0000
0001
0000
0010
0000
,  // measure 123
0100
1000
0100
0010
,  // measure 124
0001
0100
0010
0100
0001
0000
1000
0000
,  // measure 125
0001
0100
0010
1000
,  // measure 126
0100
1000
0M00
1000
0001
0000
1000
0000
,  // measure 127
0010
0100
0010
1000
,  // measure 128
0001
1000
0100
0010
0001
0000
0000
0001
,  // measure 129
1000
0M00
1000
0010
0100
00M0
0100
0001
,  // measure 130
0M00
0001
1000
0000
1100
0000
0000
M11M
,  // measure 131
0000
0000
0011
0000
0101
0000
0000
M11M
,  // measure 132
0000
0000
1010
0000
1001
0000
0000
M11M
,  // measure 133
0000
0000
1100
0000
1001
0000
0000
M1M1
,  // measure 134
0000
0000
0110
0000
1010
0000
0000
1MM1
,  // measure 135
0000
0000
0011
0000
0110
0000
0000
11MM
,  // measure 136
0000
0000
1001
0000
0101
0000
0000
M11M
,  // measure 137
0000
1010
1000
0100
,  // measure 138
0010
0000
0001
0000
1000
0100
1000
0100
,  // measure 139
1000
0100
0010
0M00
0001
0100
0001
0100
,  // measure 140
0001
0100
0010
0M00
1000
0100
0010
0001
,  // measure 141
0100
0010
1000
0001
1000
0010
0100
0001
,  // measure 142
0010
0100
1000
0M00
0001
0010
0001
0010
,  // measure 143
0100
0010
0100
0010
0100
1000
0100
1000
,  // measure 144
0001
1000
0100
00M0
1000
0001
0010
0001
,  // measure 145
0010
0100
1000
000M
0100
1000
0100
0010
,  // measure 146
0001
0100
0010
000M
0100
0001
0100
0001
,  // measure 147
1000
0100
0010
0100
0010
0001
0010
0001
,  // measure 148
1000
0010
0100
00M0
0001
0100
0010
1000
,  // measure 149
0100
1000
0001
0100
0001
1000
0010
0100
,  // measure 150
0001
0010
0100
1000
0100
0010
0100
0010
,  // measure 151
0001
0100
0010
0100
0001
1000
0100
1000
,  // measure 152
0001
0010
0100
1000
0010
0100
0010
1000
,  // measure 153
0100
1000
0001
0100
0010
0100
0001
1000
,  // measure 154
0010
1000
0001
0010
0200
0000
0000
0000
,  // measure 155
0010
0000
0010
0000
,  // measure 156
0010
0000
0310
0MM0
,  // measure 157
1001
0000
0000
0000
;

//---------------dance-single - ----------------
#NOTES:
     dance-single:
     :
     Medium:
     8:
     0.515,0.615,0.165,0.179,0.000:
0000
0000
0000
0000
,
1000
0100
1000
0001
,
0200
0000
0000
0310
0000
0000
0100
0000
,
0001
0100
0001
1000
,
0200
0000
0000
0310
0000
0000
0100
0000
,
1000
0001
0100
0001
,
0020
0000
0000
0130
0000
0000
1000
0000
,
0100
0010
0100
1000
,
0002
0000
0000
0103
0000
0000
0010
0000
,
0100
0001
1000
0100
,
2000
0000
0000
3010
0000
0000
1000
0000
,
0001
0100
0001
1000
,
0200
0000
0000
1300
0000
0000
0010
0000
,
0100
0001
0010
0100
,
2000
0000
0000
3100
0000
0000
0010
0000
,
0001
0100
0001
1000
,
0100
1000
0010
0100
,
0002
0000
1003
0010
,
0100
0001
0100
0001
,
1000
0100
0010
0100
,
0010
0001
0010
0001
,
1000
0010
1000
0100
,
1000
0001
0100
0010
,
0100
0001
1000
0000
,
0100
1000
0001
0100
,
0001
1000
0100
0010
,
0001
0010
0100
1000
,
0001
0100
0001
1000
,
0100
0010
0100
1000
,
0001
0000
1000
0010
,
0100
0010
1000
0001
,
0010
0100
0010
0100
,
1000
0001
1000
0000
,
0010
0000
0100
0001
,
1000
0000
0100
0000
2000
0000
0000
3010
,
0000
0100
0001
0010
,
0001
0010
0100
0010
,
0001
0010
0100
1000
,
0010
0000
0100
0000
0020
0000
0000
0130
,
0000
0000
0001
0000
1000
0100
0000
0010
,
0000
0001
0000
0010
0100
0000
1000
0000
,
0001
0100
0001
0010
,
0100
0000
1000
0000
0020
0000
0000
0130
,
0000
0001
1000
0100
,
1000
0010
1000
0001
,
1000
0100
0010
0001
,
0100
0000
0001
0000
2000
0000
0000
3100
,
0000
0010
0001
0100
,
0001
0100
0001
0010
,
0100
0000
1000
0010
,
0100
0001
1000
0100
,
0010
0001
1000
0100
,
1000
0100
0010
0001
,
0010
0001
1000
0010
,
0100
0010
1000
0001
,
0100
0001
1000
0100
,
1000
0001
0010
0100
,
1000
0100
0020
0000
,
0100
0100
0100
0130
,
1000
0010
0100
0101
,
0001
0010
0100
1100
,
1000
0001
0100
0101
,
0001
1000
0010
1010
,
1000
0010
0100
0110
,
0010
0100
0001
0101
,
0100
0001
1000
1001
,
0001
0010
0100
1000
,
0001
0100
0010
0110
,
0100
0001
1000
1001
,
0001
0010
0100
0110
,
0100
1000
0001
1001
,
1000
0001
0010
0011
,
0001
1000
0010
1010
,
1000
0100
0010
0011
,
0001
0010
0100
1000
,
0001
0000
0100
0000
,
0010
0000
1000
0000
,
0100
0000
0010
0000
,
0001
0000
1000
0000
,
2002
0000
0000
0000
,
0000
0000
0000
0000
,
0000
0000
0000
0000
,
0000
0000
0000
0000
,
0000
0000
0000
0000
,
0000
0000
0000
0000
,
0000
0000
0000
0000
,
0000
0000
0000
0000
,
0000
0000
0000
0000
,
0000
0000
0000
0000
,
0000
0000
0000
0000
,
0000
0000
0000
0000
,
0000
0000
0000
0000
,
0000
0000
0000
0000
,
0000
0000
0000
0000
,
0000
0000
0000
0000
,
0000
0000
0000
0000
,
0000
0000
0000
0000
,
0000
0000
0000
0000
,
0000
0000
0000
0000
,
0000
0000
0000
0000
,
0000
0000
0000
0000
,
0000
0000
0000
0000
,
0000
0000
0000
0000
,
0000
0000
0000
0000
,
0000
0000
0000
0000
,
0000
0000
0000
0000
,
0000
0000
0000
3003
,
1000
0100
0010
0100
,
0010
0100
0010
0001
,
1000
0010
0100
0010
,
0100
0010
0100
0001
,
1000
0100
1000
0001
,
0100
0001
1000
0010
,
0100
0001
0100
0001
,
1000
1000
0001
0001
,
0010
0100
1000
0001
,
1000
0001
0100
0010
,
0100
0010
1000
0001
,
1000
0001
0010
0100
,
2000
0000
0001
0000
,
0001
0000
0001
0000
,
3001
0000
1000
0100
,
1000
0001
0100
0010
,
0100
0001
0010
0100
,
0010
0001
1000
0010
,
1000
0001
1000
0010
,
0100
0001
1000
0100
,
0010
0001
1000
0000
,
0001
0010
0100
0010
,
0001
0000
1000
0000
0010
0000
0000
1010
,
0000
0000
0100
0000
0001
0000
0000
0101
,
0000
0000
1000
0000
0100
0000
0000
1100
,
0000
0000
0010
0000
0001
0000
0000
0011
,
0000
0000
1000
0000
0001
0000
0000
1001
,
0000
0000
0010
0000
0100
0000
0000
0110
,
0000
0000
0100
0000
1000
0000
0000
1100
,
0000
1000
0001
0010
,
0001
0010
0100
1000
,
0100
1000
0001
0100
,
0001
0100
0010
1000
,
0010
1000
0001
1000
,
0001
1000
0100
0010
,
0100
0010
0001
0010
,
0100
1000
0010
0100
,
0020
0000
0130
0001
,
0200
0000
0301
0010
,
0100
1000
0001
0100
,
0010
1000
0001
0100
,
0010
0100
0001
1000
,
0100
0010
0200
0000
,
0000
0000
2300
0000
,
0000
0000
3002
0000
,
0203
0000
0320
0000
,
2030
0000
3002
0000
,
1000
0000
1000
0000
,
1000
0000
1003
0000
,
1001
0000
0000
0000
;

//---------------dance-single - ----------------
#NOTES:
     dance-single:
     :
     Beginner:
     3:
     0.231,0.391,0.057,0.000,0.000:
0000
0000
0000
0000
,
1000
0000
0000
0000
,
0010
0000
0100
0000
,
0001
0000
0000
0000
,
0010
0000
0100
0000
,
1000
0000
0000
0000
,
0001
0000
0100
0000
,
0010
0000
0000
0000
,
1000
0000
0100
0000
,
0010
0000
0000
0000
,
0001
0000
1000
0000
,
0010
0000
0000
0000
,
0010
0000
1000
0000
,
0001
0000
0000
0000
,
0100
0000
0001
0000
,
1000
0000
0100
0000
,
1000
0000
0010
0000
,
0100
0000
0001
0000
,
0010
0000
0100
0000
,
1000
0000
0010
0000
,
0100
0000
0001
0000
,
0000
0000
1000
0000
,
0010
0000
0100
0000
,
0001
0000
0010
0000
,
0100
0000
1000
0000
,
0000
0000
0001
0000
,
0100
0000
0010
0000
,
1000
0000
0100
0000
,
0010
0000
0001
0000
,
0000
0000
1000
0000
,
0100
0000
0010
0000
,
0001
0000
0100
0000
,
0010
0000
1000
0000
,
0000
0000
0001
0000
,
0010
0000
0100
0000
,
0000
0000
1000
0000
,
0010
0000
0100
0000
,
0010
0000
1000
0000
,
0100
0000
0010
0000
,
0000
0000
0001
0000
,
0100
0000
0010
0000
,
0100
0000
0001
0000
,
1000
0000
0100
0000
,
0000
0000
0010
0000
,
0001
0000
1000
0000
,
0010
0000
0100
0000
,
0001
0000
1000
0000
,
0000
0000
0001
0000
,
0010
0000
0100
0000
,
1000
0000
0001
0000
,
0100
0000
0010
0000
,
0000
0000
1000
0000
,
0100
0000
0010
0000
,
0000
0000
0001
0000
,
1000
0000
0100
0000
,
1000
0000
0001
0000
,
0100
0000
0010
0000
,
1000
0000
0100
0000
,
1000
1000
1000
1000
,
1000
0000
0010
0000
,
0100
0000
0001
0000
,
1000
0000
0100
0000
,
0010
0000
0001
0000
,
1000
0000
0001
0000
,
0010
0000
0100
0000
,
1000
0000
0010
0000
,
0100
0000
0000
0000
,
0001
0000
1000
0000
,
0100
0000
0010
0000
,
0001
0000
0100
0000
,
0010
0000
1000
0000
,
0001
0000
0100
0000
,
0010
0000
1000
0000
,
0010
0000
0100
0000
,
0001
0000
0000
0000
,
1000
0000
0000
0000
,
0100
0000
0000
0000
,
0010
0000
0000
0000
,
0001
0000
0000
0000
,
1001
0000
0000
0000
,
0000
0000
0000
0000
,
0000
0000
0000
0000
,
0000
0000
0000
0000
,
0000
0000
0000
0000
,
0000
0000
0000
0000
,
0000
0000
0000
0000
,
0000
0000
0000
0000
,
0000
0000
0000
0000
,
0000
0000
0000
0000
,
0000
0000
0000
0000
,
0000
0000
0000
0000
,
0000
0000
0000
0000
,
0000
0000
0000
0000
,
0000
0000
0000
0000
,
0000
0000
0000
0000
,
0000
0000
0000
0000
,
0000
0000
0000
0000
,
0000
0000
0000
0000
,
0000
0000
0000
0000
,
0000
0000
0000
0000
,
0000
0000
0000
0000
,
0000
0000
0000
0000
,
0000
0000
0000
0000
,
0000
0000
0000
0000
,
0000
0000
0000
0000
,
0000
0000
0000
0000
,
0000
0000
0000
0000
,
0000
0000
0001
0000
,
0010
0000
0100
0000
,
0000
0000
1000
0000
,
0010
0000
0100
0000
,
0000
0000
0001
0000
,
1000
0000
0100
0000
,
0000
0000
0100
0000
,
1000
0000
1001
0000
,
1001
0000
0100
0000
,
0010
0000
1000
0000
,
0000
0000
0100
0000
,
0010
0000
0001
0000
,
1000
0000
0001
0000
,
0001
0000
0001
0000
,
0001
0000
0000
0000
,
1000
0000
0010
0000
,
0100
0000
0000
0000
,
0001
0000
1000
0000
,
0100
0000
0000
0000
,
1000
0000
0010
0000
,
0100
0000
0000
0000
,
0001
0000
0100
0000
,
0010
0000
1000
0000
,
0000
0000
0001
0000
,
0000
0000
1000
0000
,
0000
0000
0001
0000
,
0000
0000
1001
0000
,
0000
0000
0110
0000
,
0000
0000
1001
0000
,
0000
0000
0110
0000
,
0000
0000
1000
0000
,
0100
0000
0010
0000
,
0001
0000
0100
0000
,
0010
0000
0100
0000
,
0001
0000
1000
0000
,
0100
0000
0010
0000
,
0100
0000
1000
0000
,
0010
0000
0100
0000
,
0010
0000
0100
0000
,
0001
0000
0100
0000
,
0001
0000
1000
0000
,
0010
0000
1000
0000
,
0010
0000
0100
0000
,
0001
0000
1000
0000
,
0100
0000
0010
0000
,
0001
0000
1000
0000
,
0001
0000
1001
0000
,
0010
0000
0010
0000
,
0010
0000
0010
0000
,
0100
0000
0000
0000
;
