#TITLE:Luv Flow;
#SUBTITLE:(Funky House Mix);
#ARTIST:3rd Coast remixed by Paul Bazooka;
#TITLETRANSLIT:;
#SUBTITLETRANSLIT:;
#ARTISTTRANSLIT:;
#CREDIT:Xythar;
#BANNER:Luv Flow (Funky House Mix)-bn.avi;
#BACKGROUND:Luv Flow (Funky House Mix)-bg.png;
#LYRICSPATH:;
#CDTITLE:cdtitle.png;
#MUSIC:Luv Flow (Funky House Mix).ogg;
#OFFSET:-2.115;
#SAMPLESTART:62.578;
#SAMPLELENGTH:7.560;
#SELECTABLE:YES;
#BPMS:0.000=127.000;
#STOPS:;
#BGCHANGES:-2.500=Luv Flow (Funky House Mix).avi=1.000=0=0=1,
223.000=Luv Flow (Funky House Mix)-bg.png=1.000=0=0=1,
99999=-nosongbg-=1.000=0=0=0 // don't automatically add -songbackground-
;

//---------------dance-single - ----------------
#NOTES:
     dance-single:
     :
     Hard:
     7:
     0.442,0.465,0.148,0.157,0.269:
0000
0000
0000
0000
,
0000
0000
0000
0000
,
0000
0000
0000
0000
,
0000
0000
0000
0000
,
1000
0010
0000
0000
1000
0100
0000
0000
,
0010
0001
0000
0000
0100
0010
0000
0000
,
0100
0001
0000
0000
1000
0001
0000
0000
,
0010
0100
0010
1001
,
0001
0000
0100
0000
0000
0100
0000
0000
0010
0000
0000
0010
0000
0000
0010
0000
,
1000
0000
0001
0000
0000
0001
0000
0000
0010
0000
0000
0010
0000
0000
0010
0000
,
0001
0000
1000
0000
0000
1000
0000
0000
0001
0000
0000
0100
0000
0000
0100
0000
,
0010
0000
1000
0000
0000
1000
0000
0000
0001
0000
0000
0001
0000
0000
0001
0000
,
0000
1000
0000
0000
0100
0000
0010
0000
0200
0000
0000
1000
0000
0000
1300
0000
,
0000
0010
0000
0000
0100
0000
0010
0000
2000
0000
0000
0001
0000
0000
3001
0000
,
0000
0100
0000
0000
0001
0000
1000
0000
0002
0000
0000
0010
0000
0000
0013
0000
,
0001
0100
1000
0100
0001
0100
1000
0100
,
0001
0000
0000
1000
0000
0000
0010
0000
0000
0000
0000
0000
0000
0000
0000
0000
,
0100
0000
0000
0001
0000
0000
1000
0000
0000
0000
0000
0000
0000
0000
0000
0000
,
0001
0000
0000
1000
0000
0000
0100
0000
0000
0000
0000
0000
0000
0000
0000
0000
,
0001
0000
0000
0100
0000
0000
1000
0000
0000
0000
0000
0000
0010
0000
0000
0000
,
0100
0000
0000
0001
0000
0000
0020
0000
0000
0000
1000
0000
0000
1030
0000
0000
,
0010
0000
0000
0001
0000
0000
0200
0000
0000
0000
1000
0000
0000
1300
0000
0000
,
0100
0000
0000
0001
0000
0000
1000
0000
0000
0000
0000
0000
0000
0000
0000
0000
,
0001
0000
0001
0000
1000
0001
1001
0000
,
0010
0000
1000
0000
0000
1000
0000
0000
0001
0000
0000
0001
0000
0000
0001
0000
,
1000
0000
0100
0000
0000
0100
0000
0000
0010
0000
0000
0010
0000
0000
0001
0000
,
1000
0000
0010
0000
0000
0010
0000
0000
0100
0000
0000
0100
0000
0000
1000
0000
,
0100
0000
0001
0000
0000
0001
0000
0000
0010
0000
0000
0010
0000
0000
0100
0000
,
1000
0000
0010
0000
0100
0000
0010
0000
2000
0000
0000
0100
0000
0000
3100
0000
,
0010
0000
0001
0000
0100
0000
0001
0000
0020
0000
0000
0100
0000
0000
0130
0000
,
1000
0000
0001
0000
0100
0000
0001
0000
2000
0000
0000
0010
0000
0000
3010
0000
,
0100
0001
0010
0100
1000
0010
0100
0001
,
1000
0000
0000
0000
0201
0000
0000
0000
0310
0000
0000
1000
0000
0000
0001
0000
,
0010
0000
0000
0000
2100
0000
0000
0000
3001
0000
0000
0100
0000
0000
1000
0000
,
0100
0000
0000
0000
0102
0000
0000
0000
0013
0000
0000
0100
0000
0000
1000
0000
,
0001
0000
0000
0000
1020
0000
0000
0000
0130
0000
0000
1000
0000
0000
0100
0000
,
0001
0000
0000
0000
2100
0000
0000
0000
0001
0000
0000
3010
0000
0000
0100
0000
,
0010
0000
0000
0000
0102
0000
0000
0000
1000
0000
0000
0013
0000
0000
0001
0000
,
0100
0000
0000
0000
1200
0000
0000
0000
0010
0000
0000
0301
0000
0000
0010
0000
,
0100
1000
0001
1001
,
0001
0100
0010
0010
1000
0001
0010
0001
,
0100
0000
0100
0000
0010
0000
0010
0000
2000
0000
0000
0001
0000
0000
3001
0000
,
0100
0000
1000
0000
0100
0000
0001
0000
2000
0000
0000
0100
0000
0000
3100
0000
,
0010
0001
0100
0001
0010
0001
0100
0010
,
1000
0000
0000
0001
0000
0000
1000
0000
0001
0000
0100
0000
1000
0000
0100
0000
,
0001
0000
0000
0010
0000
0000
0100
0000
1000
0000
0010
0000
0001
0000
0010
0000
,
1000
0000
0000
0100
0000
0000
0010
0000
0001
0000
0100
0000
1000
0000
0100
0000
,
0001
0000
0000
1000
0001
0000
0000
1000
0100
0000
0010
0000
0001
1000
0001
1000
,
0010
0000
0000
0100
0010
0000
1000
0000
0100
0000
0000
1000
0001
0000
1000
0000
,
0010
0000
0000
0100
0010
0000
1000
0000
0001
0000
0000
0010
0001
0000
1000
0000
,
0001
0000
0000
0100
0010
0000
1000
0000
0100
0000
0000
1000
0010
0000
0100
0000
,
1000
0000
0000
0100
0010
0000
0100
0000
0001
0000
0000
0010
0100
0000
1000
0000
,
0001
0101
0001
0101
,
1000
1100
1000
1100
,
0010
1010
0010
1010
,
1000
1000
1000
1000
1000
1000
0001
0000
;

//---------------dance-single - ----------------
#NOTES:
     dance-single:
     :
     Medium:
     6:
     0.384,0.413,0.176,0.046,0.000: // measure 1
0000
0000
0000
0000
,  // measure 2
0000
0000
0000
0000
,  // measure 3
0000
0000
0000
0000
,  // measure 4
0000
0000
0000
0000
,  // measure 5
1000
0000
0000
0001
0100
0000
0000
0010
,  // measure 6
1000
0001
0000
1000
0100
0000
0000
0000
,  // measure 7
1000
0010
0000
0100
0001
0100
0000
0010
,  // measure 8
1000
0000
0001
0000
1000
0000
0010
0010
,  // measure 9
0100
0001
1000
0000
0001
1000
0100
0000
,  // measure 10
0010
0001
0100
0001
0010
0000
0100
0000
,  // measure 11
1000
0010
0100
0000
1000
0100
0001
0000
,  // measure 12
1000
0100
1000
0001
1000
0000
0010
0000
,  // measure 13
0100
0001
1000
0000
0100
0000
0010
0001
,  // measure 14
0100
0001
0010
0000
0100
0000
1000
0010
,  // measure 15
0100
0010
1000
0000
0001
0000
0010
0000
,  // measure 16
0001
0100
1000
0100
0001
0000
1100
0000
,  // measure 17
0002
0100
1003
0000
,  // measure 18
0200
0000
0001
0000
1300
0000
0010
0100
,  // measure 19
0002
0000
0010
0000
1003
0000
0001
0100
,  // measure 20
0010
0000
0100
0001
1000
0000
0100
1000
,  // measure 21
0020
0001
0100
1030
,  // measure 22
0200
0001
0010
1300
,  // measure 23
0010
0000
0000
0000
,  // measure 24
1000
0000
0000
0000
0001
1000
0001
0000
,  // measure 25
1000
0100
0000
1000
0010
0000
0100
0000
,  // measure 26
0001
0010
0000
0100
1000
0000
0010
0000
,  // measure 27
0100
1000
0000
0100
0001
0000
1000
0000
,  // measure 28
0100
0010
0000
0001
0100
0000
0010
0000
,  // measure 29
1000
0001
0010
0001
1000
0000
0000
0000
,  // measure 30
0001
0100
1000
0100
0001
0000
0000
0000
,  // measure 31
1000
0100
0001
0100
1000
0000
0000
0000
,  // measure 32
0010
0100
0001
0100
0010
1000
0001
0000
,  // measure 33
1100
0000
0101
0000
0010
1000
0001
0000
,  // measure 34
0110
0000
1001
0000
0100
1000
0010
0000
,  // measure 35
0101
0000
1010
0000
0001
1000
0100
0000
,  // measure 36
0011
0000
0101
0000
0010
1000
0001
0000
,  // measure 37
1100
0101
1100
0010
,  // measure 38
0101
1100
0101
0010
,  // measure 39
1001
0110
1001
0010
,  // measure 40
0100
0001
1000
1001
,  // measure 41
0001
0100
0010
0000
1000
0001
0010
0001
,  // measure 42
1000
0000
0010
0000
0100
0001
1000
0000
,  // measure 43
0001
0010
0100
0010
0001
0000
1000
0000
,  // measure 44
0001
0100
1000
0100
0001
0000
0010
0000
,  // measure 45
0100
0000
1000
0000
0001
0100
0010
0100
,  // measure 46
0001
0000
1000
0000
0100
0010
0001
0100
,  // measure 47
0010
0000
0100
0000
0001
1000
0100
1000
,  // measure 48
0001
0000
1000
0000
0001
0010
0100
1000
,  // measure 49
0010
0000
0100
0001
1000
0000
0100
1000
,  // measure 50
0010
0000
0100
0001
0010
0000
0100
1000
,  // measure 51
0001
0000
0100
0001
0010
0000
1000
0010
,  // measure 52
0001
0000
0100
0010
1000
0000
0001
0000
,  // measure 53
1000
1000
1000
1000
,  // measure 54
0001
0001
0001
0001
,  // measure 55
0100
0100
0100
0100
,  // measure 56
0010
0100
0010
0100
0010
0100
0001
0000
;

//---------------dance-single - ----------------
#NOTES:
     dance-single:
     :
     Easy:
     3:
     0.196,0.232,0.019,0.074,0.000: // measure 1
0000
0000
0000
0000
,  // measure 2
0000
0000
0000
0000
,  // measure 3
0000
0000
0000
0000
,  // measure 4
0000
0000
0000
0000
,  // measure 5
1000
0000
0001
0000
,  // measure 6
0100
0000
0001
0000
,  // measure 7
1000
0000
0001
0000
,  // measure 8
1000
1000
1000
1001
,  // measure 9
0001
0000
0100
0000
,  // measure 10
0010
1000
0010
0000
,  // measure 11
0100
0000
0001
0000
,  // measure 12
1000
0100
1000
0000
,  // measure 13
0001
0000
0100
0000
,  // measure 14
0010
0010
0010
0000
,  // measure 15
1000
0000
0100
0000
,  // measure 16
1000
0001
1000
0000
,  // measure 17
0002
0000
0000
0000
,  // measure 18
0203
0000
0000
0000
,  // measure 19
0320
0000
0000
0000
,  // measure 20
2030
0000
0000
0000
,  // measure 21
3002
0000
0000
0000
,  // measure 22
2003
0000
0000
0000
,  // measure 23
3200
0000
0000
0000
,  // measure 24
0320
0000
0001
0001
,  // measure 25
0031
0000
0000
0000
,  // measure 26
1000
0000
0000
0000
,  // measure 27
0010
0000
0000
0000
,  // measure 28
0100
0000
0000
0000
,  // measure 29
0001
0010
0001
0000
,  // measure 30
1000
0100
1000
0000
,  // measure 31
0001
0100
0001
0000
,  // measure 32
1000
0010
1000
0001
,  // measure 33
0010
0010
0100
0000
,  // measure 34
1000
1000
0010
0000
,  // measure 35
0100
0100
0001
0000
,  // measure 36
1000
0100
1000
0000
,  // measure 37
0001
0001
0100
0000
,  // measure 38
0010
0010
1000
0000
,  // measure 39
0001
0001
0010
0000
,  // measure 40
0100
1000
0001
1001
,  // measure 41
0001
0100
0010
0010
,  // measure 42
1000
0100
1000
1000
,  // measure 43
0010
0100
0010
0010
,  // measure 44
1000
0001
0010
0001
,  // measure 45
1000
1000
0001
0001
,  // measure 46
1000
0010
1000
1000
,  // measure 47
0010
0100
0010
0010
,  // measure 48
0100
0001
0010
0001
,  // measure 49
1000
0000
0010
0000
,  // measure 50
0100
0000
0001
0000
,  // measure 51
0010
0000
0100
0000
,  // measure 52
1000
0000
0010
0000
,  // measure 53
0100
0100
0100
0100
,  // measure 54
0001
0001
0001
0001
,  // measure 55
1000
1000
1000
1000
,  // measure 56
0010
0010
0010
0010
;
