#TITLE:LOVE②くらっち;
#SUBTITLE:;
#ARTIST:Noria;
#TITLETRANSLIT:Love2 Clutch;
#SUBTITLETRANSLIT:;
#ARTISTTRANSLIT:;
#CREDIT:Xythar;
#BANNER:Love2 Clutch.png;
#BACKGROUND:Love2 Clutch-bg.png;
#LYRICSPATH:;
#CDTITLE:xythar.png;
#MUSIC:Love2 Clutch.mp3;
#OFFSET:-11.009;
#SAMPLESTART:47.700;
#SAMPLELENGTH:12.000;
#SELECTABLE:YES;
#BPMS:0.000=170.000;
#STOPS:;
#BGCHANGES:;

//---------------dance-single - ----------------
#NOTES:
     dance-single:
     :
     Hard:
     7:
     0.458,0.429,0.322,0.060,0.005:
0000
0000
0000
0000
,
1000
0010
0100
0000
0001
1000
0100
0000
,
1000
0000
0010
0100
0000
0001
0000
1000
,
0100
0000
0010
0001
0000
1000
0000
0010
,
0100
0000
0001
1000
0000
0100
0000
0010
,
0001
0000
1000
0010
0000
0100
0000
0001
,
0100
0000
0100
0010
0000
1000
0000
0100
,
0010
0000
0010
0001
0000
1000
0000
0001
,
0100
0000
0100
0010
0000
1000
0000
0000
,
1100
0011
0101
1010
,
0001
0100
0010
0000
1000
0100
0010
0000
,
0001
0000
0100
0010
0000
1000
0010
0000
,
1010
0000
0010
0100
0001
0000
1000
0000
,
0100
0010
0011
0110
,
0001
0100
0010
0000
1000
0010
0100
0000
,
0001
0000
1000
0100
0000
0010
0001
0000
,
0011
0000
0001
1000
0100
0000
1000
0000
,
0010
0100
0101
0110
,
2000
0000
0001
0000
3001
0000
0010
0100
,
0020
0000
0100
0000
0130
0000
1000
0100
,
0010
0000
0001
1000
0010
0000
1000
0100
,
0010
0000
0100
0000
1000
0000
0000
0000
1000
0000
0000
0100
0000
0000
0010
0000
,
0011
0000
1000
0001
1000
0000
0010
0100
,
0010
0000
0100
0000
0001
0000
1000
0010
,
0100
0010
1000
0000
1001
0000
0002
0000
,
1000
1000
0100
0103
,
0010
0100
0001
0000
1000
0001
1000
0000
,
0100
1100
0110
0011
,
0001
0100
0010
0100
0001
0000
1000
0000
,
0010
0100
0001
0000
0100
0010
1000
0000
,
1001
0000
1000
0100
0010
0000
0001
0000
,
0100
0000
0010
1000
0010
0000
0100
0001
,
0100
0001
0010
0100
,
1000
0100
1000
0000
0001
0000
1001
0000
,
1000
0100
0010
0000
0001
0100
0010
0000
,
1000
0001
0100
0001
1000
0000
0001
0000
,
0020
0100
0130
0010
,
0011
0000
0001
0000
0101
0000
0100
0010
,
1000
0000
0100
1000
0100
0000
1000
0010
,
0100
0000
0100
0001
1000
0000
0100
0000
,
0110
0000
0010
0001
0010
0000
0001
0000
,
0101
0110
1010
1001
,
1000
0100
1000
0100
1000
0000
1100
0000
,
0001
1000
0001
1000
0001
0000
1001
0000
,
0001
0100
0001
0100
0010
0100
0010
0100
,
0001
0010
0100
1100
,
1000
0000
0010
0100
0000
0001
0000
1000
,
0100
0000
1000
0001
0000
0100
0000
0010
,
0100
0000
0001
1000
0000
0100
0000
0010
,
0001
0000
0100
0010
0000
1000
0000
0001
,
0010
0000
0100
0010
0000
0001
0000
1000
,
0010
0000
0100
0001
0000
1000
0000
0001
,
0100
0000
0010
1000
0000
0100
0000
0000
,
0011
1010
0101
1100
,
0100
0010
0100
0000
1000
0100
0000
1000
,
0000
0001
1000
0001
0000
2002
0000
0000
,
0000
0000
0000
0000
0000
0000
0000
3003
;

//---------------dance-single - ----------------
#NOTES:
     dance-single:
     :
     Medium:
     5:
     0.350,0.372,0.261,0.020,0.000:
0000
0000
0000
0000
,
1000
0100
0010
0001
,
1000
0000
0000
0010
0000
0100
0000
0000
,
0001
0000
0000
0010
0000
0100
0000
0000
,
1000
0000
0000
0001
0000
0100
0000
0000
,
0001
0010
0100
1000
,
0010
0000
0000
0100
0000
0001
0000
0000
,
1000
0000
0000
0100
0000
0010
0000
0000
,
0001
0000
0000
1000
0000
0010
0000
0000
,
0100
0001
0100
0101
,
0001
0100
0010
1000
,
0100
0010
0001
1000
,
0100
1000
0010
0100
,
0001
0000
0010
0000
0100
1000
0100
0000
,
1000
0010
0100
0001
,
1000
0100
1000
0001
,
0100
0010
1000
0100
,
0010
0100
1000
0001
,
1001
0001
0100
0010
,
0110
0100
0001
1000
,
0100
0000
0010
0000
0001
0000
0100
0001
,
0000
0001
1000
0000
0100
0000
0010
0000
,
0011
0001
1000
0100
,
1100
1000
0010
0100
,
0101
0000
1100
0000
,
1000
0010
0100
0001
,
1000
0100
1000
0001
,
1001
0001
0100
0010
,
0110
0010
1010
1000
,
1001
0001
0101
0100
,
0010
1000
0100
0010
,
0001
0000
0100
0000
0010
0000
1000
0010
,
1000
0001
0100
0010
,
1010
1000
1001
0001
,
1000
0000
0100
0000
0010
0000
0001
0010
,
0001
1000
0010
0100
,
0001
0100
0001
0000
1000
0000
0100
0000
,
0010
0011
0001
1001
,
1000
0010
0100
0001
,
1000
0100
0010
0100
,
1000
0001
0100
0010
,
1010
1000
1001
0101
,
0010
0000
1000
0010
1000
0000
1001
0000
,
0010
0000
0001
0010
0001
0000
0110
0000
,
0100
0000
1000
0100
1000
0000
0001
1000
,
0001
1000
0010
0100
,
0101
0000
0000
0001
0000
1000
0000
0000
,
0100
0000
0000
0010
0000
0001
0000
0000
,
1000
0000
0000
0010
0000
0100
0000
0000
,
0001
0100
0010
1000
,
0100
0000
0000
0010
0000
0100
0000
0000
,
1000
0000
0000
0010
0000
0100
0000
0000
,
0001
0000
0000
1000
0000
0010
0000
0000
,
1010
0010
0110
0101
,
0001
0000
1000
0000
0100
1000
0000
0001
,
0000
1000
0001
1000
0000
2002
0000
0000
,
0000
0000
0000
0000
0000
0000
0000
3003
;

//---------------dance-single - ----------------
#NOTES:
     dance-single:
     :
     Easy:
     3:
     0.202,0.229,0.060,0.010,0.000: // measure 1
0000
0000
0000
0000
,  // measure 2
1001
0000
0000
0000
,  // measure 3
1000
0000
0000
0000
,  // measure 4
0010
0000
0000
0000
,  // measure 5
0100
0000
0000
0000
,  // measure 6
0001
1000
0001
1000
,  // measure 7
0001
0000
0000
0000
,  // measure 8
0010
0000
0000
0000
,  // measure 9
0100
0000
0000
0000
,  // measure 10
1000
0010
1000
0010
,  // measure 11
1000
0000
0100
0000
,  // measure 12
0010
0000
0001
0100
,  // measure 13
0010
0000
1000
0000
,  // measure 14
0100
0000
1000
0000
,  // measure 15
0010
0100
0010
0000
,  // measure 16
0100
0000
0001
1000
,  // measure 17
0001
0000
0010
0000
,  // measure 18
0100
0000
1000
0000
,  // measure 19
1001
0000
1000
0010
,  // measure 20
0100
0000
0100
0001
,  // measure 21
0010
0000
0100
0000
,  // measure 22
1000
0001
1000
0010
,  // measure 23
0100
0000
0001
0000
,  // measure 24
1000
0000
0100
0010
,  // measure 25
0001
0000
1000
0000
,  // measure 26
1001
0000
0001
0000
,  // measure 27
1000
0000
0010
0100
,  // measure 28
0010
0000
0100
0000
,  // measure 29
0001
0000
1000
0000
,  // measure 30
1001
0000
0001
0100
,  // measure 31
0010
0000
1000
0000
,  // measure 32
0100
0000
0010
0001
,  // measure 33
0010
0000
0100
0000
,  // measure 34
1000
0010
0100
0001
,  // measure 35
1000
0000
0100
0000
,  // measure 36
0010
0000
0001
0010
,  // measure 37
0001
0000
1000
0000
,  // measure 38
0010
0100
0010
0000
,  // measure 39
0100
0000
0001
0000
,  // measure 40
1000
0000
0100
0010
,  // measure 41
0001
0000
1000
0000
,  // measure 42
0010
0100
0001
0100
,  // measure 43
0010
1000
0010
0000
,  // measure 44
1000
0100
1000
0000
,  // measure 45
0001
0010
0100
0010
,  // measure 46
0001
0000
1000
0000
,  // measure 47
0010
0000
0100
0000
,  // measure 48
0001
0000
1000
0000
,  // measure 49
0100
0000
0010
0000
,  // measure 50
0001
1000
0001
1000
,  // measure 51
0001
0000
0100
0000
,  // measure 52
0010
0000
1000
0000
,  // measure 53
0100
0000
0010
0000
,  // measure 54
0100
0010
0100
0010
,  // measure 55
0100
0000
0110
0000
,  // measure 56
1001
0000
0001
2000
,  // measure 57
0000
0000
0000
0000
,  // measure 58
3000
0000
0000
0000
;

//---------------dance-single - ----------------
#NOTES:
     dance-single:
     :
     Beginner:
     2:
     0.146,0.195,0.060,0.000,0.000: // measure 1
0000
0000
0000
0000
,  // measure 2
1000
0000
0100
0000
,  // measure 3
0010
0000
0000
0000
,  // measure 4
0001
0000
0000
0000
,  // measure 5
1000
0000
0000
0000
,  // measure 6
0010
0000
0010
0000
,  // measure 7
0100
0000
0000
0000
,  // measure 8
0001
0000
0000
0000
,  // measure 9
1000
0000
0000
0000
,  // measure 10
0001
0000
0001
0000
,  // measure 11
1000
0000
0000
0000
,  // measure 12
0010
0000
0000
0000
,  // measure 13
0100
0000
0001
0000
,  // measure 14
1000
0000
0100
0000
,  // measure 15
0010
0000
0000
0000
,  // measure 16
0001
0000
0000
0000
,  // measure 17
1000
0000
0010
0000
,  // measure 18
0100
0000
0001
0000
,  // measure 19
1001
0000
0000
0000
,  // measure 20
0110
0000
0000
0000
,  // measure 21
0100
0000
1000
0000
,  // measure 22
0010
0000
0100
0000
,  // measure 23
0001
0000
0000
0000
,  // measure 24
1001
0000
0000
0000
,  // measure 25
0001
0000
0010
0000
,  // measure 26
0100
0000
0000
0000
,  // measure 27
1000
0000
0010
0000
,  // measure 28
0100
0000
0001
0000
,  // measure 29
1000
0000
0100
0000
,  // measure 30
0010
0000
0001
0000
,  // measure 31
1000
0000
0010
0000
,  // measure 32
0100
0000
0001
0000
,  // measure 33
1000
0000
0001
0000
,  // measure 34
0100
0000
0010
0000
,  // measure 35
1000
0000
0100
0000
,  // measure 36
1000
0000
0010
0000
,  // measure 37
0100
0000
0001
0000
,  // measure 38
1000
0000
0001
0000
,  // measure 39
0010
0000
0100
0000
,  // measure 40
1000
0000
0010
0000
,  // measure 41
0100
0000
0001
0000
,  // measure 42
1000
0000
1000
1000
,  // measure 43
1000
0000
0000
0000
,  // measure 44
1001
0000
0000
0000
,  // measure 45
0110
0000
0100
0000
,  // measure 46
0010
0000
0001
0000
,  // measure 47
1000
0000
0010
0000
,  // measure 48
0100
0000
0001
0000
,  // measure 49
1000
0000
0001
0000
,  // measure 50
0100
0000
0010
0000
,  // measure 51
1000
0000
0100
0000
,  // measure 52
0010
0000
0001
0000
,  // measure 53
1000
0000
0010
0000
,  // measure 54
1000
1000
1000
1000
,  // measure 55
1000
0000
0001
0000
,  // measure 56
1000
0000
1001
0000
;
