#TITLE:love or lies;
#SUBTITLE:;
#ARTIST:capsule;
#TITLETRANSLIT:;
#SUBTITLETRANSLIT:;
#ARTISTTRANSLIT:;
#CREDIT:Xythar;
#BANNER:Love or Lies.png;
#BACKGROUND:Love or Lies-bg.png;
#LYRICSPATH:;
#CDTITLE:cdtitle.png;
#MUSIC:Love or Lies.ogg;
#OFFSET:-1.719;
#SAMPLESTART:68.518;
#SAMPLELENGTH:15.000;
#SELECTABLE:YES;
#BPMS:0.000=128.000;
#STOPS:;
#BGCHANGES:;

//---------------dance-single - ----------------
#NOTES:
     dance-single:
     :
     Challenge:
     9:
     0.568,0.605,0.143,0.101,0.593:
0000
0000
0000
0000
,
0000
0000
0000
0000
,
0000
0000
0000
0000
,
0000
0000
0000
0000
,
0001
0000
1000
0000
0100
0000
0000
1000
0000
0000
0001
0000
0100
0000
0000
0000
,
0010
0000
1000
0000
0001
0000
0000
0010
0000
0000
0001
0000
1000
0000
0000
0000
,
0001
0000
0100
0000
0010
0000
0000
1000
0000
0000
0001
0000
0010
0000
0000
0000
,
1000
0000
0010
0000
0001
0000
0000
0100
0000
0010
1000
0000
0001
0000
1000
0000
,
0001
0000
0010
0100
0000
1000
0000
0000
0001
0000
0100
0010
0000
1000
0000
0000
,
0001
0000
0100
0001
0000
1000
0000
0000
0100
0000
0001
0100
0000
1000
0000
0000
,
0010
0000
0100
0001
0000
1000
0000
0000
0001
0000
0100
0010
0000
1000
0000
0000
,
1100
0000
0000
0101
0000
0000
1001
0000
0100
0000
0000
1000
0001
0000
0000
0000
,
1000
0000
0010
0000
0100
0001
0000
0000
1000
0000
0001
0000
0100
0010
0000
0000
,
0100
0000
0001
0000
1000
0010
0000
0000
1000
0000
0100
0000
0010
0001
0000
0000
,
0100
0000
0010
0000
0100
0001
0000
0000
0010
0000
0100
0000
1000
0001
0000
0000
,
0100
0000
0010
0000
1000
0001
0000
0000
1000
0010
0000
0100
0000
0000
1001
0000
,
0100
0000
1000
0000
0001
0100
0000
0000
1000
0000
0100
0000
0001
1000
0000
0000
,
0001
0000
0010
0000
0100
1000
0000
0000
0001
0000
0100
0000
0010
1000
0000
0000
,
0001
0010
0001
0000
1000
0100
1000
0000
0001
0100
0000
0000
0010
0000
0010
0000
,
1001
0000
0000
0101
0000
0000
1100
0000
0000
0010
0000
0100
0000
0000
0000
0000
,
0001
0000
0100
0000
0001
0000
0000
1000
0000
0100
0000
0000
0001
0000
0100
0000
,
1000
0000
0100
0000
0001
0000
0000
0100
0000
0100
0000
0000
1000
0000
0010
0000
,
0100
0000
0010
0000
1000
0000
0000
0001
0000
1000
0000
0000
0100
0000
0010
0000
,
0001
0000
0010
0000
0100
0000
0000
0001
0000
0100
0000
0000
1000
0000
0010
0000
,
0100
0000
0010
0000
1000
0000
0000
0001
0000
0010
0000
0000
1000
0000
0010
0000
,
0001
0000
0100
0000
0010
0000
0000
0100
0000
0001
0000
0000
1000
0000
0100
0000
,
1000
0000
0010
0000
0100
0000
0000
1000
0000
1000
0000
0000
0100
0000
0001
0000
,
1000
0000
0001
0000
0010
0000
0000
1000
0000
1000
0000
0000
0010
0000
0001
0000
,
2000
0000
0100
0000
0100
0000
0000
0001
0000
3001
0000
0000
0100
0000
0010
0000
,
0200
0000
1000
0000
1000
0000
0000
0010
0000
0310
0000
0000
1000
0000
0001
0000
,
0020
0000
0100
0000
0100
0000
0000
0001
0000
0031
0000
0000
0100
0000
1000
0000
,
0200
0000
0010
0000
0010
0000
0000
0001
0000
0301
0000
0000
0100
0000
0010
0000
,
2000
0000
0100
0000
3100
0000
0000
0010
0000
0001
0000
0000
1000
0000
0010
0000
,
0200
0000
1000
0000
1300
0000
0000
0100
0000
0001
0000
0000
1000
0000
0001
0000
,
0010
0001
1000
0010
1000
0001
0010
0100
,
1001
0000
0000
1100
0000
0000
0101
0000
0000
0000
0000
0000
0000
0000
0000
0000
,
1000
0000
0010
0000
0100
0000
0010
0100
0000
0001
0000
0001
0010
0000
0001
0000
,
1000
0000
0010
0000
0100
0000
0010
1000
0000
0001
0000
0001
0010
0000
0001
0000
,
1000
0000
0001
0000
0100
0000
0010
0100
0000
0010
0000
0010
1000
0000
0001
0000
,
1000
0000
0100
0000
1000
0000
0001
0100
0000
0010
0000
0010
1000
0000
0001
0000
,
1000
0000
0100
0000
1000
0000
0001
0100
0000
0010
0000
0100
0001
0000
1000
0000
,
0100
0000
0010
0000
0001
0000
0100
0010
0000
1000
0000
0001
1000
0000
0100
0000
,
0001
0000
0100
0000
1000
0000
0001
1000
0000
0010
0000
1000
0001
0000
0010
0000
,
1000
0000
0010
0000
0001
1000
0000
0010
0000
0000
0100
0000
0001
0000
1000
0000
,
0002
0000
0000
0000
0013
0100
0010
0100
0000
0000
1000
0000
0010
0000
0100
0000
,
0020
0000
0000
0000
1030
0001
1000
0001
0000
0000
1000
0000
0100
0000
1000
0000
,
0020
0000
0000
0000
0130
0001
0100
0001
0000
0000
0010
0000
1000
0000
0010
0000
,
0002
0000
0000
0000
0103
0010
0100
0010
0000
0000
0100
0000
0001
0000
1000
0000
,
0002
0000
0000
0000
0013
0100
0010
0100
0000
0000
1000
0000
0001
0000
1000
0000
,
0200
0000
0000
0000
0310
0001
0010
0001
0000
0000
0100
0000
0010
0000
0100
0000
,
0001
0100
0001
0000
1000
0100
1000
0000
0001
0010
0001
0000
1000
0010
1000
0000
,
1010
0000
0000
0011
0000
0000
1100
0000
0000
1001
0000
0010
0100
0000
0001
0000
,
1000
0000
0100
0000
0010
0001
0000
0001
1000
0000
0010
0000
0100
0001
0000
0001
,
0010
0000
0100
0000
1000
0010
0000
0010
0100
0000
0001
0000
1000
0000
0001
0000
,
0010
0000
0100
0000
1000
0010
0000
1000
0001
0000
1000
0000
0100
0010
0000
0100
,
1000
0000
0001
0000
0100
0010
0000
1000
0001
1000
0000
0100
0000
0000
0010
0000
,
0001
0000
0100
0000
0010
1000
0000
0001
1000
0001
1000
0000
0100
0010
0000
0001
,
0100
0001
0100
0000
0010
1000
0000
0001
0010
0001
0010
0000
0001
1000
0000
0100
,
1000
0100
1000
0000
0001
0100
0000
0010
1000
0010
0000
0000
0100
0000
0001
0000
,
1100
0000
0000
0101
0000
0000
1001
0000
0000
0100
0000
1000
0000
0000
0001
0000
,
1000
0000
0000
0000
;

//---------------dance-single - ----------------
#NOTES:
     dance-single:
     :
     Medium:
     5:
     0.352,0.353,0.025,0.109,0.000:
0000
0000
0000
0000
,
0000
0000
0000
0000
,
0000
0000
0000
0000
,
0000
0000
0000
0000
,
0001
0100
0001
0000
1000
0100
1000
0000
,
0001
0010
0001
0000
1000
0010
1000
0000
,
0010
0100
0010
0000
1000
0001
1000
0000
,
0100
0010
0100
0000
0010
0000
1001
0000
,
0001
0100
0010
0000
1000
0100
0010
0000
,
0001
1000
0010
0000
1000
0001
0010
0000
,
1000
0010
0001
0000
0100
0010
0100
0000
,
0001
0000
1000
0101
,
0010
1000
0000
0001
0010
0001
0000
1000
,
0010
1000
0000
0001
0100
0001
1000
0000
,
0100
0010
0000
0001
0100
0001
0000
1000
,
0100
1000
0000
0010
0100
0000
0000
0000
,
0001
1000
0000
0001
1000
0010
0000
0100
,
0001
1000
0000
0100
0010
0000
0001
0000
,
1000
0010
0000
0100
0010
0100
0010
1000
,
0001
0000
0000
1000
0000
0000
0001
0000
,
1000
0000
0000
0000
0000
0000
0010
0100
,
0001
0000
0000
0000
0000
0000
1000
0100
,
1000
0000
0001
0100
0010
0000
1000
0001
,
0010
0000
0000
0000
0000
0000
1000
0010
,
0001
0000
0000
0000
0000
0000
0001
0100
,
1000
0000
0000
0000
0000
0000
0100
0001
,
0010
0000
1000
0000
0010
0000
0001
1000
,
0010
0000
0000
0100
,
0002
0000
0010
0000
1003
0000
0001
0100
,
0020
0000
0001
0000
1030
0000
0100
0010
,
0200
0000
0001
0000
1300
0000
0001
1000
,
0020
0000
0001
0000
1030
0000
0010
0100
,
0002
0000
0100
0000
1003
0000
0010
0100
,
0020
0000
0001
0000
1030
0000
0100
0010
,
0200
0001
1000
0301
,
1000
0000
0000
1001
0000
0000
0000
0000
,
1000
0010
0100
0000
0001
0000
0010
0000
,
0100
1000
0010
0000
0100
0000
0001
0000
,
1000
0010
1000
0000
0001
0000
0100
0000
,
0010
1000
0001
0000
0010
0000
0001
0000
,
1000
0010
0100
0000
0001
0000
0010
0000
,
0100
1000
0001
0000
0100
0000
0010
0000
,
1000
0001
0010
0000
1000
0000
0010
0000
,
0001
0100
0010
0000
1000
0000
0001
1000
,
0020
0000
0001
0000
0130
0000
0010
1000
,
0002
0000
0100
0000
1003
0000
0100
0010
,
0200
0000
0001
0000
1300
0000
0010
0100
,
0020
0000
0001
0000
1030
0000
0001
0100
,
0010
0000
0001
0000
1000
0000
0100
1000
,
0020
0000
0100
0000
1030
0000
0001
0010
,
0002
0010
1000
0010
,
1003
0000
0001
1000
,
0010
0100
0001
0000
1000
0100
0010
0000
,
0100
1000
0010
0000
0100
0001
1000
0000
,
0001
1000
0100
0000
0001
0100
1000
0000
,
0001
0100
0010
0000
1000
0100
1000
0001
,
1000
0000
0010
0000
0100
0001
1000
0000
,
0100
1000
0001
0000
0100
1000
0100
0000
,
0001
0010
0100
0010
0100
1000
0010
0000
,
0100
0000
0000
0001
0000
0000
1000
0001
,
1000
0000
0000
0000
;

//---------------dance-single - ----------------
#NOTES:
     dance-single:
     :
     Hard:
     7:
     0.457,0.429,0.101,0.210,0.336:
0000
0000
0000
0000
,
0000
0000
0000
0000
,
0000
0000
0000
0000
,
0000
0000
0000
0000
,
0001
0000
0000
0000
1000
0000
0000
0010
0000
0000
0100
0000
0001
0000
0000
0000
,
1000
0000
0000
0000
0001
0000
0000
0010
0000
0000
0001
0000
0100
0000
0000
0000
,
1000
0000
0000
0000
0100
0000
0000
0010
0000
0000
1000
0000
0001
0000
0000
0000
,
1000
0000
0100
0000
0010
0001
1000
0001
,
0100
0000
0000
0010
0000
1000
0000
0000
0001
0000
0000
1000
0000
0100
0000
0000
,
0001
0000
0000
0100
0000
1000
0000
0000
0001
0000
0000
0100
0000
0010
0000
0000
,
1000
0000
0000
0100
0000
0010
0000
0000
0001
0000
0000
0100
0000
0010
0000
0000
,
1000
0000
0000
0001
0000
0000
1001
0000
0001
0000
0000
0100
0010
0000
1000
0000
,
0001
0000
0010
0000
0000
1000
0000
0000
0010
0000
0001
0000
0000
0100
0000
0000
,
0010
0000
1000
0000
0000
0001
0000
0000
1000
0000
0100
0000
0000
0010
0000
0000
,
0001
0000
0100
0000
0000
0010
0000
0000
1000
0000
0001
0000
0000
1000
0000
0000
,
0001
0000
0100
0000
0000
0001
0000
0000
1000
0100
0000
1000
0000
0000
0010
0000
,
0100
0000
0010
0000
0000
1001
0000
0000
0100
0000
0010
0000
0000
1001
0000
0000
,
0010
0000
0100
0000
0000
1001
0000
0000
0001
0000
0100
0000
0010
0000
1000
0000
,
0100
0000
0010
0000
0100
0000
0010
0000
0000
0001
0000
0000
1000
0000
0001
0000
,
1000
0000
0000
1001
0000
0000
0010
0000
0000
0110
0000
0000
0001
0000
1000
0000
,
0200
0000
0000
0000
0010
0000
0000
0310
0000
0000
0000
0000
0010
0000
0001
0000
,
2000
0000
0000
0000
0010
0000
0000
3010
0000
0000
0000
0000
0100
0000
0001
0000
,
1000
0000
0001
1000
0100
0000
0001
0100
,
2000
0000
0000
0000
0010
0000
0000
3100
0000
0000
0000
0000
0001
0000
0100
0000
,
0020
0000
0000
0000
0001
0000
0000
1030
0000
0000
0000
0000
0001
0000
1000
0000
,
0200
0000
0000
0000
0001
0000
0000
1300
0000
0000
0000
0000
0001
0000
0100
0000
,
0010
0000
1000
0001
0010
0000
0100
1000
,
0002
0000
0000
0000
0100
0000
0000
1003
0000
0000
0000
0000
0000
0000
0000
0000
,
0002
0000
0000
0000
0100
0000
0000
1000
0000
1003
0000
0000
0100
0000
0000
0000
,
0020
0000
0000
0000
1000
0000
0000
0001
0000
0031
0000
0000
1000
0000
0001
0000
,
0010
0000
0100
1000
0001
0000
0100
0010
,
0200
0000
0000
0000
1000
0000
0000
0001
0000
0301
0000
0000
0010
0000
0100
0000
,
0020
0000
0000
0000
1000
0000
0000
0001
0000
0031
0000
0000
1000
0000
0010
0000
,
0200
0000
0000
0000
1000
0000
0000
0001
0000
0301
0000
0000
0010
0000
0100
0000
,
1000
0000
0001
0100
0010
0000
1000
0001
,
0010
0000
0000
0100
0000
0000
1001
0000
0000
0000
0000
0000
0000
0000
0000
0000
,
2000
0000
0000
0000
0010
0000
0000
3001
0000
0000
0100
0000
0010
0000
0100
0000
,
0002
0000
0000
0000
0100
0000
0000
1003
0000
0000
0010
0000
0100
0000
0010
0000
,
2000
0000
0000
0000
0001
0000
0000
3100
0000
0000
0001
0000
0100
0000
1000
0000
,
0020
0000
0000
0000
0001
0000
0000
1030
0000
0000
0001
0000
0100
0000
1000
0000
,
0200
0000
0000
0000
0010
0000
0000
0301
0000
0000
1000
0000
0100
0000
0001
0000
,
0200
0000
0000
0000
0010
0000
0000
1300
0000
0000
0001
0000
0100
0000
0010
0000
,
2000
0000
0000
0000
0100
0000
0000
3001
0000
0000
0010
0000
1000
0000
0010
0000
,
0002
0000
0000
0000
0100
0000
0000
1003
0000
0000
0001
0000
0100
0000
0010
0000
,
0200
0000
0000
0000
0301
0000
1000
0100
0000
0000
0010
0000
0001
0000
1000
0000
,
0002
0000
0000
0000
0103
0000
0010
1000
0000
0000
0001
0000
0010
0000
0100
0000
,
2000
0000
0000
0000
3010
0000
0100
0001
0000
0000
1000
0000
0100
0000
1000
0000
,
0020
0000
0000
0000
0031
0000
0010
0100
0000
0000
1000
0000
0100
0000
0001
0000
,
0200
0000
0000
0000
0310
0000
1000
0001
0000
0000
1000
0000
0100
0000
1000
0000
,
0020
0000
0000
0000
0130
0000
0001
1000
0000
0000
0100
0000
0010
0000
0001
0000
,
1000
0010
1000
0001
1000
0100
1000
0001
,
1000
0000
0000
0110
0000
0000
0001
0000
0000
0110
0000
0000
1000
0000
0000
0000
,
0001
0000
0010
0000
0001
1000
0000
0000
0010
0000
0100
0000
0010
1000
0000
0000
,
0100
0000
0010
0000
0001
1000
0000
0000
0010
0000
1000
0000
0001
1000
0000
0000
,
0001
0000
0010
0000
0100
1000
0000
0000
0001
0000
0100
0000
0010
1000
0000
0000
,
0001
0000
1000
0000
0100
1000
0000
0000
0001
0000
0000
0100
0000
0000
1001
0000
,
0100
0000
0010
0000
0100
0010
0000
0000
0001
0000
0100
0000
0001
1000
0000
0000
,
0100
0000
0001
0000
0100
0010
0000
0000
0001
0000
0100
0000
0010
0100
0000
0000
,
0001
0000
0010
0000
0100
1000
0000
0000
0001
0000
0000
0000
1000
0000
0000
0000
,
0010
0000
0000
0101
0000
0000
0010
0000
0000
1100
0000
0000
0001
0000
1000
0000
,
0001
0000
0000
0000
;

//---------------dance-single - ----------------
#NOTES:
     dance-single:
     :
     Easy:
     3:
     0.227,0.227,0.008,0.084,0.000: // measure 1
0000
0000
0000
0000
,  // measure 2
0000
0000
0000
0000
,  // measure 3
0000
0000
0000
0000
,  // measure 4
0000
0000
0000
0000
,  // measure 5
1000
0000
0001
0000
,  // measure 6
1000
0000
0001
0000
,  // measure 7
1000
0000
0010
0000
,  // measure 8
1000
1000
0000
0001
,  // measure 9
1000
1000
0001
0001
,  // measure 10
1000
0010
1000
0100
,  // measure 11
1000
1000
0001
0001
,  // measure 12
1000
0000
0010
0100
,  // measure 13
0010
0100
0001
0010
,  // measure 14
0001
1000
0001
1000
,  // measure 15
0010
1000
0100
1000
,  // measure 16
0010
0100
0010
0000
,  // measure 17
1000
0100
1000
0010
,  // measure 18
1000
0001
1000
1000
,  // measure 19
0001
0100
0001
0010
,  // measure 20
0001
0000
1000
0000
,  // measure 21
0001
0000
0000
0100
,  // measure 22
0010
0000
0000
1000
,  // measure 23
0100
1000
0010
0000
,  // measure 24
0100
0000
0000
0001
,  // measure 25
2000
0000
0000
3010
,  // measure 26
0200
0000
0000
0310
,  // measure 27
1000
0001
1000
0100
,  // measure 28
2000
0000
0000
3010
,  // measure 29
0200
0000
0000
0000
,  // measure 30
0302
0000
0000
0000
,  // measure 31
2003
0000
3020
0000
,  // measure 32
0230
0000
0000
0301
,  // measure 33
2000
0000
0000
3010
,  // measure 34
0200
0000
0000
0301
,  // measure 35
1000
0100
1000
0000
,  // measure 36
1001
0000
0000
0000
,  // measure 37
1000
0010
1000
0100
,  // measure 38
1000
0010
0001
0010
,  // measure 39
1000
0100
0001
0100
,  // measure 40
1000
0001
0100
1000
,  // measure 41
0100
0001
0010
1000
,  // measure 42
0010
0001
0100
1000
,  // measure 43
0100
0001
1000
0001
,  // measure 44
0010
0001
1000
0010
,  // measure 45
0100
1000
0100
0001
,  // measure 46
0010
1000
0010
0001
,  // measure 47
0100
1000
0100
0001
,  // measure 48
1000
0100
1000
0100
,  // measure 49
0001
0010
0001
0100
,  // measure 50
1000
0100
0001
0010
,  // measure 51
1000
0010
0001
0100
,  // measure 52
0010
0000
1000
0000
,  // measure 53
0001
0100
0010
1000
,  // measure 54
0100
1000
0010
0100
,  // measure 55
0010
1000
0100
0010
,  // measure 56
0001
1000
0001
0000
,  // measure 57
1000
0010
0100
0010
,  // measure 58
1000
0001
0010
0001
,  // measure 59
1000
1000
0001
0001
,  // measure 60
1000
0000
0000
0001
,  // measure 61
1000
0000
0000
0000
;

//---------------dance-single - ----------------
#NOTES:
     dance-single:
     :
     Beginner:
     1:
     0.130,0.151,0.000,0.134,0.000: // measure 1
0000
0000
0000
0000
,  // measure 2
0000
0000
0000
0000
,  // measure 3
0000
0000
0000
0000
,  // measure 4
0000
0000
0000
0000
,  // measure 5
1000
0000
0000
0000
,  // measure 6
0001
0000
0000
0000
,  // measure 7
1000
0000
0001
0000
,  // measure 8
1000
0000
0000
0000
,  // measure 9
0010
0000
0010
0000
,  // measure 10
0010
0000
0010
0000
,  // measure 11
0100
0000
0100
0000
,  // measure 12
0001
0001
0001
0000
,  // measure 13
1000
0000
0010
0000
,  // measure 14
1000
0000
0001
0000
,  // measure 15
1000
0000
0100
0000
,  // measure 16
1000
0000
0001
0000
,  // measure 17
1000
0000
0010
0000
,  // measure 18
1000
0000
0001
0000
,  // measure 19
1000
0000
1000
0000
,  // measure 20
0001
0000
0000
0000
,  // measure 21
2000
0000
0000
0000
,  // measure 22
3020
0000
0000
0000
,  // measure 23
0230
0000
0000
0000
,  // measure 24
0302
0000
0000
0000
,  // measure 25
2003
0000
0000
0000
,  // measure 26
3020
0000
0000
0000
,  // measure 27
0230
0000
0000
0000
,  // measure 28
0302
0000
0000
0000
,  // measure 29
2003
0000
0000
0000
,  // measure 30
3002
0000
0000
0000
,  // measure 31
0203
0000
0000
0000
,  // measure 32
0320
0000
0000
0000
,  // measure 33
2030
0000
0000
0000
,  // measure 34
3002
0000
0000
0000
,  // measure 35
2003
0000
3020
0000
,  // measure 36
0130
0000
0000
0000
,  // measure 37
0001
0000
0001
0000
,  // measure 38
1000
0000
1000
0000
,  // measure 39
0010
0000
0010
0000
,  // measure 40
0100
0000
0100
0000
,  // measure 41
1000
0000
1000
0000
,  // measure 42
0100
0000
0100
0000
,  // measure 43
0001
0000
0001
0000
,  // measure 44
1000
0000
0000
0000
,  // measure 45
0001
0000
0001
0000
,  // measure 46
0100
0000
0100
0000
,  // measure 47
1000
0000
1000
0000
,  // measure 48
0100
0000
0100
0000
,  // measure 49
0001
0000
0001
0000
,  // measure 50
1000
0000
1000
0000
,  // measure 51
0001
0000
1000
0000
,  // measure 52
0001
0000
0000
0000
,  // measure 53
1000
0000
0010
0000
,  // measure 54
0100
0000
0010
0000
,  // measure 55
1000
0000
0100
0000
,  // measure 56
1000
0000
0001
0000
,  // measure 57
1000
0000
0010
0000
,  // measure 58
0100
0000
0001
0000
,  // measure 59
1000
0000
0001
0000
,  // measure 60
1000
0000
0000
0000
,  // measure 61
0001
0000
0000
0000
;
