#TITLE:Live and Learn;
#SUBTITLE:;
#ARTIST:Crush 40;
#TITLETRANSLIT:;
#SUBTITLETRANSLIT:;
#ARTISTTRANSLIT:;
#CREDIT:Xythar;
#BANNER:Live and Learn.png;
#BACKGROUND:Live and Learn-bg.png;
#LYRICSPATH:;
#CDTITLE:cdtitle.png;
#MUSIC:Live and Learn.mp3;
#OFFSET:-0.714;
#SAMPLESTART:60.780;
#SAMPLELENGTH:11.174;
#SELECTABLE:YES;
#BPMS:0.000=171.850;
#STOPS:;
#BGCHANGES:;

//---------------dance-single - ----------------
#NOTES:
     dance-single:
     :
     Hard:
     8:
     0.591,0.535,0.443,0.051,0.000:
0000
0000
0000
0000
,
0000
0000
0000
0000
,
0000
0000
0000
0000
,
0000
0000
0000
0000
,
1000
0010
0100
0010
1000
0001
0000
1000
,
0000
0001
0100
0010
0100
0001
0000
0000
,
0010
0100
0010
0100
1000
0010
0000
0000
,
0101
1010
1100
0011
,
1000
0001
1000
0000
0010
0100
0000
0001
,
0010
0000
0100
1000
0000
0000
0000
0000
,
1000
0100
1000
0010
0100
0001
1000
0100
,
1000
0010
0100
0001
0000
1000
0001
0000
,
1000
0100
1000
0010
0000
0100
0001
0010
,
0100
1000
0010
0100
0000
0001
1000
0100
,
1000
0102
1000
0010
,
1003
0100
1000
0010
0100
0001
1000
0100
,
0000
1000
0010
0100
0000
0001
1000
0000
,
0011
1100
0101
1010
,
0001
0100
0010
1000
0100
1000
0010
0100
,
0001
0010
0100
1000
0000
0010
0100
0000
,
0001
1000
0100
1000
0010
0100
0001
1000
,
0100
1000
0010
0100
0000
0001
1000
0100
,
0010
2100
0001
0010
,
3001
0100
0010
0100
0001
0010
0100
1000
,
0000
0010
0100
0001
0000
1000
0010
0000
,
0101
1010
0011
1100
,
0001
0100
0010
1000
0100
0000
0011
0000
,
0100
1000
0010
0100
0001
0000
1100
0000
,
0010
0100
0001
0100
0010
0000
1001
0000
,
0100
1000
0001
1001
0000
0010
0110
0000
,
0001
1000
0010
1000
0001
0000
1100
0000
,
0010
1000
0001
1000
0010
0000
0101
0000
,
0001
0010
0100
1000
0001
0000
0110
0000
,
1000
0100
0010
0001
1000
0010
0100
0000
,
0011
0000
1100
0000
0001
0100
0010
0000
,
1010
0000
0101
0000
0010
1000
0001
0000
,
0110
0000
1001
0000
0100
0010
0001
0000
,
1000
0010
0100
0001
0000
0001
1000
0000
,
0011
0000
1100
0000
0010
0100
0001
0100
,
0010
0000
1000
0100
0010
0100
1000
0010
,
0000
0100
0001
1000
0000
0010
1000
0001
,
0010
0100
0010
0001
0000
1000
0001
0000
,
2002
0000
0000
3003
,
0010
0100
0001
0010
0100
0010
0000
1001
,
0000
0010
0100
0001
0000
1000
0100
0000
,
1000
0010
0100
0010
0000
1000
0001
0010
,
0000
0100
1000
0010
0100
0001
1000
0000
,
0001
0010
0001
0010
0100
1000
0000
0101
,
0000
0010
1000
0001
0000
1000
0010
0000
,
1000
0100
1000
0010
0000
0100
0001
0000
,
1100
0011
0101
1010
,
0001
0100
0010
1000
0001
1000
0000
0110
,
0000
0001
0100
0010
0000
1000
0100
0000
,
0010
0001
0010
0001
0000
1000
0010
0100
,
0000
0001
1000
0100
0000
1000
0010
0000
,
1000
0100
1000
0100
0010
0001
0000
1010
,
0000
0001
0100
0010
0000
1000
0100
0000
,
1000
0010
0100
0010
1000
0100
0010
0000
,
0001
0100
0010
0000
1100
0000
0011
0000
,
0100
1000
0010
0100
0001
0010
0000
0100
,
0000
1000
0010
0100
0000
0001
1000
0000
,
0100
0100
0000
0000
1000
0000
0000
0000
,
2001
0010
0100
3001
,
1000
0010
0100
0001
1000
0100
0010
0001
,
0100
0010
1000
0100
0000
0000
0010
0000
,
1001
0000
0000
0000
;

//---------------dance-single - ----------------
#NOTES:
     dance-single:
     :
     Medium:
     6:
     0.407,0.402,0.175,0.031,0.000: // measure 1
0000
0000
0000
0000
,  // measure 2
0000
0000
0000
0000
,  // measure 3
0000
0000
0000
0000
,  // measure 4
0000
0000
0000
0000
,  // measure 5
1000
0000
0010
0000
0100
0001
0000
1000
,  // measure 6
0000
0100
1000
0000
1000
0010
0000
0000
,  // measure 7
0100
0000
0001
0000
1000
0100
0000
0000
,  // measure 8
0010
1100
0010
0101
,  // measure 9
1000
0000
0000
0000
,  // measure 10
0000
0000
1000
0010
,  // measure 11
1000
0100
1000
0010
,  // measure 12
0100
0000
0001
1000
0000
1000
0001
0000
,  // measure 13
0010
0100
1000
0010
,  // measure 14
0100
0000
0001
0010
0000
0010
0001
0000
,  // measure 15
2000
0010
0010
0010
,  // measure 16
3010
0000
0100
0000
0100
0000
0001
1000
,  // measure 17
0001
1000
0100
1000
,  // measure 18
0001
0110
1000
0110
,  // measure 19
0001
0100
0010
1000
,  // measure 20
0100
0000
0010
0100
0000
0100
0010
0000
,  // measure 21
0001
0100
0010
1000
,  // measure 22
0001
0000
0010
0100
0000
0100
0010
0000
,  // measure 23
0002
1000
1000
1000
,  // measure 24
1003
0000
0010
0000
0100
0000
0010
0100
,  // measure 25
0010
1000
0001
0010
,  // measure 26
0100
1001
0010
1001
,  // measure 27
0100
0000
1000
0000
0001
0100
0001
0000
,  // measure 28
1000
0000
0100
0000
0010
0001
0010
0000
,  // measure 29
0001
0000
0100
0000
0010
1000
0010
0000
,  // measure 30
1000
0001
1000
0001
0000
0001
1000
0000
,  // measure 31
0100
0000
0010
0000
0001
0010
0001
0000
,  // measure 32
1000
0000
0010
0000
0100
0001
0100
0000
,  // measure 33
0001
0000
1000
0000
0100
1000
0100
0000
,  // measure 34
1000
0010
1000
0010
0000
0100
0001
0000
,  // measure 35
1000
0000
0100
0000
0010
0001
0010
0000
,  // measure 36
0100
0000
1000
0000
0010
0100
0010
0000
,  // measure 37
0001
0000
1000
0000
0100
1000
0100
0000
,  // measure 38
0010
0001
0010
0001
0000
1000
0001
0000
,  // measure 39
0100
0000
0010
0000
1000
0001
1000
0000
,  // measure 40
0001
0000
1000
0000
0001
1000
0001
0000
,  // measure 41
0110
0000
1000
0000
0001
0100
0001
0000
,  // measure 42
1000
0000
0010
0100
0000
0100
0010
0000
,  // measure 43
2000
0000
0000
3000
,  // measure 44
0001
0000
0100
0000
0010
1000
0000
1010
,  // measure 45
0000
0100
1000
0010
,  // measure 46
0100
0000
0000
0001
0000
0001
0000
1000
,  // measure 47
0000
0100
1000
0010
,  // measure 48
0100
0000
0100
0000
0001
1000
0000
1001
,  // measure 49
0000
0100
0010
0001
,  // measure 50
1000
0010
0100
0001
,  // measure 51
1000
0101
0010
0101
,  // measure 52
1000
0000
0010
0000
0100
0001
0000
0101
,  // measure 53
0000
0010
1000
0100
,  // measure 54
0010
0001
0100
0010
,  // measure 55
1000
0100
1000
0010
,  // measure 56
0100
0000
0001
0000
1000
0100
0000
1100
,  // measure 57
0000
0010
0100
0001
,  // measure 58
1000
0001
0010
0001
,  // measure 59
1000
0101
0010
0101
,  // measure 60
1000
0000
0001
0000
0010
0100
0000
1000
,  // measure 61
0000
0010
0000
0100
0000
0001
1000
0000
,  // measure 62
0001
1000
0000
0000
0001
0000
0000
0000
,  // measure 63
1000
0101
1000
0010
,  // measure 64
0100
0001
0000
0000
0000
0000
0000
0000
,  // measure 65
0000
0000
0000
1000
,  // measure 66
1001
0000
0000
0000
;

//---------------dance-single - ----------------
#NOTES:
     dance-single:
     :
     Easy:
     4:
     0.254,0.268,0.093,0.000,0.000: // measure 1
0000
0000
0000
0000
,  // measure 2
0000
0000
0000
0000
,  // measure 3
0000
0000
0000
0000
,  // measure 4
0000
0000
0000
0000
,  // measure 5
1000
0001
0010
0000
,  // measure 6
0001
1000
0010
0000
,  // measure 7
0100
0001
1000
0000
,  // measure 8
1001
0000
1001
0000
,  // measure 9
1000
0000
0000
0000
,  // measure 10
0000
0000
0000
0000
,  // measure 11
0001
0100
0010
1000
,  // measure 12
0100
0000
1000
0000
,  // measure 13
0010
0100
0001
0100
,  // measure 14
0010
0000
1000
0000
,  // measure 15
0001
0010
0100
1000
,  // measure 16
0010
0000
0100
0000
,  // measure 17
0001
0000
1000
0000
,  // measure 18
0100
0100
0100
0100
,  // measure 19
1000
0010
0100
0000
,  // measure 20
0001
1000
0100
0000
,  // measure 21
1000
0010
0100
0000
,  // measure 22
0001
0010
0100
1000
,  // measure 23
0001
0000
1000
0000
,  // measure 24
0010
0000
0100
0001
,  // measure 25
0010
0000
0100
0000
,  // measure 26
1000
1000
1000
0000
,  // measure 27
0010
0100
0001
0000
,  // measure 28
0010
0100
1000
0000
,  // measure 29
0001
0100
0010
0000
,  // measure 30
1000
0001
0010
0000
,  // measure 31
0001
1000
0010
0000
,  // measure 32
0100
0001
1000
0000
,  // measure 33
0100
1000
0001
0000
,  // measure 34
0100
0010
1000
0100
,  // measure 35
0010
0001
0100
0000
,  // measure 36
0010
1000
0100
0000
,  // measure 37
1000
0001
0100
0010
,  // measure 38
1000
0100
1000
0000
,  // measure 39
0010
0100
0001
0010
,  // measure 40
0100
0000
1000
0001
,  // measure 41
0100
0000
0001
0000
,  // measure 42
1000
0100
1000
0000
,  // measure 43
0010
0000
0000
0000
,  // measure 44
1000
0000
0001
0000
,  // measure 45
1001
0000
0010
0000
,  // measure 46
0100
0001
0010
0100
,  // measure 47
1000
0000
0010
0000
,  // measure 48
0100
0001
1000
0000
,  // measure 49
1001
0000
0010
0000
,  // measure 50
0100
0001
0100
0001
,  // measure 51
1000
1000
1000
1000
,  // measure 52
0001
0010
0100
0000
,  // measure 53
1000
0010
0100
0000
,  // measure 54
0001
0100
0010
0100
,  // measure 55
0001
0000
0010
0000
,  // measure 56
0100
1000
0010
0000
,  // measure 57
1001
0000
0010
0000
,  // measure 58
0100
0001
1000
0000
,  // measure 59
0100
0100
0100
0100
,  // measure 60
0010
0000
0000
0000
,  // measure 61
0001
0000
0000
0000
,  // measure 62
1001
0000
0000
0000
,  // measure 63
1001
0000
0000
0000
,  // measure 64
1001
0000
0000
0000
,  // measure 65
1000
0000
0000
0000
,  // measure 66
1001
0000
0000
0000
;
