#TITLE:LOVE TROPICANA DELUXE;
#SUBTITLE:;
#ARTIST:Sister Mayo;
#TITLETRANSLIT:;
#SUBTITLETRANSLIT:;
#ARTISTTRANSLIT:;
#CREDIT:Xythar;
#BANNER:LOVE TROPICANA DELUXE-bn.avi;
#BACKGROUND:LOVE TROPICANA DELUXE-bg.png;
#LYRICSPATH:;
#CDTITLE:Jungle Wa Itsumo Hale Nochi Guu Deluxe.png;
#MUSIC:LOVE TROPICANA DELUXE.mp3;
#OFFSET:-4.206;
#SAMPLESTART:58.691;
#SAMPLELENGTH:14.037;
#SELECTABLE:YES;
#BPMS:0.000=136.590;
#STOPS:;
#BGCHANGES:3.750=LOVE TROPICANA DELUXE.avi=1.000=0=0=1,
188.000=LOVE TROPICANA DELUXE-eg.png=1.000=0=0=1,
99999=-nosongbg-=1.000=0=0=0 // don't automatically add -songbackground-
;

//---------------dance-single - ----------------
#NOTES:
     dance-single:
     :
     Easy:
     4:
     0.297,0.331,0.227,0.076,0.000:
0000
0000
0000
0000
,
0001
0010
0100
0000
,
0100
0010
0001
0000
,
1000
0010
0100
0010
,
1000
0000
0000
0001
0000
0000
1001
0000
,
0001
0010
0100
1000
,
0010
0100
0001
0000
,
1000
0100
1000
0010
,
0100
0001
1000
0000
,
0001
0100
0010
0100
,
0001
1000
0100
0000
,
1000
0001
1000
0001
,
1001
0000
0110
0000
,
0100
0001
1000
0100
,
2000
0000
3001
0000
,
0100
0010
0100
0001
,
0020
0000
0130
0000
,
1000
0010
0100
0001
,
0010
0100
1000
0000
,
0002
0000
1003
0100
,
1000
0010
0100
0110
,
2000
0000
0001
3001
,
0200
0000
0010
0310
,
2000
0000
0100
3100
,
0020
0000
0001
0031
,
1000
0010
0100
0001
,
1000
0100
0010
0001
,
1000
0100
1000
0001
,
0100
0010
0100
0001
,
1000
0010
0100
0010
,
1001
1001
1001
1001
,
0010
0100
1000
0000
,
0001
0100
0010
1001
,
0010
0100
1000
0000
,
0010
0100
0001
0110
,
1000
0100
0010
0000
,
0100
1000
0001
1001
,
0100
1001
0010
1001
,
0010
0100
1000
1001
,
0010
0100
0001
0100
,
0010
1000
0001
0110
,
0001
0010
0100
1000
,
0010
0100
0001
0110
,
1000
0100
0010
0001
,
1000
0010
0100
1001
,
0010
1001
0110
1001
,
0010
0100
1000
1001
,
0100
0000
0000
0000
;

//---------------dance-single - ----------------
#NOTES:
     dance-single:
     :
     Hard:
     8:
     0.541,0.458,0.152,0.087,0.417: // measure 1
0000
0000
0000
0000
,  // measure 2
1000
0000
0100
0000
0010
0000
0001
1000
0000
1000
0000
0001
0100
0000
0000
0000
,  // measure 3
0010
0000
1000
0000
0100
0000
0010
0001
0000
0001
0000
1000
0001
0000
0000
0000
,  // measure 4
0000
0001
0000
0010
0000
0100
0000
1000
0000
0010
0000
0200
0000
0000
0301
0000
,  // measure 5
1000
0100
0000
0100
0010
0000
0001
0000
0000
0000
0000
0000
1100
0000
0000
0000
,  // measure 6
0001
0000
0100
0000
0010
0000
0000
1000
0000
0100
0000
1000
0001
0000
0100
0000
,  // measure 7
0010
0000
0100
0000
0001
0000
1000
0001
0000
0000
0000
0000
1000
0000
0000
0000
,  // measure 8
0100
0000
1000
0000
0001
0000
0000
0100
0000
0010
0000
0100
0001
0000
1000
0000
,  // measure 9
0100
0000
0010
0000
0001
0000
1000
0001
0000
0001
0000
0100
0010
0000
0100
0000
,  // measure 10
0010
0000
0100
0000
0001
0000
0000
0100
0000
0010
0000
1000
0010
0000
1000
0000
,  // measure 11
0100
0000
0010
0000
0001
0000
1000
0001
0000
0000
0000
0000
1000
0000
0000
0000
,  // measure 12
1100
0000
0000
0000
0011
0000
0000
0100
1000
0000
0001
0000
0100
0000
1000
0000
,  // measure 13
0100
0000
0001
0000
0000
0000
1000
0001
1000
0000
0000
0000
1001
0000
0000
0000
,  // measure 14
1000
0000
0100
0000
0010
0000
0000
0001
0000
0100
0000
0010
0100
0000
0001
0000
,  // measure 15
2000
0100
3001
0100
,  // measure 16
1000
0000
0100
0000
0001
0000
0000
0010
0000
0100
0000
1000
0100
0000
1000
0000
,  // measure 17
0002
0100
1003
1100
,  // measure 18
0010
0000
0001
0000
1000
0000
0000
0001
0000
0100
0000
0010
0100
0000
0001
0000
,  // measure 19
1000
0100
0010
0100
1000
0000
0001
0100
,  // measure 20
0010
0000
0100
0001
1000
0100
0001
0100
,  // measure 21
1000
0000
0010
0000
0100
0000
0001
0000
1000
0001
0000
0001
0100
0000
0000
0000
,  // measure 22
0020
0000
0000
1000
0000
0000
1030
0000
0100
0000
0010
0000
0001
0000
0000
0000
,  // measure 23
0200
0000
0000
1000
0000
0000
1300
0000
0100
0000
0001
0000
1000
0000
0000
0000
,  // measure 24
0200
0000
0000
0010
0000
0000
0310
0000
1000
0000
0010
0000
0001
0000
0000
0000
,  // measure 25
0020
0000
0000
0100
0000
0000
0130
0000
0001
0000
0100
0000
1000
0000
0000
0000
,  // measure 26
0001
0100
0001
1000
0010
1000
0100
1000
,  // measure 27
0100
0010
0001
0010
0001
0100
0010
1000
,  // measure 28
0100
0010
0001
0100
1000
0100
0001
0010
,  // measure 29
1000
0010
0001
1000
0100
0010
0001
0100
,  // measure 30
0010
1000
0100
0010
0100
1000
0010
0100
,  // measure 31
0010
1000
0000
0001
1000
0001
0000
1000
0000
0001
0000
1000
0001
0000
0000
0000
,  // measure 32
1000
0000
0010
0000
0100
0000
0000
0001
0000
0100
0000
0010
1000
0000
0100
0000
,  // measure 33
0010
0000
0001
0000
1000
0000
0100
1000
0000
0000
0000
0000
1001
0000
0000
0000
,  // measure 34
0010
0000
0100
0000
0001
0000
0000
0100
0000
0010
0000
1000
0100
0000
0010
0000
,  // measure 35
0100
0000
1000
0000
0001
0000
0100
0010
0000
0000
0000
0000
0101
0000
0000
0000
,  // measure 36
0010
0000
0100
0000
0001
0000
0000
0100
0000
1000
0000
0100
0001
0000
0001
0000
,  // measure 37
1000
0000
0100
0000
0010
0000
0001
1000
0000
0000
0000
0000
1001
0000
0000
0000
,  // measure 38
2000
0000
3010
0000
0010
0100
0001
1000
,  // measure 39
0100
0000
1000
0000
0000
0000
0001
1000
0001
0000
0000
0000
1001
0000
0000
0000
,  // measure 40
1000
0000
0100
0000
0010
0000
0001
0100
0000
0010
0000
0010
1000
0000
0100
0000
,  // measure 41
1000
0000
0001
0000
0100
0000
0010
1000
0000
0000
0000
0000
0101
0000
0000
0000
,  // measure 42
1000
0000
0100
0000
0010
0000
0001
1000
0000
1000
0000
0010
0100
0000
0001
0000
,  // measure 43
0100
0000
1000
0000
0100
0000
0001
1000
0000
0000
0000
0000
0110
0000
0000
0000
,  // measure 44
0001
0000
0010
0000
0100
0000
1000
0100
0000
1000
0000
0010
0100
0000
0001
0000
,  // measure 45
1000
0000
0010
0000
0100
0000
0001
1000
0000
0000
0000
0000
1001
0000
0000
0000
,  // measure 46
0100
1000
0100
0010
0100
0001
1000
0100
,  // measure 47
0010
0000
0011
0000
0000
0000
0001
1000
0001
0000
0000
0000
1001
0000
0000
0000
,  // measure 48
0100
0000
0000
0000
;

//---------------dance-single - ----------------
#NOTES:
     dance-single:
     :
     Medium:
     7:
     0.456,0.407,0.260,0.000,0.027:
0000
0000
0000
0000
,
1000
0010
0100
0000
0010
0000
0110
0000
,
1000
0100
0010
0000
0100
0000
0110
0000
,
1000
0010
0100
0000
0001
0010
0100
0000
,
1000
0000
0000
0001
0000
0000
1001
0000
0000
0000
0000
0000
0110
0000
0000
0000
,
1000
0100
0001
0000
0001
0100
1000
0000
,
0010
0100
0001
0100
0010
0000
0000
0000
,
1000
0001
0010
0000
0100
1000
0001
0000
,
0100
0010
0100
0001
1000
0000
0000
0000
,
0100
1000
0010
0000
0100
0001
0010
0000
,
0100
1000
0001
1000
0100
0000
0000
0000
,
1100
0000
0010
0000
0101
0000
0010
1000
,
0001
0100
0010
1000
0100
0000
0011
0000
,
0100
1000
0001
0000
0100
0010
1000
0000
,
0001
0010
0100
1000
0010
0000
0101
0000
,
0100
1000
0010
0000
0100
0001
0010
0000
,
0100
1000
0001
1000
0010
0000
0101
0000
,
1000
0010
0100
0000
0001
0010
0100
0000
,
0001
0100
1000
0010
0100
0000
0001
0000
,
1000
0010
0100
0000
0001
0010
0100
0000
,
1000
0001
1000
0001
1001
0000
0110
0000
,
1000
0000
0000
0100
0000
0000
0010
0000
0001
0000
1000
0000
0000
0000
0000
0000
,
0010
0000
0000
0100
0000
0000
0001
0000
1000
0000
0100
0000
0000
0000
0000
0000
,
1000
0000
0000
0010
0000
0000
0100
0000
0001
0000
1000
0000
0000
0000
0000
0000
,
0100
0000
0000
0010
0000
0000
0001
0000
0100
0000
0010
0000
0000
0000
0000
0000
,
1000
0100
1000
0000
0001
0010
0001
0000
,
1000
0010
1000
0000
0001
0100
0001
0000
,
1000
0100
0010
0000
0001
0100
0010
0000
,
1000
0001
0010
0000
0100
1000
0001
0000
,
1000
0010
0100
0010
1000
0010
0100
0010
,
1000
0001
0010
0000
0100
1000
1001
0000
,
0010
0100
0001
0000
0010
0100
1000
0000
,
0010
0100
0001
0100
0010
0000
1100
0000
,
0010
0001
0100
0000
0010
1000
0001
0000
,
1000
0100
0001
0100
1000
0000
0101
0000
,
0010
1000
0001
0000
0010
0100
1000
0000
,
0010
0100
0001
0100
0010
0000
1100
0000
,
0001
0010
0100
0010
0001
0100
0010
0100
,
0001
1000
0000
0001
1001
0000
0110
0000
,
0001
0100
0010
0100
0001
1000
0001
0000
,
1000
0100
0010
0001
1000
0000
1001
0000
,
0001
0100
0010
1000
0010
0100
0001
0000
,
1000
0100
0010
0100
1000
0000
0011
0000
,
0100
1000
0001
1000
0001
0100
1000
0100
,
0001
0010
1000
0010
0001
0000
1100
0000
,
1001
0000
0110
0000
0100
0001
1000
0100
,
0010
0001
0000
1000
1001
0000
0110
0000
,
0001
0000
0000
0000
;

//---------------dance-single - ----------------
#NOTES:
     dance-single:
     :
     Beginner:
     1:
     0.158,0.204,0.087,0.000,0.000:
0000
0000
0000
0000
,
1000
0000
0000
0000
,
0001
0000
0000
0000
,
1000
0000
0010
0000
,
0100
0100
0000
0001
,
0001
0000
0010
0000
,
0100
0100
0100
0000
,
1000
0000
0010
0000
,
0100
0100
0100
0000
,
0001
0000
1000
0000
,
0001
0001
0001
0000
,
1000
0000
0100
0000
,
0010
0000
0001
0000
,
1000
0000
0000
0000
,
0010
0000
0100
0000
,
0001
0000
0000
0000
,
0010
0000
0100
0000
,
1000
0000
0001
0000
,
1000
0000
0001
0000
,
1000
0000
0010
0000
,
0100
0000
0001
0001
,
0001
0000
0000
0000
,
1000
0000
0000
0000
,
1001
0000
0000
0000
,
0110
0000
0000
0000
,
0001
0000
0010
0000
,
0100
0000
1000
0000
,
0010
0000
0100
0000
,
0001
0000
1000
0000
,
0100
0000
0010
0000
,
0100
0000
1001
0000
,
1000
0000
0010
0000
,
0100
0000
0000
0100
,
0100
0000
0001
0000
,
1000
0000
0000
0001
,
0001
0000
0010
0000
,
0100
0000
0000
1000
,
1000
0000
0010
0000
,
0100
0100
0100
0000
,
1001
0000
1001
0000
,
0100
0100
0100
0000
,
0110
0000
0110
0000
,
0001
0001
0001
0000
,
1000
0000
0010
0000
,
0100
0100
0100
0100
,
0000
0000
0001
0000
,
1000
0000
1001
0000
,
0100
0000
0000
0000
;
