#TITLE:LOVE涙色;
#SUBTITLE:;
#ARTIST:松浦亜弥;
#TITLETRANSLIT:LOVE Namida Iro;
#SUBTITLETRANSLIT:;
#ARTISTTRANSLIT:Aya Matsuura;
#CREDIT:Xythar;
#BANNER:LOVE Namida Iro BN.avi;
#BACKGROUND:LOVE Namida Iro BG.png;
#LYRICSPATH:LOVE Namida Iro.lrc;
#CDTITLE:CDTitle.png;
#MUSIC:LOVE Namida Iro.mp3;
#OFFSET:1.939;
#SAMPLESTART:14.300;
#SAMPLELENGTH:8.135;
#SELECTABLE:YES;
#BPMS:0.000=117.970,232.000=116.700,242.500=89.700,244.000=85.000,245.500=80.700;
#STOPS:;
#BGCHANGES:4.250=LOVE Namida Iro.avi=1.000=0=0=1,
99999=-nosongbg-=1.000=0=0=0 // don't automatically add -songbackground-
;

//---------------dance-single - TRICK----------------
#NOTES:
     dance-single:
     TRICK:
     Medium:
     5:
     0.240,0.302,0.082,0.045,0.000: // measure 1
0000
0000
0000
0000
,  // measure 2
0000
0000
0000
0000
,  // measure 3
0000
0000
0000
0000
,  // measure 4
0000
0000
0000
0000
,  // measure 5
0000
0000
0000
0000
,  // measure 6
0000
0000
0000
0000
,  // measure 7
0000
0000
0000
0000
,  // measure 8
1000
0000
0000
0001
0000
0000
1000
0000
,  // measure 9
0100
0000
0000
0000
0000
0100
0010
0000
,  // measure 10
0001
1000
0100
0000
,  // measure 11
1000
0010
1000
0000
0001
0000
0100
0000
,  // measure 12
0010
0000
0000
0010
0000
0000
1010
0000
,  // measure 13
0100
0000
0000
0000
0000
0010
0001
0000
,  // measure 14
1000
0001
0100
0000
,  // measure 15
0010
1000
0010
0000
0100
0000
0001
0000
,  // measure 16
1000
0000
0100
0010
,  // measure 17
0001
0000
1000
0000
,  // measure 18
0001
0000
0001
1000
,  // measure 19
0100
0100
0000
0010
0000
0000
0001
0000
,  // measure 20
1000
0000
0010
0000
0100
0000
0001
0100
,  // measure 21
0001
0000
0001
1000
0000
0100
0000
0010
,  // measure 22
0200
1000
1300
0010
,  // measure 23
0100
0000
0000
0100
,  // measure 24
0001
0000
1000
0000
0100
0000
0010
0100
,  // measure 25
0010
0000
0001
0100
0000
0010
0000
0100
,  // measure 26
0001
0000
1000
0000
,  // measure 27
0001
0010
0100
1100
,  // measure 28
1000
0000
0010
0000
0100
0000
0001
0100
,  // measure 29
0001
0000
0100
0010
0000
1000
0000
0100
,  // measure 30
0020
0000
0001
0000
0031
0000
0010
0100
,  // measure 31
0010
0100
1000
0000
,  // measure 32
0001
0000
0100
0010
0100
0000
0001
0000
,  // measure 33
1000
0000
0100
1000
0000
0001
0000
0100
,  // measure 34
0002
0010
0100
1003
,  // measure 35
0010
0000
0000
0100
0000
0001
0001
0000
,  // measure 36
1000
1100
1000
1100
,  // measure 37
0001
0000
0100
0100
0000
0010
0010
0000
,  // measure 38
0100
0101
0100
0101
,  // measure 39
0001
0000
1000
1000
0000
0001
0000
0010
,  // measure 40
0000
0000
0100
0000
1000
0000
0000
0001
,  // measure 41
1000
0000
0010
0100
,  // measure 42
0001
0000
0000
0001
0000
0000
1000
0000
,  // measure 43
0100
0010
0100
0010
0000
0000
1001
0000
,  // measure 44
0020
0130
0000
0001
,  // measure 45
1000
0100
1000
0000
,  // measure 46
0010
0100
0001
0100
,  // measure 47
0110
0000
0000
1000
0000
0001
0001
0000
,  // measure 48
2000
3100
1000
0010
,  // measure 49
0110
0001
0110
1000
,  // measure 50
0001
0100
0001
0000
1000
0100
1000
0000
,  // measure 51
0001
0000
0010
0100
,  // measure 52
1001
0000
0010
0000
,  // measure 53
0200
0010
0310
0100
,  // measure 54
0001
0000
1000
0000
0100
0000
1000
0001
,  // measure 55
1000
0010
0100
0001
,  // measure 56
0010
0000
0100
0000
0010
0000
0001
1000
,  // measure 57
0001
0000
1000
0000
0010
0000
1000
0001
,  // measure 58
0100
0001
1000
0100
1000
0000
0001
0000
,  // measure 59
0010
0000
0000
0000
0000
0000
0000
0100
,  // measure 60
0000
0000
0000
0000
,  // measure 61
1000
0000
0000
0000
,  // measure 62
0001
0000
0000
1000
0000
0000
0000
0000
,  // measure 63
0000
0100
0000
0000
;

//---------------dance-single - BASIC----------------
#NOTES:
     dance-single:
     BASIC:
     Easy:
     3:
     0.172,0.209,0.075,0.000,0.000: // measure 1
0000
0000
0000
0000
,  // measure 2
0000
0000
0000
0000
,  // measure 3
0000
0000
0000
0000
,  // measure 4
0000
0000
0000
0000
,  // measure 5
0000
0000
0000
0000
,  // measure 6
0000
0000
0000
0000
,  // measure 7
0000
0000
0000
0000
,  // measure 8
1000
0000
0000
0001
,  // measure 9
1000
0000
0000
0100
,  // measure 10
0010
0000
0001
0000
,  // measure 11
1000
0010
1000
0001
,  // measure 12
1001
0000
0010
0100
,  // measure 13
1000
0000
0000
0001
,  // measure 14
0100
0010
0100
0000
,  // measure 15
0001
0010
0100
0000
,  // measure 16
1000
0000
0001
1000
,  // measure 17
1001
0000
0010
0000
,  // measure 18
0100
0001
0000
0000
,  // measure 19
1000
0100
0100
1000
,  // measure 20
0001
0000
0100
0000
,  // measure 21
0010
1000
0001
1000
,  // measure 22
0100
0000
0010
0000
,  // measure 23
0001
1000
0010
0100
,  // measure 24
0001
0000
1000
0000
,  // measure 25
0100
1000
0001
0100
,  // measure 26
0010
0000
1000
0000
,  // measure 27
0001
0010
0100
1000
,  // measure 28
0010
0000
0100
0000
,  // measure 29
0001
1000
0001
1000
,  // measure 30
0100
0000
0010
0000
,  // measure 31
0001
1000
0010
0100
,  // measure 32
0110
0000
0100
0000
,  // measure 33
0001
1000
0100
1000
,  // measure 34
0001
0000
0000
0010
,  // measure 35
0100
0100
1000
1000
,  // measure 36
1001
0000
1001
0000
,  // measure 37
0001
0100
0010
0100
,  // measure 38
0110
0000
0110
0000
,  // measure 39
0100
0001
0010
0100
,  // measure 40
1000
0000
0001
0000
,  // measure 41
0100
0000
0001
0010
,  // measure 42
0100
0000
1000
0000
,  // measure 43
1001
1001
0000
0010
,  // measure 44
0100
0000
0000
0001
,  // measure 45
1000
0100
1000
0000
,  // measure 46
0001
0100
0010
0100
,  // measure 47
0001
0000
0010
0100
,  // measure 48
1000
0000
0000
0001
,  // measure 49
1000
0010
1000
0001
,  // measure 50
1000
0000
0100
0010
,  // measure 51
0001
0000
0100
0010
,  // measure 52
0100
0000
0001
0000
,  // measure 53
1001
0001
1000
0000
,  // measure 54
0100
1000
0010
0000
,  // measure 55
0100
0001
1000
0100
,  // measure 56
0010
0000
0001
0100
,  // measure 57
0010
0100
0001
0000
,  // measure 58
0100
1000
0100
0000
,  // measure 59
1000
0000
0000
0000
,  // measure 60
0000
0000
0000
0000
,  // measure 61
0001
0000
0000
0000
,  // measure 62
1000
0000
0000
0000
,  // measure 63
0000
0001
0000
0000
;

//---------------dance-single - MANIAC----------------
#NOTES:
     dance-single:
     MANIAC:
     Hard:
     7:
     0.333,0.465,0.149,0.104,0.146: // measure 1
0000
0000
0000
0000
,  // measure 2
0000
0000
0000
0000
,  // measure 3
0000
0000
0000
0000
,  // measure 4
0000
0000
0000
0000
,  // measure 5
0000
0000
0000
0000
,  // measure 6
0000
0000
0000
0000
,  // measure 7
0000
0000
0000
0000
,  // measure 8
1000
0001
0000
0001
1000
0000
0010
0000
,  // measure 9
0200
0000
0000
0000
0001
0000
0000
0301
0000
0000
1000
0000
0100
0000
0000
0200
,  // measure 10
0000
0000
0000
0000
0310
0000
0000
0001
0000
0000
1000
0000
0001
0000
0000
0000
,  // measure 11
0100
0000
0010
0000
0100
0000
0000
0001
0000
0000
0010
0000
0100
0000
1000
0000
,  // measure 12
0010
0000
0000
0100
0000
0000
0001
0000
0000
0000
1000
0000
1001
0000
0000
0000
,  // measure 13
0002
0000
0000
0000
0010
0000
0000
0013
0000
0000
0100
0000
1000
0000
0000
0002
,  // measure 14
0000
0000
0000
0000
0103
0000
0000
1000
0000
0000
0100
0000
0001
0000
0000
0000
,  // measure 15
1000
0100
0010
0000
0001
0100
0010
0000
,  // measure 16
0100
0000
0000
0001
0000
0000
0010
0000
0100
0000
0000
0000
1000
0000
0000
0000
,  // measure 17
0001
0000
0100
0000
,  // measure 18
0001
0000
0000
0000
0000
0010
0100
1000
,  // measure 19
0001
1000
0000
1001
0000
0000
0010
0000
,  // measure 20
0100
0000
0000
0000
0001
0000
0000
1000
0000
0000
0010
0000
0100
0000
0010
0000
,  // measure 21
1000
0000
0100
0010
0000
0001
0000
0100
,  // measure 22
0020
0000
0000
0000
0100
0000
0000
0130
0000
0000
0010
0000
0100
0000
0001
0000
,  // measure 23
1000
0000
0000
0000
0100
0000
0000
1000
0000
0000
0001
0000
0000
0000
0000
0000
,  // measure 24
0100
0000
0000
0000
0010
0000
0000
1000
0000
0000
0001
0000
0100
0000
0001
0000
,  // measure 25
1000
0000
0100
0010
0000
0001
0000
2000
,  // measure 26
0001
0000
0000
0000
0001
0000
0000
3001
0000
0000
0100
0000
0000
0000
0000
0000
,  // measure 27
0010
0100
0101
1100
,  // measure 28
0001
0000
0000
0000
0010
0000
0000
0100
0000
0000
1000
0000
0100
0000
1000
0000
,  // measure 29
0001
0000
0100
0010
0000
0100
0000
0001
,  // measure 30
0020
0000
0000
0000
0100
0000
0000
0130
0000
0000
0100
0000
1000
0000
0001
0000
,  // measure 31
1000
0000
0000
0000
0010
0000
0000
0100
0000
0000
0010
0000
1000
0000
0000
0000
,  // measure 32
1001
0000
0000
0000
0001
0000
0000
0010
0000
0000
0001
0000
0100
0000
0010
0000
,  // measure 33
0100
0000
1000
0010
0000
0001
0000
0100
,  // measure 34
0020
0000
0000
0000
1000
0000
0000
1030
0000
0000
0010
0000
0100
0000
0010
0000
,  // measure 35
0101
0000
0000
0001
0000
0000
1100
0000
0000
0000
0001
0000
1001
0000
0000
0000
,  // measure 36
0001
0100
0000
0010
0100
0000
0001
0100
0000
0010
0100
0000
0001
0000
0010
0000
,  // measure 37
0110
0000
1000
1001
0000
0010
0100
0000
,  // measure 38
1000
0100
0000
0010
0100
0000
1000
0100
0000
0010
0100
0000
0001
0000
1000
0000
,  // measure 39
1100
0000
0001
0101
0000
0100
0000
0100
,  // measure 40
0000
0000
0000
0000
0001
0000
0000
0000
0010
0000
0000
0100
0000
0000
1000
0000
,  // measure 41
0010
0000
0000
0100
0010
0100
0001
1000
,  // measure 42
1001
0000
0000
0100
0000
0000
0110
0000
0000
0000
0000
0000
0010
0000
0000
0000
,  // measure 43
1000
0100
0010
0001
0000
1000
0001
0000
,  // measure 44
0210
0000
0000
0000
0010
0000
0000
0310
0000
0000
0100
0000
0001
0000
0000
0001
,  // measure 45
0000
0000
0000
0000
0010
0000
0000
0010
0000
0000
0000
0000
0000
0000
0000
0000
,  // measure 46
0100
0000
1000
0000
0001
0000
0000
0100
0000
0000
0001
0000
1000
0000
0100
0000
,  // measure 47
0010
0000
0000
0001
0000
0000
1001
0000
0000
0000
0100
0000
0110
0000
0000
0000
,  // measure 48
2010
0000
0000
0000
0001
0000
0000
3001
0000
0000
0010
0000
0100
0000
0000
1100
,  // measure 49
0000
0000
0000
0000
0001
0000
0000
0101
0000
0000
0000
0000
0010
0000
0000
0000
,  // measure 50
1000
0001
0010
0000
0100
1000
0001
0000
,  // measure 51
0100
0000
0000
0010
0000
0000
0100
0000
0001
0000
0010
0000
0100
0000
1000
0000
,  // measure 52
0001
0000
1000
0000
,  // measure 53
0200
0001
0010
1300
,  // measure 54
0010
0000
0100
0000
0001
1000
0100
1000
,  // measure 55
0002
0010
1000
0103
,  // measure 56
0010
0000
1000
0000
0100
0010
0001
0100
,  // measure 57
0020
0000
0001
0000
0100
0000
1030
0100
,  // measure 58
1000
0001
1000
0010
0200
0000
0001
0000
,  // measure 59
0310
0000
0000
1000
0000
0100
0000
0010
,  // measure 60
0000
0000
0000
0001
0000
0000
0000
0000
,  // measure 61
1000
0000
0000
0010
0000
0100
0000
0000
,  // measure 62
0001
0000
0000
1000
0000
0000
0000
0000
,  // measure 63
0000
0001
0000
0000
;
