#TITLE:LAST CHRISTMAS;
#SUBTITLE:;
#ARTIST:Cyber X feat. Ray Parker Jr.;
#TITLETRANSLIT:;
#SUBTITLETRANSLIT:;
#ARTISTTRANSLIT:;
#CREDIT:Xythar;
#BANNER:LAST CHRISTMAS.png;
#BACKGROUND:LAST CHRISTMAS-bg.png;
#LYRICSPATH:;
#CDTITLE:THE BEST OF XMAS TRANCE 2005.png;
#MUSIC:LAST CHRISTMAS.mp3;
#OFFSET:-0.055;
#SAMPLESTART:40.351;
#SAMPLELENGTH:12.000;
#SELECTABLE:YES;
#DISPLAYBPM:143.000;
#BPMS:0.000=142.960;
#STOPS:;
#BGCHANGES:;

//---------------dance-single - ----------------
#NOTES:
     dance-single:
     :
     Hard:
     7:
     0.401,0.428,0.167,0.000,0.274: // measure 1
0000
0000
0000
0000
,  // measure 2
0000
0000
0000
0000
,  // measure 3
0000
0000
0000
0000
,  // measure 4
0000
0000
0000
0000
,  // measure 5
0000
0000
0000
0000
,  // measure 6
0000
0000
0000
0000
,  // measure 7
0000
0000
0000
0000
,  // measure 8
0000
0000
0000
0000
,  // measure 9
1000
0000
0000
0100
0000
0000
1000
0000
0000
0010
0000
0000
0100
0000
0001
0000
,  // measure 10
0100
0000
0000
0001
0000
0000
1000
0000
0000
0001
0000
0000
1000
0000
0100
0000
,  // measure 11
1000
0000
0000
0001
0000
0000
0010
0000
0000
0100
0000
0000
1000
0000
0001
0000
,  // measure 12
1000
0000
0000
1000
0000
0000
1000
0000
0001
0000
0000
0001
0000
0000
0001
0000
,  // measure 13
0100
0000
0000
0010
0000
0000
0100
0000
0000
0001
0000
0000
1000
0000
0100
0000
,  // measure 14
1000
0000
0000
0001
0000
0000
1000
0000
0000
0010
0000
0000
0100
0000
0001
0000
,  // measure 15
0100
0000
0000
0010
0000
0000
1000
0000
0000
0100
0000
0000
1000
0000
0001
0000
,  // measure 16
0100
0000
0000
0100
0000
0000
0100
0000
0010
0000
0000
0010
0000
0000
0010
0000
,  // measure 17
0100
0000
0000
0001
0000
0000
1000
0000
0000
0001
0000
0000
1000
0000
0010
0000
,  // measure 18
0100
0000
0000
1000
0000
0000
0100
0000
0000
0001
0000
0000
1000
0000
0100
0000
,  // measure 19
0010
0000
0000
1000
0000
0000
0010
0000
0000
0001
0000
0000
0100
0000
0010
0000
,  // measure 20
1000
0000
0000
1000
0000
0000
0001
0000
0100
0000
0000
0100
0000
0000
0010
0000
,  // measure 21
1000
0000
0000
0100
0000
0000
0010
0000
0000
0001
0000
0000
0100
0000
0010
0000
,  // measure 22
1000
0000
0000
0001
0000
0000
0010
0000
0000
0100
0000
0000
1000
0000
0001
0000
,  // measure 23
0100
0000
0000
0010
0000
0000
1000
0000
0000
0001
0000
0000
1000
0000
0100
0000
,  // measure 24
0011
0101
1100
1010
,  // measure 25
1000
0001
0100
0000
0010
1000
0001
0000
,  // measure 26
0010
0000
0010
0000
0100
1000
0001
0000
,  // measure 27
1100
0101
1100
0010
,  // measure 28
0100
0001
1000
0001
0100
0000
0000
0000
,  // measure 29
0001
0010
0100
1000
0000
0010
0000
0100
,  // measure 30
0001
0100
0010
1000
0000
0001
0000
1000
,  // measure 31
0100
1000
0001
1000
0000
0001
0000
1100
,  // measure 32
0000
0011
0000
0000
0000
0000
0000
0000
,  // measure 33
0100
1000
0001
0000
0100
0000
1010
0000
,  // measure 34
0001
0100
0010
0100
0001
0000
1000
0000
,  // measure 35
0011
1010
0011
0000
,  // measure 36
0100
1000
0001
0000
0100
0000
0010
0000
,  // measure 37
0100
0000
0001
0100
0001
0000
1000
0000
,  // measure 38
0100
0010
0001
0000
0100
0000
1010
0000
,  // measure 39
0001
0000
0100
0010
1000
0000
0001
0000
,  // measure 40
1000
0100
0010
0000
0100
1000
0001
0000
,  // measure 41
1000
0000
0000
0010
0000
0000
0100
0000
0000
0010
0000
0000
0100
0000
0001
0000
,  // measure 42
1000
0000
0000
0100
0000
0000
0010
0000
0000
0100
0000
0000
0010
0000
0001
0000
,  // measure 43
1000
0000
0000
0001
0000
0000
0100
0000
0000
0001
0000
0000
1000
0000
0100
0000
,  // measure 44
0010
0000
0000
0001
0000
0000
0001
0000
1000
0000
0000
0010
0000
0000
0010
0000
,  // measure 45
0100
0000
0000
0001
0000
0000
0100
0000
0000
0010
0000
0000
1000
0000
0001
0000
,  // measure 46
0010
0000
0000
0100
0000
0000
0010
0000
0000
0100
0000
0000
1000
0000
0010
0000
,  // measure 47
0100
0000
0000
0001
0000
0000
0100
0000
0000
0010
0000
0000
1000
0000
0100
0000
,  // measure 48
1000
0000
0000
0001
0000
0000
0001
0000
0010
0000
0000
0100
0000
0000
0100
0000
,  // measure 49
1000
0000
0000
0000
;

//---------------dance-single - ----------------
#NOTES:
     dance-single:
     :
     Medium:
     6:
     0.384,0.400,0.274,0.024,0.000:
0000
0000
0000
0000
,
0000
0000
0000
0000
,
0000
0000
0000
0000
,
0000
0000
0000
0000
,
0000
0000
0000
0000
,
0000
0000
0000
0000
,
0000
0000
0000
0000
,
0000
0000
0000
0000
,
1000
0100
1000
0000
0001
0010
0001
0000
,
1000
0010
0100
0000
0001
0010
0100
0000
,
1000
0001
0100
0000
0001
1000
0100
0000
,
0010
0011
0001
1001
,
1000
0010
0100
0000
0001
0100
0010
0000
,
1000
0100
0010
0000
0001
0010
0100
0000
,
1000
0001
0010
0000
0001
1000
0010
0000
,
0100
0101
0001
1001
,
1000
0100
0010
0000
0010
0100
1000
0000
,
0001
0100
0010
0000
0010
0100
0001
0000
,
1000
0001
0100
0000
0001
1000
0100
0000
,
0100
0110
0001
1001
,
1000
0010
0100
0000
0001
1000
0100
0000
,
0010
0001
1000
0000
0010
0100
0001
0000
,
1000
0001
0100
0000
0001
1000
0100
0000
,
1000
1001
0001
0000
,
2000
0001
3001
1000
,
0100
0000
1010
0000
1100
0000
1000
0010
,
0100
0000
0001
0000
1001
0000
0001
0010
,
0100
0000
1000
0001
1000
0000
0000
0000
,
0002
0100
0103
0010
,
1010
1000
1001
0001
,
0100
0010
1000
0000
0100
0010
0001
0000
,
1000
1001
0001
1001
,
1000
0010
0100
0000
0010
1000
0001
0000
,
1000
0001
1001
0000
,
0001
0000
0010
0000
0110
0000
0100
1000
,
0001
1000
1000
1001
,
1000
0010
0100
0001
,
1000
0100
1000
0000
0001
0000
0100
0000
,
0010
1000
0001
0000
0010
0100
1000
0000
,
0101
0010
1100
0010
,
1001
0000
0010
0000
0100
0000
1000
0001
,
1000
0000
0010
0000
0100
0000
0001
1000
,
0001
0000
1000
0100
1000
0000
0001
0000
,
0100
0100
0010
0010
,
1001
0000
0100
0010
0001
0000
1000
0010
,
0100
0000
0001
1000
0100
0000
1000
0001
,
0100
0010
1000
1001
,
0001
0000
0101
0000
0010
0000
1000
0100
,
0010
0000
0000
0000
;

//---------------dance-single - ----------------
#NOTES:
     dance-single:
     :
     Easy:
     3:
     0.192,0.257,0.107,0.000,0.000:
0000
0000
0000
0000
,
0000
0000
0000
0000
,
0000
0000
0000
0000
,
0000
0000
0000
0000
,
0000
0000
0000
0000
,
0000
0000
0000
0000
,
0000
0000
0000
0000
,
0000
0000
0000
0000
,
1000
0000
0001
0000
,
1000
0000
0010
0000
,
0100
0000
0001
0000
,
1000
0100
1000
0100
,
1000
0000
0010
0000
,
0100
0000
0010
0000
,
0100
0000
0001
0000
,
1000
0001
1000
0001
,
1000
0000
0010
0000
,
0100
0000
0001
0000
,
0010
0000
0100
0000
,
0010
0001
0010
0001
,
1000
0000
0010
0000
,
0100
0000
0010
0000
,
1000
0000
0100
0000
,
1001
1001
1001
0000
,
1000
0010
0100
0000
,
0001
1000
0100
0000
,
1000
0000
1000
0000
,
0010
0100
0001
0000
,
1000
0000
0001
0000
,
0010
0100
1000
0000
,
0010
0000
0100
0000
,
1001
0000
0110
0000
,
0100
1000
0001
0000
,
0100
0001
1000
0000
,
0100
0000
0010
0000
,
0001
0010
0100
0000
,
1000
0010
0100
0000
,
0010
1000
0001
0000
,
1000
0000
0001
0000
,
1001
0000
0110
0000
,
0001
0100
0010
0000
,
1000
0000
0100
0000
,
1000
0010
0100
0000
,
0001
0000
1001
0000
,
1000
0100
0010
0000
,
0001
1000
0100
0000
,
1000
0001
1000
0000
,
0010
0100
0001
1000
,
1001
0000
0000
0000
;
