#TITLE:LADY☆CHOPPER;
#SUBTITLE:;
#ARTIST:Sana;
#TITLETRANSLIT:LADY*CHOPPER;
#SUBTITLETRANSLIT:;
#ARTISTTRANSLIT:;
#CREDIT:Xythar;
#BANNER:LADY CHOPPER-bn.avi;
#BACKGROUND:LADY CHOPPER-bg.png;
#LYRICSPATH:;
#CDTITLE:Avril.png;
#MUSIC:LADY CHOPPER.mp3;
#OFFSET:-1.316;
#SAMPLESTART:77.000;
#SAMPLELENGTH:13.566;
#SELECTABLE:YES;
#BPMS:0.000=130.000;
#STOPS:32.000=1.385
;
#BGCHANGES:223.500=LADY CHOPPER-bg.png=1.000=0=0=1,
99999=-nosongbg-=1.000=0=0=0 // don't automatically add -songbackground-
;

//---------------dance-single - ----------------
#NOTES:
     dance-single:
     :
     Hard:
     7:
     0.428,0.380,0.154,0.109,0.000: // measure 1
0000
0000
0000
0000
,  // measure 2
0000
0000
0000
0000
,  // measure 3
0000
0000
0000
0000
,  // measure 4
0000
0000
0000
0000
,  // measure 5
0001
0100
0010
0000
1100
0000
0010
0001
,  // measure 6
0010
0001
0100
0010
1000
0000
0110
0000
,  // measure 7
0001
0100
0010
0000
1001
0000
0100
0010
,  // measure 8
0001
0100
0010
0100
0001
0010
0100
0000
,  // measure 9
1000
0200
0010
1300
,  // measure 10
0010
0100
0002
0000
0010
0000
0103
0000
,  // measure 11
1000
0100
0002
0000
0010
0000
1003
0000
,  // measure 12
0100
0010
0002
0000
0100
0000
1003
0100
,  // measure 13
1000
0100
0020
0000
0001
0000
0130
0000
,  // measure 14
1000
0010
0200
0000
1000
0000
0310
0000
,  // measure 15
1000
0100
0020
0000
1000
0000
0100
0000
,  // measure 16
0031
0000
1000
1000
0000
0000
0001
0001
,  // measure 17
0000
0000
1000
0010
0100
0010
1000
0000
,  // measure 18
1000
0100
1000
0001
0100
0001
0000
0010
,  // measure 19
0100
0010
0100
0000
1000
0010
0100
0000
,  // measure 20
0100
0010
1000
0001
1000
0001
0000
1000
,  // measure 21
1000
1000
0100
1000
0100
1000
0010
0000
,  // measure 22
0100
0001
0100
0001
0000
1000
0000
0100
,  // measure 23
0010
0001
0100
0000
0010
1000
0001
0000
,  // measure 24
0100
0001
1000
0000
0100
0000
1001
0001
,  // measure 25
1000
0001
1000
0000
0010
0100
0001
0100
,  // measure 26
0010
0000
1000
0100
0010
0001
0000
1000
,  // measure 27
0010
0100
0010
0000
0001
0010
1000
0000
,  // measure 28
0001
0100
1000
0100
0001
1000
0000
0100
,  // measure 29
0100
0100
0010
0001
1000
0001
1000
0000
,  // measure 30
0010
0100
0001
0000
1000
0100
0000
1000
,  // measure 31
0010
0100
0001
0000
1000
0100
1000
0000
,  // measure 32
0010
0100
0010
0100
0001
0000
1000
1000
,  // measure 33
1000
1000
0001
0100
0001
0000
1100
0000
,  // measure 34
0010
0100
0001
0100
0010
0000
1100
0000
,  // measure 35
0010
0000
0001
1000
0001
0000
1000
0000
,  // measure 36
0010
0100
1000
0100
0001
0000
0010
0010
,  // measure 37
0100
0100
1000
0001
1000
0000
0010
0000
,  // measure 38
0100
0001
1000
0100
1000
0000
0010
0100
,  // measure 39
1000
0100
0001
0000
0010
0100
1000
0000
,  // measure 40
0001
0000
1000
1000
0000
0000
0001
0001
,  // measure 41
1000
0000
0010
0100
0001
0000
1100
0000
,  // measure 42
0001
0010
0000
0100
1000
0000
0010
0100
,  // measure 43
0001
0100
0010
1000
0100
0000
0011
0000
,  // measure 44
0100
1000
0000
0001
0100
0000
1000
0100
,  // measure 45
0001
0100
0001
0000
2100
0000
3010
0000
,  // measure 46
0100
0001
0000
1000
0100
0000
0001
0100
,  // measure 47
1000
0010
0102
1003
,  // measure 48
0010
0100
0000
0001
0001
0001
1000
1000
,  // measure 49
1000
1000
0200
0000
0010
0000
1300
0000
,  // measure 50
0100
1000
0020
0000
0100
0000
1030
0000
,  // measure 51
0001
1000
0200
0000
0001
0000
0310
0000
,  // measure 52
1000
0010
0001
0000
0100
0000
0010
1000
,  // measure 53
0010
1000
0001
0000
1100
0000
1010
0000
,  // measure 54
0100
0001
0010
0000
1010
0000
0011
0000
,  // measure 55
1000
0010
0100
0000
1100
0000
0101
0000
,  // measure 56
1001
0000
0100
0100
0000
0000
0010
0010
;

//---------------dance-single - ----------------
#NOTES:
     dance-single:
     :
     Medium:
     6:
     0.382,0.355,0.054,0.163,0.000:
0000
0000
0000
0000
,
0000
0000
0000
0000
,
0000
0000
0000
0000
,
0000
0000
0000
0000
,
1000
0100
2000
0000
3001
0000
0100
0010
,
0100
0010
0100
0000
0001
0000
0010
0000
,
0100
1000
0200
0000
0310
0000
0001
0100
,
0001
0100
0001
0000
1000
0000
0100
0000
,
1000
0010
0100
0001
,
1000
0100
0010
0000
0001
0000
0100
0000
,
0010
1000
0001
0000
0010
0000
0100
0000
,
1000
0001
0100
0000
0001
0000
1000
0100
,
1000
0100
1000
0000
0001
0000
0010
0000
,
0001
0100
0010
0000
1000
0000
0100
0000
,
1000
0010
0100
0000
0001
0000
1000
0000
,
0100
0000
1000
1000
0000
0000
0001
0001
,
0000
0000
1000
0100
1000
0000
0001
0000
,
0100
0000
0010
1000
0000
0001
0000
1000
,
0100
1000
0010
0100
,
0001
1000
0001
0000
0010
0100
0000
1000
,
0100
1000
0010
0000
0100
0000
0001
0000
,
1000
0100
1000
0000
0001
0100
0000
0010
,
0100
0001
0100
0000
0001
0000
1000
0000
,
0100
1000
0100
0000
1000
0000
1000
0001
,
0010
0001
1000
0000
0010
0000
0100
0000
,
0001
0100
0001
0000
1000
0100
0000
0100
,
1000
0001
1000
0000
0010
0000
0010
0000
,
0100
0001
1000
0000
0100
0000
0100
1000
,
0001
1000
0010
0000
0010
0000
0100
0000
,
0100
0001
0010
0000
0010
0100
1000
0000
,
0010
0000
0100
0000
0100
0000
0001
1000
,
0100
0000
0100
1000
0001
0000
0100
0010
,
0100
0010
2000
0000
0100
0000
3002
0000
,
0100
0000
0023
0000
0100
0000
0031
1000
,
0001
1000
0020
0000
1000
0000
0230
0000
,
0010
0000
0302
0000
1000
0000
1003
0100
,
1000
0010
2000
0000
0001
0000
3020
0000
,
0100
0000
2030
0000
0100
0000
3001
0010
,
0001
0010
0100
0000
1000
0010
0100
0000
,
0001
0000
1000
1000
0000
0000
0001
0001
,
0000
0000
1000
0100
2000
0000
3010
0000
,
0100
0001
0000
0001
0100
0000
0021
0000
,
0130
0000
0100
0010
0200
0000
1300
0000
,
0010
0100
0000
0100
0010
0000
0201
0000
,
0310
0000
1000
0001
2000
0000
3100
0000
,
1000
0010
0000
0100
0001
0000
2100
0000
,
3001
0000
0100
0010
0200
0000
0301
0000
,
0010
0100
0000
0100
1000
0100
1000
0100
,
1000
0001
1000
0000
0010
0000
0100
0000
,
0001
1000
0100
0000
1000
0000
0010
0000
,
0100
0001
0010
0000
0100
0000
1000
0000
,
0010
0100
0001
0000
1000
0000
0100
1000
,
0100
1000
0001
0000
0100
0000
1010
0000
,
0100
0010
0001
0000
0010
0000
1100
0000
,
0010
0100
0001
0000
1000
0000
0110
0000
,
0001
0100
0010
0010
0000
0000
1000
1000
;

//---------------dance-single - ----------------
#NOTES:
     dance-single:
     :
     Easy:
     3:
     0.236,0.228,0.091,0.091,0.000:
0000
0000
0000
0000
,
0000
0000
0000
0000
,
0000
0000
0000
0000
,
0000
0000
0000
0000
,
1000
0100
0100
1000
,
1000
0010
0100
0001
,
0010
0010
0010
0100
,
1000
0001
1000
0001
,
1000
0001
0100
0010
,
0000
0100
0001
1000
,
0000
0100
1000
0010
,
0000
0100
0001
1000
,
1000
0100
1000
0010
,
0000
0100
0001
1000
,
0000
0100
1000
0010
,
0100
1001
0000
1001
,
0000
0010
0010
0100
,
0100
0001
0000
1000
,
0000
0100
0100
1000
,
0010
0100
0001
0000
,
1000
0100
1000
0010
,
0010
0100
0000
0001
,
0000
1000
0100
1000
,
0010
0100
0000
0001
,
0001
0001
0000
1000
,
0000
0100
1000
0010
,
0100
0001
0000
1000
,
0000
0100
0100
1000
,
0010
0100
0000
0001
,
0000
1000
0000
0100
,
1000
0010
0010
0100
,
0001
1000
0000
0100
,
0100
2000
0000
3020
,
0000
0230
0000
0001
,
0001
0302
0000
2003
,
0000
3200
0000
1000
,
1000
2300
0000
3020
,
0000
0230
0000
0001
,
0001
0302
0000
1003
,
0000
1001
0000
1001
,
0000
1000
0001
1001
,
0000
0010
0100
0010
,
0100
0001
1000
1001
,
0000
0100
0010
0100
,
0010
0001
1000
1001
,
0000
0010
0100
0001
,
1000
0100
0010
0110
,
0000
0001
0001
1000
,
1000
0100
1000
0010
,
0000
0100
0001
1000
,
0000
0100
1000
0001
,
0000
1000
0100
1000
,
0100
1000
0001
0010
,
0000
0100
1000
0001
,
0000
1001
0000
0110
,
0000
0001
0000
1000
;
