#TITLE:L・O・V・E・L・Y;
#SUBTITLE:~夢見るLOVELY BOY~;
#ARTIST:Tommy february6;
#TITLETRANSLIT:L.O.V.E.L.Y;
#SUBTITLETRANSLIT:~Yumemiru LOVELY BOY~;
#ARTISTTRANSLIT:;
#CREDIT:sanchny & Xythar;
#BANNER:L.O.V.E.L.Y ~Yumemiru LOVELY BOY~ banner.png;
#BACKGROUND:L.O.V.E.L.Y ~Yumemiru LOVELY BOY~ background.png;
#LYRICSPATH:L.O.V.E.L.Y ~Yumemiru LOVELY BOY~.lrc;
#CDTITLE:Tommy fp CDTitle.png;
#MUSIC:L.O.V.E.L.Y ~Yumemiru LOVELY BOY~.mp3;
#OFFSET:0.031;
#SAMPLESTART:65.350;
#SAMPLELENGTH:15.987;
#SELECTABLE:YES;
#BPMS:0.000=120.094;
#STOPS:;
#BGCHANGES:0.125=L.O.V.E.L.Y ~Yumemiru LOVELY BOY~.avi=1.000=1=1=0,231.500=L.O.V.E.L.Y ~Yumemiru LOVELY BOY~ background.png=1.000=0=0=0;

//---------------dance-single - L.I.G.H.T ~Yumemiru LIGHT BOY~----------------
#NOTES:
     dance-single:
     L.I.G.H.T ~Yumemiru LIGHT BOY~:
     Easy:
     3:
     0.175,0.219,0.000,0.000,0.000: // measure 1
0000
0000
0000
0000
,  // measure 2
0000
0000
0000
0000
,  // measure 3
0000
0000
0000
0000
,  // measure 4
0000
0000
0000
0000
,  // measure 5
0000
0000
0000
0000
,  // measure 6
0000
0000
0000
0000
,  // measure 7
1000
1000
1000
0000
,  // measure 8
0001
0001
0001
0000
,  // measure 9
0000
0100
0100
0000
,  // measure 10
0010
0010
0000
1000
,  // measure 11
0001
0001
0001
0000
,  // measure 12
1000
1000
1000
0000
,  // measure 13
0000
0100
0100
0100
,  // measure 14
0010
0000
0000
0010
,  // measure 15
0100
0000
0000
0000
,  // measure 16
0100
0000
1000
0000
,  // measure 17
1000
0000
0001
0000
,  // measure 18
1000
0000
0001
0000
,  // measure 19
0100
0000
0010
0000
,  // measure 20
0100
0000
0010
0000
,  // measure 21
1000
0000
0001
0000
,  // measure 22
1000
0000
0001
0000
,  // measure 23
0010
0000
0010
0000
,  // measure 24
0001
0000
0001
0000
,  // measure 25
1000
1000
1000
0000
,  // measure 26
0001
0000
1000
0000
,  // measure 27
0010
0000
0010
0000
,  // measure 28
0010
1000
0001
0000
,  // measure 29
1000
1000
1000
0000
,  // measure 30
0001
0000
0001
0000
,  // measure 31
1000
0001
1000
0000
,  // measure 32
0100
0000
0100
0000
,  // measure 33
0010
0010
0010
0000
,  // measure 34
0010
0001
0010
0000
,  // measure 35
0001
1000
0010
0000
,  // measure 36
0010
1000
1000
0000
,  // measure 37
0001
0000
1000
0000
,  // measure 38
0001
1000
0100
0000
,  // measure 39
0100
0010
0100
0000
,  // measure 40
0100
1000
1000
0000
,  // measure 41
0001
0100
0100
0000
,  // measure 42
0010
1000
0010
0000
,  // measure 43
1000
0001
0010
0000
,  // measure 44
0010
0001
0001
0000
,  // measure 45
1000
0000
0001
0000
,  // measure 46
1000
0001
0100
0000
,  // measure 47
0100
0010
0100
0000
,  // measure 48
0100
0001
0001
0000
,  // measure 49
1000
0100
0100
0000
,  // measure 50
0010
0010
0010
0010
,  // measure 51
0001
0001
1000
0001
,  // measure 52
0100
0100
0100
0100
,  // measure 53
0010
0100
0010
0010
,  // measure 54
1000
1000
1000
1000
,  // measure 55
0001
0001
1000
0100
,  // measure 56
0010
0010
0010
0010
,  // measure 57
0001
1000
1000
0001
,  // measure 58
0100
0000
0010
0000
0100
0000
0000
0010
;

//---------------dance-single - S.T.A.N.D.A.R.D ~Yumemiru STANDARD BOY~----------------
#NOTES:
     dance-single:
     S.T.A.N.D.A.R.D ~Yumemiru STANDARD BOY~:
     Medium:
     5:
     0.328,0.340,0.042,0.227,0.000:
0000
0000
0000
0000
,
0000
0000
0000
0000
,
0000
0000
0000
0000
,
0000
0000
0000
0000
,
0000
0000
0000
0000
,
0000
0000
0000
0000
,
2000
0000
0001
0000
3001
0000
0100
0010
,
0200
0001
0301
0010
,
0100
0000
1000
0100
1000
0000
0001
0000
,
1000
0010
1000
0010
0000
0000
0100
0001
,
0200
0000
0010
0000
0310
0000
1000
0100
,
2000
0010
3010
0100
,
0001
0000
1000
0001
1000
0000
0010
0000
,
1000
0100
1000
0100
0000
0000
0010
0000
,
0001
0000
0000
0000
0000
0000
0000
1000
,
0001
0000
0000
1000
0001
1000
0001
0000
,
1000
0010
0010
1000
,
0100
1000
0100
0000
0010
0000
0001
0000
,
0100
0010
0010
0100
,
0001
0000
1000
0100
1000
0000
0010
0000
,
0100
0000
0001
0010
0001
0000
0010
0000
,
0010
0000
0100
1000
0100
0000
1000
0000
,
0002
0100
2003
0100
,
3020
0100
2030
0001
,
3010
0000
0010
0000
0100
0000
0001
0100
,
0000
0001
0000
1000
0000
0100
1000
0000
,
0001
0000
0000
0000
,
2000
0100
3002
0100
,
1003
0000
1000
0000
0100
0000
1000
0001
,
0000
0100
0000
0010
0000
0000
1000
0000
,
0000
0100
1000
0100
1000
0000
0001
0000
,
2000
0100
0010
3001
,
0100
0000
0100
0000
0100
0000
0010
1000
,
0020
0000
0100
0000
1030
0000
0100
1000
,
0200
0010
1300
1001
,
0100
0000
0010
0100
0010
0000
0001
0000
,
1000
0100
1000
0000
0001
0000
1000
0010
,
2000
0000
0100
0000
3001
0000
0001
0010
,
0002
0100
1003
0110
,
0001
0000
1000
0001
1000
0000
0010
0000
,
0100
0001
0100
0000
0001
0000
1000
0100
,
2000
0000
0010
0000
3001
0000
0010
0001
,
0020
0100
0031
1100
,
0010
0000
0100
0001
0100
0000
0010
0000
,
1000
0001
1000
0000
0100
0000
0010
0001
,
0020
0000
0100
0000
0031
0000
1000
0010
,
2000
0100
3010
0101
,
0010
1000
0010
0000
1000
0000
0001
0010
,
0001
0000
1000
0100
1000
0000
0001
0000
,
0002
1000
0203
0010
,
0302
0010
2003
0100
,
3001
0100
0010
1000
,
0100
0010
0100
0010
0001
0000
1001
0000
,
0020
0100
2030
0100
,
3002
0100
2003
0010
,
3001
0010
0100
1000
,
0001
1000
0001
1000
0010
1000
0010
1000
,
0001
0000
0001
0000
0010
0000
0100
1000
;

//---------------dance-single - H.E.A.V.Y ~Yumemiru HEAVY BOY~----------------
#NOTES:
     dance-single:
     H.E.A.V.Y ~Yumemiru HEAVY BOY~:
     Hard:
     7:
     0.404,0.486,0.395,0.143,0.050:
0000
0000
0000
0000
,
0000
0000
0000
0000
,
0000
0000
0000
0000
,
0000
0000
0000
0000
,
0000
0000
0000
0000
,
0000
0000
0000
0000
,
0011
0000
1000
0000
0010
0000
0010
1000
,
0011
0010
1100
0000
,
0000
0100
0100
1000
0010
0000
0100
0010
,
1000
0010
1000
0001
0000
0000
1000
0001
,
0001
0000
1100
0000
1001
0000
0100
0010
,
0010
1010
1001
0100
,
1000
0001
0100
0001
1000
0000
0100
0000
,
0010
0001
0010
0001
1000
0000
0010
0100
,
0001
0000
0000
0001
0000
0000
0000
0000
0100
0000
0001
0000
0100
0000
0000
0000
,
0001
0000
0000
0001
0000
0000
0000
0000
0001
0000
1000
0000
0100
0000
1000
0000
,
0001
0100
0010
0100
0010
0000
1000
0000
,
1000
0001
0000
0001
0000
0000
1000
0000
,
1100
0000
0100
1000
0001
0000
0100
0000
,
0100
0000
0010
1000
0001
0000
0010
0000
,
1100
0000
0001
0100
0010
0000
0100
0000
,
0001
1000
0100
1000
0001
0000
1000
0000
,
1200
0310
1002
0103
,
0120
1030
0011
0000
,
0010
0000
0010
0000
0010
0000
0001
0010
,
0000
0100
0000
0100
0000
1000
0000
0010
,
1000
0000
0000
0000
,
2000
3200
0320
0032
,
0103
0000
0100
0000
0100
0000
0010
1000
,
0000
0001
1000
0001
0000
0000
1000
0000
,
0100
0010
0100
1000
0001
0000
0100
0020
,
1000
0000
0001
0000
1030
0000
1000
1000
,
0001
1000
0000
0001
1000
0001
0000
1000
0001
0000
0010
0000
0100
0000
0000
0000
,
1010
0000
0011
0000
1010
0000
0001
1000
,
0110
0000
1001
0000
0120
1000
1030
0000
,
0100
0010
0001
0010
0100
0000
1000
0000
,
0010
0100
0001
0100
0010
0000
1000
0000
,
0101
0000
1100
0000
0101
0000
0010
0100
,
1001
1010
0011
0000
,
0010
0001
0010
0100
1000
0000
1000
0000
,
0010
0100
0010
1000
0000
0000
1000
0001
,
0011
0000
1010
0000
0011
0000
0010
0100
,
0101
0000
0011
0000
0201
0010
0310
0000
,
1000
0100
1000
0001
1000
0010
0100
0000
,
0001
0010
1000
0010
0001
0000
0100
0010
,
1010
0000
1100
0000
1010
0000
0100
0001
,
1100
0000
0011
0000
1002
1000
1003
0000
,
0000
0001
1000
0010
0100
0000
0100
0000
,
0010
1000
0001
0010
0000
0000
0010
0000
,
1200
1300
1002
0103
,
0210
1300
0210
0301
,
1000
0100
0010
0001
,
1000
0000
0010
0000
0100
0000
0001
0000
1000
0100
0000
0100
1000
0000
0001
0000
,
0001
0000
2100
0000
3010
0000
0100
0001
,
0010
1100
0010
1100
,
1000
1010
0100
1010
,
0100
0001
0000
0001
0100
0000
0001
0000
0010
0001
0010
0001
0010
0000
0001
0000
,
0020
0000
0130
0010
0001
1000
0010
0110
;
