#TITLE:Kokou no Sousei;
#SUBTITLE:;
#ARTIST:Yousei Teikoku;
#TITLETRANSLIT:;
#SUBTITLETRANSLIT:;
#ARTISTTRANSLIT:;
#CREDIT:Xythar;
#BANNER:Kokou no Sousei.png;
#BACKGROUND:Kokou no Sousei-bg.png;
#LYRICSPATH:;
#CDTITLE:blank.png;
#MUSIC:Kokou no Sousei;
#OFFSET:-0.676;
#SAMPLESTART:92.677;
#SAMPLELENGTH:12.000;
#SELECTABLE:YES;
#BPMS:0.000=240.000;
#STOPS:;
#BGCHANGES:;

//---------------dance-single - ----------------
#NOTES:
     dance-single:
     :
     Hard:
     9:
     0.657,0.780,0.252,0.149,0.000: // measure 1
0000
0000
0000
0000
,  // measure 2
0000
0000
0000
0000
,  // measure 3
0000
0000
0000
0000
,  // measure 4
0000
0000
0000
0000
,  // measure 5
1M01
0000
0000
0000
,  // measure 6
0110
0000
0000
0000
,  // measure 7
1001
0000
0000
0000
,  // measure 8
0101
0000
1000
0100
,  // measure 9
M011
0000
0000
0000
,  // measure 10
1100
0000
0000
0000
,  // measure 11
0101
0000
0000
0000
,  // measure 12
1010
0000
0100
0001
,  // measure 13
11M0
0000
0000
0000
,  // measure 14
0011
0000
0000
0000
,  // measure 15
1001
0000
0000
0000
,  // measure 16
0001
0100
0001
0100
0001
0100
0001
0100
,  // measure 17
0001
0010
0100
1000
,  // measure 18
0010
0100
0010
1000
,  // measure 19
0001
0010
0100
0010
,  // measure 20
0001
1000
0010
0100
,  // measure 21
0001
1000
0100
1000
,  // measure 22
0001
0100
0010
1000
,  // measure 23
0001
0010
0100
1000
,  // measure 24
0010
0000
0100
0000
0001
0100
0001
0100
,  // measure 25
0001
1000
0100
0010
,  // measure 26
0001
0100
0010
0100
0001
1000
0100
00M0
,  // measure 27
1000
0010
1000
0010
0100
0001
1000
000M
,  // measure 28
0100
1000
0001
1000
0010
0100
0001
0000
,  // measure 29
0001
0010
0001
0100
,  // measure 30
0010
0100
0001
1000
0100
1000
0001
M000
,  // measure 31
0100
0010
0001
0100
0010
0100
0001
0010
,  // measure 32
0100
1000
0001
1000
0001
0000
1000
0000
,  // measure 33
1001
0000
0100
0000
,  // measure 34
1000
0001
0100
0000
,  // measure 35
0010
0000
1000
0000
,  // measure 36
0001
0100
1010
0000
,  // measure 37
0100
0000
0010
0000
,  // measure 38
0001
1000
0010
0000
,  // measure 39
0100
0000
0001
0000
,  // measure 40
0010
0100
1001
0000
,  // measure 41
0010
0100
0001
0000
,  // measure 42
0010
0100
1000
0000
,  // measure 43
0001
0100
0010
0000
,  // measure 44
1000
0001
0110
0000
,  // measure 45
0001
0100
0010
M000
,  // measure 46
0100
0010
0001
0M00
,  // measure 47
0010
1000
0001
00M0
,  // measure 48
0100
1000
0001
0000
,  // measure 49
2000
0100
0100
3100
,  // measure 50
MM20
0001
0001
0031
,  // measure 51
02MM
0010
0010
0310
,  // measure 52
2MM0
0001
0001
3001
,  // measure 53
1000
0100
1000
0000
0001
0100
0001
0000
,  // measure 54
0100
0000
0010
1000
0000
1000
0100
0000
,  // measure 55
0010
0001
1000
0000
0010
0100
0001
0000
,  // measure 56
1100
0000
0010
0001
1000
0001
0100
0000
,  // measure 57
0020
1000
0100
2030
,  // measure 58
30M2
0010
1000
0023
,  // measure 59
023M
0010
0001
0320
,  // measure 60
2M30
0000
0001
00M0
0100
00M0
3001
0000
,  // measure 61
M100
1000
0010
0100
,  // measure 62
0001
0000
1000
0100
0010
0100
1000
0000
,  // measure 63
0010
0100
0001
1000
,  // measure 64
0100
0000
0010
0001
0100
0001
0010
0000
,  // measure 65
0002
0100
0203
130M
,  // measure 66
0002
0100
0203
0301
,  // measure 67
200M
0100
3200
0301
,  // measure 68
200M
0100
3200
0310
,  // measure 69
0001
0000
0100
0010
1000
0000
0001
0000
,  // measure 70
0010
0100
1000
0100
0010
0000
0001
0000
,  // measure 71
0100
0000
0010
1000
0001
0000
1000
0000
,  // measure 72
0010
0100
0001
0100
0010
0000
1000
0000
,  // measure 73
0001
0100
0001
0100
0001
0000
1000
0000
,  // measure 74
0100
0010
0001
0010
0100
0000
1000
0000
,  // measure 75
0010
0100
0001
0100
0010
0000
1000
0000
,  // measure 76
0001
0010
0100
0010
0001
0000
1000
0000
,  // measure 77
0010
0000
0100
0000
0001
0000
1000
0100
,  // measure 78
0010
0000
0001
0000
0100
0000
0010
1000
,  // measure 79
0001
0000
1000
0000
0100
0000
0010
0001
,  // measure 80
00M0
1100
0000
0000
M011
0000
0000
0000
,  // measure 81
0001
0000
0100
0000
0010
0000
0100
0001
,  // measure 82
M000
0100
1000
0000
0001
0000
0010
0100
,  // measure 83
1000
0000
0010
0000
0100
0000
0001
1000
,  // measure 84
00M0
0101
0000
0000
1010
0000
0000
0000
,  // measure 85
0100
0000
0010
0000
0001
0000
0100
0010
,  // measure 86
M000
0001
1000
0000
0001
0000
0100
0000
,  // measure 87
0010
0000
1000
0000
0100
0000
0010
0001
,  // measure 88
00M0
1001
0000
0000
0110
0000
0000
0000
,  // measure 89
0001
0000
0100
0000
0010
0000
1000
0100
,  // measure 90
0010
0000
0001
0100
0010
0000
0100
0001
,  // measure 91
1000
0000
0001
0000
0010
0000
0100
1000
,  // measure 92
0001
0000
1000
0001
M000
0001
1000
0000
,  // measure 93
0100
1000
0100
1000
0100
0000
0010
0000
,  // measure 94
0001
0100
0001
0100
0000
0010
1000
0001
,  // measure 95
1000
0100
1000
0100
1000
0000
0001
0000
,  // measure 96
0100
0010
0100
0010
0000
0010
1000
0001
,  // measure 97
1000
0100
1000
0001
0100
0000
0010
0000
,  // measure 98
1000
0001
0010
0100
00M0
0100
0010
0001
,  // measure 99
1000
0000
0010
0100
0001
0000
0010
0000
,  // measure 100
0100
1000
0010
0000
0101
0000
0010
0000
,  // measure 101
1000
0100
0010
0100
1000
0000
0010
0000
,  // measure 102
0100
0001
1000
0100
1000
0001
0100
0001
,  // measure 103
1000
0000
0100
0010
0001
0000
1000
0000
,  // measure 104
0010
0100
0001
0100
0010
M000
0100
0010
,  // measure 105
0001
0000
1000
0010
1000
0000
0001
0000
,  // measure 106
0010
0100
1000
0010
0100
0000
0001
1000
,  // measure 107
0100
0011
0100
1010
,  // measure 108
10M1
M010
11MM
1MM1
,  // measure 109
0100
0010
0100
1000
,  // measure 110
0010
0100
0010
1000
,  // measure 111
0001
0010
0100
0010
,  // measure 112
0001
0100
0010
1000
,  // measure 113
0001
0000
0010
0000
0100
0000
1000
000M
,  // measure 114
0100
0000
0010
0000
1000
0000
0001
00M0
,  // measure 115
0100
0000
1000
0000
0010
0000
0100
000M
,  // measure 116
1000
0001
0010
0100
,  // measure 117
1000
0001
0100
0010
1000
0000
0001
0010
,  // measure 118
0100
0000
1000
0001
0100
0000
0110
0000
,  // measure 119
0010
1000
0001
1000
0100
0000
0010
0001
,  // measure 120
0100
0010
1100
0011
,  // measure 121
0100
1000
0001
1000
0010
0000
0100
0001
,  // measure 122
1000
0100
0010
1001
,  // measure 123
0010
0100
0001
0100
0010
0000
1000
0100
,  // measure 124
0010
0000
0001
0100
0010
M000
0100
0010
,  // measure 125
0001
0000
0000
0000
;

//---------------dance-single - ----------------
#NOTES:
     dance-single:
     :
     Challenge:
     11:
     0.831,0.939,0.370,0.110,0.098: // measure 1
0000
0000
0000
0000
,  // measure 2
0000
0000
0000
0000
,  // measure 3
0000
0000
0000
0000
,  // measure 4
0000
0000
0000
0000
,  // measure 5
1000
0100
1000
0100
1000
0000
0001
0100
,  // measure 6
0001
0000
1000
0010
1000
0000
0001
0010
,  // measure 7
0001
0000
1000
0010
1000
0000
0001
0100
,  // measure 8
0001
0000
1000
0100
1000
0001
0010
0001
,  // measure 9
1000
0000
0001
0100
0010
0000
1000
0100
,  // measure 10
0010
0000
0001
1000
0010
0000
0100
0001
,  // measure 11
1000
0000
0001
0010
0100
0000
1000
0010
,  // measure 12
0100
0000
0001
0010
0100
1000
0010
0100
,  // measure 13
0001
0000
0000
0000
1000
0000
0100
0000
1000
0000
0000
0M00
1000
0000
0100
0000
,  // measure 14
1000
0000
0000
0000
0001
0000
0100
0000
0001
0000
0000
0M00
0001
0000
0100
0000
,  // measure 15
0001
0000
0000
0000
1000
0000
0010
0000
1000
0000
0000
00M0
1000
0000
0010
0000
,  // measure 16
1000
0001
0010
0100
1000
0001
0010
0100
,  // measure 17
1000
0000
110M
0000
1000
00M0
1001
0000
,  // measure 18
1M00
0000
1010
000M
1000
0000
11M0
0000
,  // measure 19
0100
M000
0000
0000
0110
0000
M00M
0000
0100
00M0
0000
0000
0101
0000
0000
M000
,  // measure 20
0100
0000
011M
0000
0010
0M00
0011
0000
,  // measure 21
0001
00M0
1100
000M
0010
0000
01M1
0000
,  // measure 22
1000
000M
0000
0000
0110
0000
0000
M000
0001
0000
0000
0000
0110
0000
000M
0000
,  // measure 23
1000
0000
0000
00M0
0101
0000
0000
0000
0010
000M
0000
0000
1100
0000
00M0
0000
,  // measure 24
0001
0000
0000
0000
1M10
0000
0000
0000
0001
1000
0001
1000
0001
0000
0010
0000
,  // measure 25
0100
0000
0000
0000
10M1
0000
0000
0000
0010
0000
0M00
0000
1001
0000
0000
00M0
,  // measure 26
0100
0010
0100
0010
0001
0100
0010
1000
,  // measure 27
0001
0010
0100
1000
0010
0100
0001
1000
,  // measure 28
0010
0000
0000
0100
0000
0000
0001
0000
0000
1000
0000
0000
0100
0000
0010
0000
0100
0000
0010
0000
0001
0000
0010
0000
,  // measure 29
0001
0000
0000
0000
M101
0000
0000
00M0
0001
0000
0M00
0000
1001
00M0
0000
0000
,  // measure 30
100M
0000
0000
00M0
1100
0000
000M
0000
1000
0M00
0000
0000
0010
0000
0001
0000
,  // measure 31
0100
0010
1000
0001
0100
0010
1000
0001
,  // measure 32
0010
0000
0000
0100
0000
0000
1000
0000
0000
0001
0000
0000
0010
0000
0100
0000
0010
0000
0100
0000
1000
0000
0100
0000
,  // measure 33
1000
0000
0001
0100
0010
0000
0100
0001
,  // measure 34
1000
0100
0010
0000
,  // measure 35
0001
0000
0100
0010
1000
0000
0100
1000
,  // measure 36
0001
0100
1010
0000
,  // measure 37
0001
0000
0010
0100
1000
0000
0001
0100
,  // measure 38
0010
1000
0001
0000
,  // measure 39
1000
0000
0100
0010
0001
0000
1000
0010
,  // measure 40
0100
0001
1100
0000
,  // measure 41
0002
1000
1000
0000
,  // measure 42
0010
0010
0013
0000
,  // measure 43
0200
0010
0010
0000
,  // measure 44
1000
1000
1300
0000
,  // measure 45
0010
0100
1001
0000
,  // measure 46
0100
0010
1001
0000
,  // measure 47
1000
0010
0101
0000
,  // measure 48
0001
0010
1100
0000
,  // measure 49
2000
0000
0000
0000
,  // measure 50
0002
0000
0000
0000
,  // measure 51
0200
0000
0000
0000
,  // measure 52
0020
0000
3333
0000
,  // measure 53
1000
0100
0010
0001
0100
0010
0100
0001
,  // measure 54
0010
0100
1000
0010
0100
0000
MMMM
0000
,  // measure 55
0001
0010
0100
1000
0010
0100
0010
1000
,  // measure 56
0100
0010
0001
0100
0010
0000
MMMM
0000
,  // measure 57
2000
0000
0100
0000
,  // measure 58
0200
0000
0010
0000
,  // measure 59
0020
0000
0001
0000
,  // measure 60
0002
0000
3333
0000
,  // measure 61
1000
0010
0100
0001
0010
0100
0010
0001
,  // measure 62
0100
0010
1000
0100
0010
0000
MMMM
0000
,  // measure 63
0001
0100
0010
1000
0100
0010
0100
1000
,  // measure 64
0010
0100
0001
0010
0100
0000
MMMM
0000
,  // measure 65
0200
0010
1000
0010
,  // measure 66
2000
0001
0010
0001
,  // measure 67
0020
0001
0001
0001
,  // measure 68
0002
0000
3333
0000
,  // measure 69
0010
1000
0001
1000
0100
0010
0001
1000
,  // measure 70
0001
0100
0001
0010
0100
0000
MMMM
0000
,  // measure 71
0010
0001
1000
0001
0100
0010
1000
0001
,  // measure 72
1000
0100
1000
0010
0100
0000
MMMM
0000
,  // measure 73
1000
0100
0010
0100
0001
0010
1000
0010
,  // measure 74
0100
0010
0001
1000
0100
0000
MMMM
0000
,  // measure 75
0010
0001
0100
0010
1000
0100
0010
0001
,  // measure 76
0100
0010
1000
0001
0010
0000
MMMM
0000
,  // measure 77
0100
1000
0001
1000
0010
0000
0100
0001
,  // measure 78
1000
0000
1100
0000
0011
0000
0100
1000
,  // measure 79
0001
0100
0010
1000
0001
0000
0010
0100
,  // measure 80
0000
1100
0000
0000
0101
0000
00MM
0000
,  // measure 81
1000
0100
0010
0100
0001
0000
0010
0100
,  // measure 82
1000
0000
0001
0100
0010
0100
0001
0000
,  // measure 83
1100
0000
0010
0001
1000
0001
0100
0010
,  // measure 84
0000
1010
0000
0000
0101
0000
0MM0
0000
,  // measure 85
1000
0100
0010
0001
0100
0010
1000
0100
,  // measure 86
0010
0000
1001
0000
0110
0000
0001
0100
,  // measure 87
0010
1000
0100
0010
0001
0000
1000
0010
,  // measure 88
0000
0101
0000
0000
1001
0000
00MM
0000
,  // measure 89
0100
0010
0100
0001
0100
0010
0100
0001
,  // measure 90
0100
0000
0010
0000
0001
0000
1000
0010
,  // measure 91
0100
0000
0101
0000
1001
0000
0100
0010
,  // measure 92
0001
0000
0100
0010
0000
0010
1000
0001
,  // measure 93
1000
0000
1000
0001
0000
0001
1000
0100
,  // measure 94
1000
0001
0100
0001
1000
0100
1000
0001
,  // measure 95
0100
0000
0100
0010
0000
0010
1000
0001
,  // measure 96
1000
0100
1000
0001
1000
0010
1000
0001
,  // measure 97
1000
0000
0001
0100
0000
0100
1000
0100
,  // measure 98
0010
0100
0001
0100
0010
0100
1000
0100
,  // measure 99
0010
0000
0010
1000
0000
0001
0010
0100
,  // measure 100
1000
0000
0001
0100
0000
0010
1000
0000
,  // measure 101
0100
0010
0100
0010
0000
0001
0100
0010
,  // measure 102
1000
0001
0100
0010
1000
0001
0100
0010
,  // measure 103
1000
0000
1000
0001
0000
0001
0010
0100
,  // measure 104
1000
0001
0010
0100
1000
0001
0010
0100
,  // measure 105
1000
0000
1000
0001
0000
0001
1000
0010
,  // measure 106
0100
0010
1000
0010
0100
0010
1000
0000
,  // measure 107
110M
M110
0M11
01M1
,  // measure 108
1M1M
1MM1
M11M
1MM1
,  // measure 109
0001
0010
0100
1000
0001
0100
0010
1000
,  // measure 110
0100
0010
0001
0010
0100
1000
0001
0100
,  // measure 111
0010
0001
0010
0100
0010
1000
0100
0010
,  // measure 112
1000
0010
0100
0010
0001
0100
0010
1000
,  // measure 113
0100
1000
0001
0100
0010
0100
0001
0010
,  // measure 114
0100
1000
0010
0100
0010
1000
0100
1000
,  // measure 115
0001
0100
0010
1000
0100
0010
0100
1000
,  // measure 116
0010
0100
0001
0100
0010
0100
1000
0100
,  // measure 117
0010
1000
0100
0010
0001
0100
0010
1000
,  // measure 118
0100
1000
0001
1000
0010
1000
0100
0010
,  // measure 119
0001
0010
0001
1000
0001
0100
0001
1000
,  // measure 120
0001
0010
0100
0010
0001
0100
0010
1000
,  // measure 121
0100
0010
0001
0100
0010
1000
0100
0010
,  // measure 122
0001
0100
0010
1000
0100
0010
0001
1000
,  // measure 123
0001
0100
0001
0010
0001
0100
0001
0010
,  // measure 124
0100
1000
0010
1000
0100
1000
0010
1000
,  // measure 125
0001
0000
0000
0000
,  // measure 126
0000
0000
0000
0000
M00M
M00M
M00M
0000
;

//---------------dance-single - ----------------
#NOTES:
     dance-single:
     :
     Medium:
     7:
     0.462,0.439,0.126,0.110,0.000:
0000
0000
0000
0000
,
0000
0000
0000
0000
,
0000
0000
0000
0000
,
0000
0000
0000
0000
,
1001
0000
0000
0000
,
0110
0000
0000
0000
,
1001
0000
0000
0000
,
1100
0000
0010
0000
,
0101
0000
0000
0000
,
1010
0000
0000
0000
,
1100
0000
0000
0000
,
0110
0000
0001
0000
,
1100
0000
0000
0000
,
0101
0000
0000
0000
,
1010
0000
0000
0000
,
0001
0001
0001
0001
,
1000
0100
0010
0001
,
1000
0010
0100
0001
,
1000
0100
1000
0001
,
0100
0010
0100
0001
,
1000
0010
0100
0001
,
1000
0100
0010
0001
,
0100
0010
0100
0001
,
0010
0100
1000
0001
,
1000
0010
0100
0001
,
1000
0001
0010
0100
,
1000
0001
0100
0010
,
0100
0001
1000
0100
,
1000
0010
0100
0001
,
1000
0001
0100
0010
,
0100
0001
0010
0100
,
1000
0010
0100
0000
,
0001
0000
1000
0000
,
0100
0010
0001
0000
,
0100
0000
0010
0000
,
1000
0001
1000
0000
,
0010
0000
0100
0000
,
0001
1000
0100
0000
,
0010
0000
0001
0000
,
1000
0010
0100
0000
,
1000
0100
0001
0000
,
0001
0010
1000
0000
,
1000
0010
0100
0000
,
0001
0100
1000
0000
,
0010
0100
0001
0000
,
0010
0100
1000
0000
,
0010
1000
0001
0000
,
0100
0001
1000
0000
,
0200
0000
0010
0000
,
0320
0000
0001
0000
,
0032
0000
0100
0000
,
0203
0000
0010
0000
,
0310
1000
0001
1000
,
0100
1000
0010
0000
,
0100
0001
1000
0001
,
0010
0001
1000
0000
,
0020
0000
0100
0000
,
0230
0000
0001
0000
,
0302
0000
1000
0000
,
2003
0000
0100
0000
,
3100
0010
0001
0100
,
0010
1000
0001
0000
,
0010
0100
1000
0010
,
0100
0001
1000
0000
,
0020
0000
0100
0000
,
2030
0000
0100
0000
,
3002
0000
0010
0000
,
2003
0000
0010
0000
,
3001
0100
0010
0100
,
0001
0010
0100
0000
,
0001
0100
1000
0100
,
0001
0100
1000
0000
,
1000
0100
0001
0100
,
1000
0100
0001
0000
,
0010
1000
0010
0001
,
0010
1000
0010
0000
,
0001
0100
0010
0000
,
1000
0100
0010
0000
,
0100
1000
0001
0000
,
1100
0000
0011
0000
,
0100
1000
0010
0000
,
0100
0001
0010
0000
,
0100
1000
0001
0000
,
1010
0000
0101
0000
,
0010
1000
0100
1000
,
0001
1000
0010
0000
,
0100
0001
1000
0001
,
0010
0000
1100
0000
,
0001
0100
1000
0100
,
0001
0010
1000
0010
,
0001
0100
0010
1000
,
0002
0000
2000
0003
,
3100
0010
0001
0100
,
0010
0100
0001
1000
,
0100
1000
0001
0100
,
0010
1000
0100
1000
,
0010
0100
0001
0010
,
0100
0001
0100
1000
,
0010
0100
0001
1000
,
0100
1000
0001
0000
,
1000
0010
0100
0001
,
1000
0100
1000
0010
,
0100
0001
1000
0100
,
1000
0010
0100
1000
,
0100
0001
1000
0100
,
0010
0001
0100
0010
,
1000
1000
1000
1000
,
1000
1000
1000
1000
,
1000
0001
0100
0001
,
1000
0100
0010
0001
,
0100
0010
0100
0001
,
0010
0100
1000
0001
,
1000
0010
0100
0010
,
1000
0100
0010
0001
,
0100
0010
1000
0100
,
0010
0001
1000
0001
,
0100
0010
1000
0001
,
0100
1000
0100
0001
,
0010
0100
0010
0100
,
1000
0001
1000
0001
,
1000
0010
0100
0010
,
1000
0100
0010
0001
,
1000
0010
0100
0010
,
1000
0100
0010
0001
,
1000
0000
0000
0000
;

//---------------dance-single - ----------------
#NOTES:
     dance-single:
     :
     Easy:
     3:
     0.229,0.244,0.000,0.094,0.000:
0000
0000
0000
0000
,
0000
0000
0000
0000
,
0000
0000
0000
0000
,
0000
0000
0000
0000
,
1000
0000
0000
0000
,
0001
0000
0000
0000
,
1000
0000
0000
0000
,
0100
0000
0010
0000
,
0001
0000
0000
0000
,
1000
0000
0000
0000
,
0001
0000
0000
0000
,
1000
0000
0010
0000
,
0100
0000
0000
0000
,
0010
0000
0000
0000
,
0100
0000
0000
0000
,
0010
0000
0010
0000
,
1000
0000
0100
0000
,
1000
0000
0010
0000
,
0100
0000
0001
0000
,
0010
0000
0100
0000
,
1000
0000
0010
0000
,
1000
0000
0100
0000
,
0010
0000
0001
0000
,
0100
0000
0010
0000
,
1000
0000
0100
0000
,
1000
0000
0001
0000
,
0100
0000
0010
0000
,
1000
0000
0100
0000
,
1000
0000
0010
0000
,
0100
0000
0001
0000
,
0010
0000
0100
0000
,
1000
0000
0001
0000
,
1000
0000
0000
0000
,
0001
0000
0000
0000
,
1000
0000
0000
0000
,
0010
0000
0100
0000
,
0001
0000
0000
0000
,
0010
0000
0000
0000
,
0100
0000
0000
0000
,
1000
0000
0010
0000
,
0100
0000
0000
0000
,
0100
0000
0000
0000
,
0001
0000
0000
0000
,
0001
0000
0000
0000
,
1000
0000
0000
0000
,
1000
0000
0000
0000
,
0100
0000
0000
0000
,
0100
0000
0000
0000
,
0020
0000
0000
0000
,
0032
0000
0000
0000
,
2003
0000
0000
0000
,
3020
0000
0000
0000
,
0130
0000
0001
0000
,
1000
0000
0100
0000
,
1000
0000
0010
0000
,
0100
0000
0001
0000
,
0020
0000
0000
0000
,
0230
0000
0000
0000
,
2300
0000
0000
0000
,
3020
0000
0000
0000
,
0130
0000
0001
0000
,
1000
0000
0100
0000
,
1000
0000
0010
0000
,
0100
0000
0001
0000
,
2000
0000
0000
0000
,
3200
0000
0000
0000
,
0320
0000
0000
0000
,
0032
0000
0000
0000
,
1003
0000
0010
0000
,
0100
0000
0010
0000
,
1000
0000
0100
0000
,
0010
0000
0001
0000
,
1000
0000
0010
0000
,
0100
0000
0010
0000
,
1000
0000
0100
0000
,
0010
0000
0001
0000
,
1000
0000
0000
0000
,
0001
0000
0000
0000
,
1000
0000
0010
0000
,
0100
0000
0001
0000
,
1000
0000
0000
0000
,
0100
0000
0000
0000
,
0010
0000
0001
0000
,
0100
0000
0000
0000
,
0010
0000
0000
0000
,
1000
0000
0000
0000
,
0100
0000
1000
0000
,
0010
0000
0100
0000
,
0001
0000
0000
0000
,
0010
0000
0000
0000
,
0100
0000
1000
0000
,
0001
0000
0000
0000
,
1000
0000
0010
0000
,
0100
0000
0001
0000
,
1000
0000
0100
0000
,
1000
0000
0010
0000
,
0100
0000
0010
0000
,
1000
0000
0100
0000
,
0010
0000
0001
0000
,
0100
0000
0010
0000
,
1000
0000
0001
0000
,
1000
0000
0001
0000
,
0010
0000
0100
0000
,
1000
0000
0010
0000
,
0100
0000
0010
0000
,
1000
0000
0001
0000
,
1000
0000
0001
0000
,
1000
0000
0001
0000
,
1000
0000
0000
0000
,
0010
0000
0000
0000
,
0100
0000
0000
0000
,
0001
0000
0000
0000
,
1000
0000
0100
0000
,
0010
0000
0001
0000
,
0100
0000
0010
0000
,
0100
0000
0001
0000
,
0010
0000
0100
0000
,
1000
0000
0001
0000
,
0100
0000
0010
0000
,
1000
0000
0100
0000
,
1000
0000
0010
0000
,
0100
0000
0001
0000
,
0010
0000
0100
0000
,
1000
0000
0010
0000
,
0100
0000
0000
0000
;
