#TITLE:Jumping Boogie;
#SUBTITLE:;
#ARTIST:Kozo Nakamura;
#TITLETRANSLIT:;
#SUBTITLETRANSLIT:;
#ARTISTTRANSLIT:;
#CREDIT:Xythar (BG source - nookiez at sxc.hu);
#BANNER:Jumping Boogie.png;
#BACKGROUND:Jumping Boogie-bg.png;
#LYRICSPATH:;
#CDTITLE:jubeat.png;
#MUSIC:Jumping Boogie.mp3;
#OFFSET:-0.364;
#SAMPLESTART:43.984;
#SAMPLELENGTH:14.520;
#SELECTABLE:YES;
#BPMS:0.000=198.000;
#STOPS:;
#BGCHANGES:;

//---------------dance-single - ----------------
#NOTES:
     dance-single:
     :
     Hard:
     9:
     0.568,0.705,0.499,0.151,0.512:
0000
0000
0000
0000
,
0000
0000
0000
0000
,
1000
0000
0000
0100
0000
0000
0010
0000
0000
0001
0000
1000
,
0000
0000
0000
0001
0000
0000
0100
0000
0000
0010
0000
1000
,
0000
0000
0000
0001
0000
0000
0010
0000
0000
0100
0000
1000
,
0000
0000
0000
0001
0000
0000
0100
0000
0000
0010
0000
1000
,
0000
0000
0000
0100
0000
0000
0010
0000
0000
0001
0000
1000
,
0000
0000
0000
0010
0000
0000
0100
0000
0000
0001
0000
1000
,
0000
0000
0000
0100
0000
0000
0010
0000
0000
0001
0000
0100
,
0000
0010
0100
0001
,
1000
0001
0100
0010
,
1000
0000
0000
0001
0000
0010
0000
0000
0000
0100
0000
0000
,
1000
1000
0010
0010
,
0100
0000
0001
0000
0000
0000
1000
0000
0000
0010
0000
0100
,
0000
0000
0100
0000
0000
0000
1001
0000
0000
0100
0000
0000
,
1001
0000
0000
0000
0000
1010
0000
0000
0000
0000
0000
0000
,
0000
0000
0001
0000
0000
0001
1000
0000
0000
0010
0000
0000
,
1001
0000
0000
0100
0000
1001
0000
0000
0000
0010
0000
0000
,
0100
0001
0001
1000
,
0010
0000
0000
0100
0000
0001
0000
0000
0000
1000
0000
0000
,
0100
0000
0000
1000
0000
0000
0010
0000
0100
0010
0000
0000
,
0100
0001
0010
0100
,
1000
0001
0010
0000
,
0100
0100
1000
0010
,
1001
0100
1000
0010
,
0101
0000
0100
0010
0000
1001
0000
0000
0000
0000
0000
0000
,
1000
0000
0001
1000
0000
0001
1000
0000
0010
1000
0000
0010
,
0100
0000
0010
0100
0000
0001
0000
0000
0100
0010
0000
1001
,
0000
0000
0100
0000
0000
1000
0010
0000
0000
0100
0000
0000
,
0001
0000
0000
1000
0000
0001
0000
0000
0000
0000
0000
1000
,
0100
0100
1000
1000
,
0010
0000
0100
0010
0000
1000
0000
0000
1000
0000
0000
0000
,
0001
0000
0100
0000
0000
0010
1000
0000
0000
0001
0000
0010
,
0000
0000
0100
1000
0000
0000
0101
0000
0000
1100
0000
0000
,
0001
0000
1000
0010
0000
1000
0001
0000
1000
0100
0000
0000
,
1000
0000
0010
0000
0100
0000
0001
0000
0000
0000
0000
0000
,
1000
0000
0001
0100
0000
0000
0010
0000
0000
1000
0000
0000
,
0011
0000
0000
0000
0000
1100
0000
0000
0000
0000
0000
0000
,
0001
0000
0100
0010
0000
0000
1000
0000
0000
0100
0000
0000
,
0011
0000
0000
0000
0000
1100
0000
0000
0000
0000
0000
0000
,
0001
0000
1000
0010
0000
0000
0100
0000
0001
1000
0000
0000
,
0110
0000
0000
0000
0000
1001
0000
0000
0000
0000
0000
0000
,
0100
0000
1000
0010
0000
0000
0100
0000
0001
0010
0000
0000
,
1001
0000
0000
0000
0000
0110
0000
0000
0000
0000
0000
0000
,
0001
0000
0000
0000
0000
0010
0000
0000
0000
0100
0000
0000
,
1000
0010
0100
0001
,
1000
0000
0000
0001
0000
0000
1000
0000
0100
1000
0000
0000
,
0010
0000
0100
0001
0000
1100
0000
0000
0000
0000
0000
0000
,
0001
0000
0000
0000
,
1000
0000
0000
0000
,
0001
0000
1000
0000
,
0002
0023
0230
1300
,
0201
0310
2100
3010
,
1002
0013
0102
0013
,
2100
3010
0201
0310
,
0120
0031
0120
1030
,
0012
0103
1020
0130
,
2001
3100
0012
1003
,
1000
0000
0001
0000
0000
1000
0010
0000
0000
0100
0000
0001
,
0000
0000
1000
0001
0000
0000
0011
0000
0000
1001
0000
0000
,
0010
0000
0000
0100
0000
0000
0002
0000
0000
0000
0000
0003
,
1000
0000
0000
0010
0000
0000
0100
0000
0001
1000
0000
0000
,
0001
0000
0000
0010
0000
0000
0200
0000
0000
0000
0000
0300
,
1000
0000
0000
0010
0000
0000
0100
0000
0001
1000
0000
0000
,
0001
0000
0010
0001
0000
0010
0001
0000
1000
0001
0000
1000
,
0001
0000
1000
0010
0000
1000
0010
0000
0100
0001
0000
0000
,
0100
0000
1001
0000
0000
0000
0100
0000
1000
0010
0000
0000
,
0100
0000
1001
0000
0000
0000
0100
0000
0010
0001
0000
0000
,
1000
0000
0010
0000
0000
1000
0100
0000
0000
1000
0000
0010
,
1000
0000
0001
1000
0000
0100
1000
0000
0001
1000
0000
0000
,
0001
0000
0000
0100
0000
0010
1000
0000
0001
0010
0000
0100
,
1000
0000
0000
0000
0000
0001
0000
0000
0001
0000
0000
0001
,
0100
0000
0000
0010
0000
0000
1000
0000
0000
0100
0000
1001
,
0000
0000
0000
0100
0000
0000
0010
0000
0000
0001
0000
1100
,
0000
0000
0000
0010
0000
0000
0100
0000
0000
0001
0000
1100
,
0000
0000
0000
0010
0000
0101
0000
0000
0000
0100
0000
1001
,
0000
0000
0000
0010
0000
0000
1000
0000
0000
0100
0000
0011
,
0000
0000
0000
0100
0000
0000
1000
0000
0000
0001
0000
1010
,
0000
0000
0000
0001
0000
0000
0010
0000
0000
0100
0000
1001
,
0000
0000
0001
0100
0000
1010
0000
0000
0001
0010
0000
1100
,
0000
0000
0000
0010
0000
0000
1000
0000
0000
0001
0000
0110
,
0000
0000
0000
0100
0000
0000
0001
0000
0000
1000
0000
0110
,
0000
0000
0000
0001
0000
0000
0100
0000
0000
0010
0000
1001
,
0000
0000
0100
0010
0000
1001
0000
0000
0010
0100
0000
1001
,
0000
0000
1000
0100
0000
0011
0000
0000
0001
0100
0000
1010
,
0000
0000
1000
0001
0000
0110
0000
0000
0001
1000
0000
0110
,
0000
1000
0010
0100
,
0001
0000
0000
1000
0000
0100
0010
0000
0001
0000
0000
0000
,
1001
0000
0000
0000
;

//---------------dance-single - ----------------
#NOTES:
     dance-single:
     :
     Medium:
     7:
     0.390,0.392,0.320,0.000,0.249:
0000
0000
0000
0000
,
0000
0000
0000
0000
,
1000
0000
0000
0001
0000
0000
1000
0000
0000
0000
0010
0000
,
0000
0000
0000
0100
0000
0000
0001
0000
0000
0000
1000
0000
,
0000
0000
0000
0100
0000
0000
1000
0000
0000
0000
0010
0000
,
0000
0000
0000
0100
0000
0000
0001
0000
0000
0000
0000
0010
,
0000
0000
0000
0100
0000
0000
1000
0000
0000
0000
0001
0000
,
0000
0000
0000
1000
0000
0000
0010
0000
0000
0000
0000
0100
,
0000
0000
0000
0001
0000
0000
1000
0000
0000
0000
0010
0000
,
0000
0100
0001
0100
,
0010
1000
0001
1000
,
0010
0000
0000
0000
0000
0100
0000
0000
0000
0001
0000
0000
,
0010
0010
0100
1000
,
0010
0000
0000
0100
0000
0000
0001
0000
0000
0000
0000
1000
,
0000
0000
1000
0000
0000
0000
0101
0000
0000
0000
0000
0000
,
1000
0000
0000
0000
0000
0011
0000
0000
0000
0000
0000
0000
,
0000
0000
0100
0000
0000
0000
1001
0000
0000
0000
0000
0000
,
1000
0000
0000
0000
0000
0011
0000
0000
0000
0000
0000
0000
,
0100
1000
0010
0000
,
0100
0000
0000
0000
0001
0000
0000
0000
0000
0000
0000
0000
,
1000
0010
0100
0001
,
1000
0100
1000
0010
,
0100
0001
0010
0000
,
0100
1000
0010
0100
,
0001
0010
0100
1000
,
0001
0000
0000
0000
0000
1100
0000
0000
0000
0000
0000
0000
,
1000
0010
0100
0001
,
0010
0000
0000
0100
0000
0000
1000
0000
0000
0000
0000
0101
,
0000
0000
0010
0000
,
1000
0000
0000
0000
0000
0001
0000
0000
0000
0000
0000
0000
,
1000
0010
1000
0001
,
1000
0000
0000
0100
0000
0010
0000
0000
0001
0000
0000
0000
,
1000
0000
0000
0000
0000
0001
0000
0000
0000
1000
0000
0000
,
0000
0000
0010
0000
0000
0000
0100
0000
0000
1001
0000
0000
,
0100
1000
0010
0100
,
0001
0000
0010
0000
0001
0000
1000
0000
0000
0000
0000
0000
,
0001
0100
0010
1000
,
0001
0000
0000
0000
0000
1100
0000
0000
0000
0000
0000
0000
,
0010
0100
0001
0010
,
0100
0000
0000
0000
0000
1001
0000
0000
0000
0000
0000
0000
,
0100
1000
0010
0100
,
0001
0000
0000
0000
0000
0110
0000
0000
0000
0000
0000
0000
,
1000
0100
0010
0001
,
0100
0000
0000
0000
0000
1010
0000
0000
0000
0000
0000
0000
,
0001
0000
0000
0000
0000
0010
0000
0000
0000
0100
0000
0000
,
1000
0010
1000
0001
,
1000
0010
0100
0001
,
1000
0000
0000
0000
0000
0101
0000
0000
0000
0000
0000
0000
,
1000
0000
0000
0000
,
0001
0000
0000
0000
,
1000
0000
0001
0000
,
1000
0010
0100
0001
,
1000
0100
1000
0100
,
0010
0001
0010
0001
,
1000
0010
1000
0010
,
0100
0001
0100
0001
,
1000
0010
0100
0010
,
1000
0001
0010
0001
,
1000
0000
0000
0000
0000
0101
0000
0000
0000
0010
0000
0000
,
0000
0000
1100
0000
0000
0000
0001
0000
0000
1000
0000
0000
,
0001
0100
0010
0000
,
1000
0100
0010
0001
,
1000
0010
0100
0000
,
0001
0010
0100
1000
,
0001
0001
0001
0001
,
1000
1000
1000
1000
,
0001
0000
1000
0000
0000
0000
0001
0000
0000
0010
0000
0000
,
0100
0000
1000
0000
0000
0000
0001
0000
0000
0100
0000
0000
,
0010
0000
0000
0000
0000
1000
0000
0000
0000
0001
0000
0000
,
1000
0100
0010
0001
,
1000
0010
0100
0010
,
1001
0000
0000
0000
0000
0010
0000
0000
0010
0000
0000
0000
,
1001
0000
0000
0100
0000
0000
1000
0000
0000
0000
0000
0101
,
0000
0000
0000
0010
0000
0000
1000
0000
0000
0000
0000
0011
,
0000
0000
0000
0100
0000
0000
1000
0000
0000
0000
0000
0101
,
0000
0000
0000
0000
0000
1100
0000
0000
0000
0000
0000
0101
,
0000
0000
0000
1000
0000
0000
0001
0000
0000
0000
0000
0110
,
0000
0000
0000
0001
0000
0000
1000
0000
0000
0000
0000
0110
,
0000
0000
0000
0001
0000
0000
0100
0000
0000
0000
0000
1010
,
0000
0000
0000
0000
0000
0011
0000
0000
0000
0000
0000
1001
,
0000
0000
0000
0100
0000
0000
0010
0000
0000
0000
0000
1001
,
0000
0000
0000
0010
0000
0000
0100
0000
0000
0000
0000
1001
,
0000
0000
0000
0100
0000
0000
0010
0000
0000
0000
0000
1001
,
0000
0000
0000
0000
0000
0110
0000
0000
0000
0000
0000
1001
,
0000
0000
0000
0000
0000
1100
0000
0000
0000
0000
0000
0101
,
0000
0000
0000
0000
0000
1010
0000
0000
0000
0000
0000
0011
,
0000
0100
1000
0010
,
0100
0000
0000
0001
0000
0000
0000
0000
1000
0000
0000
0000
,
0110
0000
0000
0000
;

//---------------dance-single - ----------------
#NOTES:
     dance-single:
     :
     Easy:
     5:
     0.272,0.353,0.249,0.000,0.205: // measure 1
0000
0000
0000
0000
,  // measure 2
0000
0000
0000
0000
,  // measure 3
1000
0000
0000
0000
0000
0000
0001
0000
0000
0000
0000
0100
,  // measure 4
0000
0000
0000
0000
0000
0000
0001
0000
0000
0000
0000
0010
,  // measure 5
0000
0000
0000
0000
0000
0000
0100
0000
0000
0000
0000
1000
,  // measure 6
0000
0000
0000
0000
0000
0000
0010
0000
0000
0000
0000
0100
,  // measure 7
0000
0000
0000
0000
0000
0000
0001
0000
0000
0000
0000
1000
,  // measure 8
0000
0000
0000
0000
0000
0000
0001
0000
0000
0000
0000
0100
,  // measure 9
0000
0000
0000
0000
0000
0000
0001
0000
0000
0000
0000
0010
,  // measure 10
0000
0000
0100
1000
,  // measure 11
0100
0000
1000
0000
,  // measure 12
0010
0000
0000
0000
0000
0100
0000
0000
0000
0001
0000
0000
,  // measure 13
1000
0001
1000
0000
,  // measure 14
0010
0000
0000
0000
0000
0000
0100
0000
0000
0000
0000
0001
,  // measure 15
0000
0000
1001
0000
,  // measure 16
0010
0000
0000
0000
0000
0100
0000
0000
0000
0000
0000
0000
,  // measure 17
0000
0000
0001
0000
0000
0000
0010
0000
0000
0000
0000
0000
,  // measure 18
0100
0000
0000
0000
0000
1001
0000
0000
0000
0000
0000
0000
,  // measure 19
0010
0000
0100
0000
,  // measure 20
0001
0000
0000
0000
0000
1000
0000
0000
0000
0000
0000
0000
,  // measure 21
0001
0000
0010
0000
,  // measure 22
0100
0000
1000
0000
,  // measure 23
0010
0000
0100
0000
,  // measure 24
0001
1000
0001
0000
,  // measure 25
1001
0000
0100
0000
,  // measure 26
1000
0000
0000
0000
0000
0010
0000
0000
0000
0000
0000
0000
,  // measure 27
0100
0000
0001
0000
,  // measure 28
0010
0000
0000
0000
0000
0000
0100
0000
0000
0000
0000
1000
,  // measure 29
0000
0000
0001
0000
,  // measure 30
1000
0000
0000
0000
0000
0010
0000
0000
0000
0000
0000
0000
,  // measure 31
1000
1000
0100
0000
,  // measure 32
1000
1000
0010
0000
,  // measure 33
0100
0000
0000
0000
0000
0001
0000
0000
0000
1000
0000
0000
,  // measure 34
0000
0000
0001
0000
0000
0000
0010
0000
0000
0010
0000
0000
,  // measure 35
0100
0000
1000
0000
,  // measure 36
0001
0000
1001
0000
,  // measure 37
1000
0100
1000
0000
,  // measure 38
1001
0000
0000
0000
0000
0010
0000
0000
0000
0000
0000
0000
,  // measure 39
0100
0001
0100
0000
,  // measure 40
1001
0000
0000
0000
0000
0100
0000
0000
0000
0000
0000
0000
,  // measure 41
0010
0001
0010
0000
,  // measure 42
0110
0000
0000
0000
0000
0001
0000
0000
0000
0000
0000
0000
,  // measure 43
1000
0010
1000
0000
,  // measure 44
0110
0000
0000
0000
0000
1000
0000
0000
0000
0000
0000
0000
,  // measure 45
0001
0000
0000
0000
0000
0010
0000
0000
0000
0001
0000
0000
,  // measure 46
0001
0000
1000
0000
,  // measure 47
0010
0000
0100
0000
,  // measure 48
0001
0000
0000
0000
0000
1001
0000
0000
0000
0000
0000
0000
,  // measure 49
0100
0000
0000
0000
,  // measure 50
1000
0000
0000
0000
,  // measure 51
0001
0000
1000
0000
,  // measure 52
0001
1000
0001
0000
,  // measure 53
1000
0010
1000
0000
,  // measure 54
0001
0100
0001
0000
,  // measure 55
1000
0100
1000
0000
,  // measure 56
0001
0010
0001
0000
,  // measure 57
0100
0010
0100
0000
,  // measure 58
0001
1000
0001
0000
,  // measure 59
1000
0000
0000
0000
0000
0001
0000
0000
0000
1000
0000
0000
,  // measure 60
0000
0000
0001
0000
0000
0000
1001
0000
0000
0000
0000
0000
,  // measure 61
0100
0010
0100
0000
,  // measure 62
0001
0000
0010
0000
,  // measure 63
0100
1000
0100
0000
,  // measure 64
1000
0000
0010
0000
,  // measure 65
0100
0001
0100
0001
,  // measure 66
0100
0001
0100
0001
,  // measure 67
0100
0000
1001
0000
,  // measure 68
0100
0000
1001
0000
,  // measure 69
1000
0000
0000
0000
0000
0010
0000
0000
0000
1000
0000
0000
,  // measure 70
0001
0000
1000
0000
,  // measure 71
0010
0000
0100
0000
,  // measure 72
1001
0000
0000
0000
,  // measure 73
0110
0000
0000
0000
0000
0000
0000
0000
0000
0000
0000
0101
,  // measure 74
0000
0000
0000
0000
0000
0000
0000
0000
0000
0000
0000
1100
,  // measure 75
0000
0000
0000
0000
0000
0000
0000
0000
0000
0000
0000
0101
,  // measure 76
0000
0000
0000
0000
0000
0010
0000
0000
0000
0000
0000
1001
,  // measure 77
0000
0000
0000
0000
0000
0000
0000
0000
0000
0000
0000
1100
,  // measure 78
0000
0000
0000
0000
0000
0000
0000
0000
0000
0000
0000
0011
,  // measure 79
0000
0000
0000
0000
0000
0000
0000
0000
0000
0000
0000
1010
,  // measure 80
0000
0000
0000
0000
0000
0100
0000
0000
0000
0000
0000
1001
,  // measure 81
0000
0000
0000
0000
0000
0000
0000
0000
0000
0000
0000
0110
,  // measure 82
0000
0000
0000
0000
0000
0000
0000
0000
0000
0000
0000
1001
,  // measure 83
0000
0000
0000
0000
0000
0000
0000
0000
0000
0000
0000
1100
,  // measure 84
0000
0000
0000
0000
0000
0010
0000
0000
0000
0000
0000
1001
,  // measure 85
0000
0000
0000
0000
0000
0100
0000
0000
0000
0000
0000
0011
,  // measure 86
0000
0000
0000
0000
0000
0100
0000
0000
0000
0000
0000
1001
,  // measure 87
0000
0000
0000
0000
,  // measure 88
0000
0000
0000
0000
,  // measure 89
1000
0000
0000
0000
;

//---------------dance-single - ----------------
#NOTES:
     dance-single:
     :
     Beginner:
     2:
     0.195,0.274,0.045,0.000,0.000: // measure 1
0000
0000
0000
0000
,  // measure 2
0000
0000
0000
0000
,  // measure 3
1000
0000
0100
0000
,  // measure 4
0010
0000
0001
0000
,  // measure 5
0100
0000
0010
0000
,  // measure 6
1000
0000
0001
0000
,  // measure 7
0010
0000
0100
0000
,  // measure 8
1000
0000
0010
0000
,  // measure 9
0100
0000
0001
0000
,  // measure 10
1000
0000
0001
0000
,  // measure 11
1000
0000
0010
0000
,  // measure 12
0100
0100
0000
0000
,  // measure 13
0001
0000
0010
0000
,  // measure 14
0100
0000
1000
0000
,  // measure 15
0001
0000
1000
0000
,  // measure 16
0001
0000
0000
0000
,  // measure 17
1000
0000
0010
0000
,  // measure 18
0100
0000
0000
0000
,  // measure 19
0001
0000
0010
0000
,  // measure 20
0100
0000
1000
0000
,  // measure 21
0001
0000
1000
0000
,  // measure 22
0010
0000
0100
0000
,  // measure 23
0001
0000
1000
0000
,  // measure 24
0100
0000
1000
0000
,  // measure 25
0010
0000
0100
0000
,  // measure 26
0001
0000
0010
0000
,  // measure 27
0100
0000
1000
0000
,  // measure 28
0001
0000
1000
0000
,  // measure 29
0010
0000
0100
0000
,  // measure 30
0001
0000
0010
0000
,  // measure 31
0100
0000
1000
0000
,  // measure 32
0010
0000
0100
0000
,  // measure 33
0001
0000
0000
0000
,  // measure 34
1000
0000
0000
0000
,  // measure 35
0001
0001
0000
0000
,  // measure 36
1000
1000
0000
0000
,  // measure 37
0010
0000
0100
0000
,  // measure 38
1001
0000
0000
0000
,  // measure 39
0010
0000
0100
0000
,  // measure 40
1001
0000
0000
0000
,  // measure 41
0001
0000
1000
0000
,  // measure 42
0110
0000
0000
0000
,  // measure 43
1000
0000
0001
0000
,  // measure 44
0110
0000
0000
0000
,  // measure 45
0001
0000
0010
0000
,  // measure 46
0100
0000
1000
0000
,  // measure 47
0010
0000
0100
0000
,  // measure 48
0001
0000
0000
0000
,  // measure 49
1000
0000
0000
0000
,  // measure 50
0001
0000
0000
0000
,  // measure 51
1000
0000
0001
0000
,  // measure 52
1000
0000
0000
0000
,  // measure 53
0001
0001
0000
0000
,  // measure 54
1000
1000
0000
0000
,  // measure 55
0010
0010
0000
0000
,  // measure 56
0100
0100
0000
0000
,  // measure 57
0001
0001
0000
0000
,  // measure 58
0010
0010
0000
0000
,  // measure 59
0100
0000
0000
0000
,  // measure 60
1000
0000
0000
0000
,  // measure 61
0010
0000
0100
0000
,  // measure 62
0001
0000
0010
0000
,  // measure 63
0100
0000
1000
0000
,  // measure 64
0010
0000
0100
0000
,  // measure 65
0001
0001
0001
0000
,  // measure 66
1000
1000
1000
0000
,  // measure 67
0010
0000
0100
0000
,  // measure 68
0001
0000
0010
0000
,  // measure 69
0100
0000
1000
0000
,  // measure 70
0010
0000
0100
0000
,  // measure 71
0001
0000
1000
0000
,  // measure 72
0010
0000
0000
0000
,  // measure 73
1000
0000
0000
0000
,  // measure 74
0001
0000
0000
0000
,  // measure 75
1000
0000
0000
0000
,  // measure 76
0010
0000
0100
0000
,  // measure 77
0001
0000
0000
0000
,  // measure 78
0010
0000
0000
0000
,  // measure 79
0100
0000
0000
0000
,  // measure 80
1000
0000
0010
0000
,  // measure 81
0100
0000
0000
0000
,  // measure 82
0001
0000
0000
0000
,  // measure 83
0010
0000
0000
0000
,  // measure 84
0100
0000
1000
0000
,  // measure 85
0010
0000
0100
0000
,  // measure 86
0001
0000
0010
0000
,  // measure 87
0100
0000
0000
0000
,  // measure 88
0000
0000
0000
0000
,  // measure 89
1001
0000
0000
0000
;
