#TITLE:Jelly Beans;
#SUBTITLE:;
#ARTIST:新谷良子と後藤沙緒里;
#TITLETRANSLIT:;
#SUBTITLETRANSLIT:;
#ARTISTTRANSLIT:Ryoko Shintani & Saori Gotou;
#CREDIT:Xythar;
#BANNER:Jelly Beans.png;
#BACKGROUND:Jelly Beans-bg.png;
#LYRICSPATH:Jelly Beans.lrc;
#CDTITLE:Galaxy Angel.png;
#MUSIC:Jelly Beans.mp3;
#OFFSET:-0.339;
#SAMPLESTART:58.798;
#SAMPLELENGTH:12.300;
#SELECTABLE:YES;
#BPMS:0.000=156.000;
#STOPS:;
#BGCHANGES:-0.933=Jelly Beans.avi=1.000=0=1=0,
227.688=Jelly Beans-eg.png=1.000=1=0=1,
99999=-nosongbg-=1.000=0=0=0 // don't automatically add -songbackground-
;

//---------------dance-single - ----------------
#NOTES:
     dance-single:
     :
     Hard:
     8:
     0.516,0.502,0.209,0.165,0.000:
0000
0000
0000
0000
,
0000
0000
0000
0000
,
2000
0000
0010
0000
3100
1000
0010
0100
,
0000
0001
0010
0100
0000
1000
0010
1000
,
0002
0000
0100
0000
0013
0100
1000
0010
,
0000
0100
0001
1000
0000
0100
0010
0000
,
1001
0000
0110
0000
0000
1000
0001
0000
,
1001
0000
0000
0010
0100
0001
0010
0000
,
0100
0000
1000
0010
0100
0001
0000
0010
,
0000
0100
1000
0010
0100
0000
1001
0000
,
0100
0000
0010
0001
0100
0010
0000
1000
,
0000
0001
1000
0000
0102
0000
1003
0000
,
0100
0000
1000
0010
0100
0001
0000
0010
,
0000
0100
1000
0010
0100
0000
0001
1000
,
0100
0000
1000
0010
0000
0010
0100
0001
,
0010
0200
1000
0310
,
0200
0000
1000
0000
1000
0000
0000
0320
,
0000
0001
0100
0031
,
0200
0000
1000
0000
1000
0000
0000
0320
,
0000
1030
0011
1100
,
0001
0100
0010
0100
0001
0010
0100
0000
,
1000
0010
0100
0010
1000
0100
0010
0000
,
0100
1000
0001
1000
0010
0100
0001
0000
,
1000
0201
0310
1000
,
0110
0000
0001
0100
0000
0010
1000
0001
,
1000
0000
0100
0010
0000
0001
0100
0000
,
1001
0010
1100
0011
,
0100
1000
0100
1000
0010
0000
0100
0000
,
0001
0010
0100
1000
0010
0100
0001
0000
,
1000
0100
1000
0010
0000
0100
0001
0000
,
1000
0010
0100
0001
0010
0100
1000
0000
,
0010
0100
0001
0010
0000
0100
1000
0000
,
0001
0100
0010
0100
0001
0000
1000
0100
,
0010
0000
0001
0100
0000
0010
1000
0000
,
0001
0000
1000
0100
0000
0010
0001
0000
,
1000
0000
0001
0100
1000
0100
0001
0000
,
1000
0001
0000
0110
0000
0001
1000
0000
,
0110
0000
0001
1000
,
0100
1000
0010
0000
0100
0001
0000
1100
,
0000
0010
0100
0001
0000
0010
0100
0010
,
0100
0000
1000
0001
1000
0010
0000
0100
,
0000
0001
0010
0200
0000
1300
0010
0100
,
0001
0000
1000
0100
1000
0000
0001
0100
,
0001
0000
1000
0010
1000
0000
0001
0010
,
0001
0000
0100
0010
0100
0001
1000
0000
,
0100
0010
0100
0010
0001
0000
1000
0010
,
0100
0000
0001
0010
0100
1000
0000
0101
,
0000
0010
1000
0001
0000
1000
0100
1000
,
0010
0000
0100
0001
0100
0001
1000
0100
,
0000
1000
0010
0200
0000
0301
0010
0100
,
1000
0000
0001
0100
0010
0100
0001
0100
,
0010
0100
0001
0010
0100
1000
0010
0100
,
0001
1000
0100
1000
0000
0010
0000
0000
,
2001
0000
0000
3100
0000
0000
1002
0000
,
0000
0103
0000
0000
0010
1000
0001
0000
,
2002
0000
0000
0000
,
0000
0000
0000
0000
,
3003
0000
0000
0000
;

//---------------dance-single - ----------------
#NOTES:
     dance-single:
     :
     Medium:
     6:
     0.426,0.439,0.187,0.176,0.000:
0000
0000
0000
0000
,
0000
0000
0000
0000
,
2000
0000
0010
0000
3010
0100
0000
0001
,
0000
1000
0000
0100
0000
0000
1000
0010
,
0200
0000
0010
0000
0310
1000
0000
0001
,
0000
0010
0000
0100
0000
1000
0000
0000
,
0010
0000
0100
0000
0000
0001
1000
0000
,
1001
0000
0100
0000
,
1000
0000
0010
0000
0100
0010
0000
0100
,
0000
0001
0010
0000
0100
0000
1001
0000
,
0100
0000
1000
0000
0010
0100
0000
0001
,
0000
1000
0100
0000
0010
0000
1001
0000
,
0010
0000
0100
0000
0001
1000
0000
0001
,
0000
1000
0100
0000
1000
0000
0010
0000
,
0101
0000
0010
0000
1000
0000
0001
1000
,
0001
1000
0000
0100
,
1000
0000
0010
0000
0100
0001
0000
1000
,
0000
0100
1000
0000
0010
0000
1001
0000
,
0100
0000
1000
0000
0010
0100
0000
0001
,
0000
0010
0100
0000
1000
0000
0101
0000
,
0010
0000
1000
0001
0000
0001
1000
0000
,
0100
0000
0010
0001
0000
0001
0100
0000
,
0010
0000
1000
0100
0000
0100
1000
0000
,
0001
1100
0010
0000
,
1100
0000
0001
0100
0000
0010
1000
0000
,
0100
0000
0010
0001
0000
0100
0010
0000
,
1100
0001
1010
1010
,
0100
0001
0100
0001
0000
1000
0100
0000
,
1000
0010
0100
0010
,
1000
0000
0100
0010
0000
0001
0100
0000
,
0010
1000
0100
1000
,
0010
0000
0100
0001
0000
0001
1000
0000
,
0100
0000
1000
0010
0000
0100
0001
0000
,
0010
0000
0100
1000
0000
0010
0100
0000
,
0001
0000
1000
0100
0000
0010
0001
0000
,
1000
0000
0010
0100
0000
0001
1000
0000
,
0100
0010
0000
1001
0000
0010
0100
0000
,
1001
0000
0001
1000
,
0020
0000
0100
0000
0130
0001
0000
1100
,
0000
0010
0000
0100
0000
0001
1000
0000
,
0010
0000
0100
0000
0001
1000
0000
0100
,
0000
1000
0010
0100
0000
0100
0001
0000
,
2000
0000
0100
0000
3001
0000
0010
0100
,
0020
0000
0001
0000
0130
0000
1000
0010
,
2000
0000
0100
0000
3001
0000
0100
0010
,
0000
1000
0001
1000
0001
0000
1000
0100
,
2000
0000
0010
0000
3010
0100
0000
1001
,
0000
0100
0000
1000
0000
0010
0100
0000
,
0001
0000
0001
0000
0010
0100
0000
1000
,
0000
0010
0100
0001
0000
0001
1000
0000
,
0210
0001
0302
1000
,
2003
0100
3200
0010
,
0320
0001
0100
0031
,
2000
0000
0000
3010
0000
0000
0200
0000
,
0000
0301
0000
0000
1000
0000
0001
0000
,
2002
0000
0000
0000
,
0000
0000
0000
0000
,
3003
0000
0000
0000
;

//---------------dance-single - ----------------
#NOTES:
     dance-single:
     :
     Easy:
     4:
     0.286,0.314,0.132,0.154,0.000: // measure 1
0000
0000
0000
0000
,  // measure 2
0000
0000
0000
0000
,  // measure 3
0002
0000
0100
0000
,  // measure 4
1003
0010
0100
0000
,  // measure 5
0002
0000
0010
0000
,  // measure 6
0103
0010
1000
0100
,  // measure 7
1000
0001
0000
1000
,  // measure 8
1001
0000
0010
0000
,  // measure 9
1000
0100
1000
0000
,  // measure 10
0010
0100
0010
0100
,  // measure 11
0001
0010
0002
0000
,  // measure 12
1003
0000
0001
1001
,  // measure 13
1000
0010
0100
0000
,  // measure 14
0010
0000
1000
0100
,  // measure 15
2000
0000
0001
0000
,  // measure 16
3100
0000
1000
0000
,  // measure 17
0001
0010
0100
0000
,  // measure 18
1000
0000
0010
0010
,  // measure 19
0100
0001
0010
0000
,  // measure 20
0001
0000
1000
1001
,  // measure 21
0010
0100
0010
0100
,  // measure 22
0002
0000
2003
0000
,  // measure 23
3100
1000
0010
0100
,  // measure 24
0001
0001
1000
1000
,  // measure 25
0100
0000
0100
1000
,  // measure 26
0010
0000
0010
0100
,  // measure 27
0001
1000
0100
0100
,  // measure 28
1000
1001
0001
0001
,  // measure 29
1000
0010
0100
0010
,  // measure 30
2000
0000
3100
0000
,  // measure 31
1000
0001
0010
0001
,  // measure 32
2000
0000
3010
0000
,  // measure 33
0100
0001
0100
0001
,  // measure 34
0010
0000
0100
1000
,  // measure 35
0010
0000
0100
0001
,  // measure 36
1000
0100
1000
0010
,  // measure 37
0100
0000
0001
0000
,  // measure 38
1001
0000
0000
0000
,  // measure 39
0010
0000
0100
0000
0001
0000
0000
1100
,  // measure 40
0000
0000
0010
0100
,  // measure 41
0001
0010
0001
0000
,  // measure 42
1000
0010
0100
0010
,  // measure 43
2000
0000
3200
0000
,  // measure 44
0320
0000
0032
0000
,  // measure 45
0103
0000
0010
1000
,  // measure 46
0001
1000
1001
0000
,  // measure 47
0001
0000
0100
0000
0010
0000
0000
1010
,  // measure 48
0000
0000
1000
0100
,  // measure 49
1000
0000
0010
0100
,  // measure 50
0001
0000
0010
0000
,  // measure 51
0100
1000
0010
1000
,  // measure 52
0100
1000
0010
0100
,  // measure 53
0001
0000
1000
0000
,  // measure 54
1001
0000
0000
0110
,  // measure 55
0000
0000
1001
0000
,  // measure 56
2002
0000
0000
0000
,  // measure 57
0000
0000
0000
0000
,  // measure 58
3003
0000
0000
0000
;

//---------------dance-single - ----------------
#NOTES:
     dance-single:
     :
     Beginner:
     2:
     0.184,0.251,0.066,0.187,0.000: // measure 1
0000
0000
0000
0000
,  // measure 2
0000
0000
0000
0000
,  // measure 3
2000
0000
0000
0000
,  // measure 4
3002
0000
0000
0000
,  // measure 5
0203
0000
0000
0000
,  // measure 6
0320
0000
0000
0000
,  // measure 7
1030
0000
0000
0000
,  // measure 8
1001
0000
0000
0000
,  // measure 9
0001
0000
0001
0000
,  // measure 10
0001
0000
0001
0000
,  // measure 11
1000
1000
1000
0000
,  // measure 12
0200
0000
1300
1000
,  // measure 13
1000
0000
0010
0000
,  // measure 14
0100
0000
0001
0000
,  // measure 15
0020
0000
0000
0000
,  // measure 16
0130
0000
0000
0000
,  // measure 17
1000
0000
0010
0000
,  // measure 18
0100
0100
0100
0000
,  // measure 19
0001
0000
1000
0000
,  // measure 20
0200
0000
1300
1000
,  // measure 21
1000
0000
0010
0000
,  // measure 22
0100
0000
0001
0000
,  // measure 23
0020
0000
0000
0000
,  // measure 24
0130
0100
0100
0000
,  // measure 25
1000
0000
0001
0000
,  // measure 26
1000
0000
0010
0000
,  // measure 27
0100
0100
0100
0000
,  // measure 28
0001
0001
0001
0000
,  // measure 29
1000
0000
0100
0000
,  // measure 30
1000
0000
0010
0000
,  // measure 31
0100
0000
0001
0000
,  // measure 32
0010
0000
0100
0000
,  // measure 33
1000
0000
0010
0000
,  // measure 34
0100
0000
0001
0000
,  // measure 35
2000
0000
0000
0000
,  // measure 36
3001
0000
1000
0000
,  // measure 37
0100
0000
0000
0000
,  // measure 38
1001
0000
0000
0000
,  // measure 39
0010
0000
0100
0000
,  // measure 40
0001
0000
0010
0000
,  // measure 41
0100
0000
1000
0000
,  // measure 42
0010
0000
0100
0000
,  // measure 43
0020
0000
0000
0000
,  // measure 44
2030
0000
0000
0000
,  // measure 45
3200
0000
0000
0000
,  // measure 46
1300
0000
0000
0000
,  // measure 47
0001
0000
0010
0000
,  // measure 48
0100
0000
1000
0000
,  // measure 49
0010
0000
0100
0000
,  // measure 50
0001
0000
1000
0000
,  // measure 51
0200
0000
0000
0000
,  // measure 52
2300
0000
0000
0000
,  // measure 53
3020
0000
0030
0000
,  // measure 54
1001
0000
0000
1001
,  // measure 55
0000
0000
1001
0000
,  // measure 56
2002
0000
0000
0000
,  // measure 57
0000
0000
0000
0000
,  // measure 58
3003
0000
0000
0000
;
