#TITLE:JUNGLE DANCE;
#SUBTITLE:;
#ARTIST:NANA TANIMURA;
#TITLETRANSLIT:;
#SUBTITLETRANSLIT:;
#ARTISTTRANSLIT:;
#CREDIT:Xythar;
#BANNER:JUNGLE DANCE.png;
#BACKGROUND:JUNGLE DANCE-bg.png;
#LYRICSPATH:;
#CDTITLE:;
#MUSIC:JUNGLE DANCE.mp3;
#OFFSET:1.373;
#SAMPLESTART:59.950;
#SAMPLELENGTH:14.223;
#SELECTABLE:YES;
#BPMS:0.000=135.000;
#LASTBEAT:232;
#STOPS:;
#BGCHANGES:3.000=JUNGLE DANCE.avi=1.000=1=1=0,
99999=-nosongbg-=1.000=0=0=0 // don't automatically add -songbackground-
;

//---------------dance-single - ----------------
#NOTES:
     dance-single:
     :
     Hard:
     7:
     0.373,0.383,0.115,0.000,0.000:
0000
0000
0000
0000
,
0000
0000
0000
0000
,
0000
0000
0000
0000
,
0000
0000
0000
0000
,
0000
0000
0000
0000
,
0000
0000
0000
0000
,
0000
0000
0000
0000
,
0000
0000
0000
0000
,
0000
0000
0000
0000
,
0000
0000
0000
0000
,
0000
0000
0000
0000
,
1000
0000
0001
0100
0000
0001
1000
0100
,
0000
0100
0000
0010
0001
0010
0001
0100
,
0010
0000
1000
0100
0000
1000
0001
0100
,
0000
1000
0000
1000
0100
0001
0100
0001
,
1000
0000
0001
1000
0000
0100
1000
0010
,
0000
0010
0000
0100
0001
0100
0001
1000
,
0100
0000
1000
0010
0000
1000
0001
0010
,
0000
0010
0000
0100
1000
0010
1000
0001
,
0100
0000
0100
0000
0010
1000
0000
0001
,
0000
0001
0000
1000
0100
0000
1000
0001
,
1000
0000
0010
0000
0100
0001
0000
1000
,
0000
0001
0000
1000
0100
1000
0010
0000
,
0001
0000
0001
0000
0010
1000
0000
0001
,
0000
0001
0000
1000
0100
0000
1000
0010
,
0100
0000
0001
0000
1000
0001
0000
0100
,
0000
0001
0000
1000
0100
1000
0010
0000
,
1001
0000
0100
1000
0000
0010
0100
0001
,
0000
1000
0000
0001
1000
0100
1000
0010
,
0100
0000
0001
0010
0000
1000
0010
0001
,
0000
0100
0000
0010
1000
0010
1000
0000
,
0001
0000
0001
0000
1000
0100
0000
1000
,
0000
0010
0000
0100
0001
0000
1000
0100
,
1000
0000
0000
0000
0000
0001
0000
1000
,
0000
0010
0000
0100
0001
0100
0001
0100
,
0010
0000
1000
0100
0000
0011
0000
1100
,
0000
0001
0000
1000
0010
1000
0010
1000
,
0001
0000
0010
0100
0000
1100
0000
0101
,
0000
0010
0000
1000
0100
0001
0100
1000
,
0010
0000
0100
0001
0000
1000
0100
1000
,
0000
0010
0000
0100
0001
0010
1000
0010
,
0001
0000
1000
0010
0000
0100
0001
1000
,
0000
0001
0000
1000
0100
0000
0011
0000
,
0101
0000
1000
0010
0100
0001
0010
0100
,
0000
1000
0000
0001
0100
0000
1010
0000
,
1100
0000
0001
0100
0010
1000
0100
0010
,
0000
0001
0000
1000
0100
0001
0100
1000
,
0010
0000
0100
0001
0000
0010
0100
1000
,
0000
0010
0000
0100
1000
0100
0001
0100
,
0010
0000
1000
0100
0000
0010
0001
1000
,
0000
0010
0000
1000
0100
1000
0010
0100
,
0001
0010
1000
0010
0001
0100
0010
1000
,
0000
0001
0000
1000
0010
1000
0100
0010
,
0001
0100
1000
0100
0001
0010
0100
1000
,
0000
0001
0000
0110
0000
1000
0100
0010
,
0001
0000
1000
0010
0000
0100
0001
0010
,
0000
0100
0000
1001
0000
0010
0100
0000
,
1001
0000
0000
0000
;

//---------------dance-single - ----------------
#NOTES:
     dance-single:
     :
     Medium:
     5:
     0.281,0.273,0.048,0.019,0.000: // measure 1
0000
0000
0000
0000
,  // measure 2
0000
0000
0000
0000
,  // measure 3
0000
0000
0000
0000
,  // measure 4
0000
0000
0000
0000
,  // measure 5
0000
0000
0000
0000
,  // measure 6
0000
0000
0000
0000
,  // measure 7
0000
0000
0000
0000
,  // measure 8
0000
0000
0000
0000
,  // measure 9
0000
0000
0000
0000
,  // measure 10
0000
0000
0000
0000
,  // measure 11
0000
0000
0000
0000
,  // measure 12
0001
0000
1000
0100
0000
1000
0000
0010
,  // measure 13
0000
0010
0000
0100
0001
0000
0010
0000
,  // measure 14
0100
0000
1000
0001
0000
0100
0000
0010
,  // measure 15
0000
0010
0000
1000
0100
0000
0100
0000
,  // measure 16
1000
0000
0010
0100
0000
0001
0000
0001
,  // measure 17
0000
1000
0000
0100
1000
0000
0010
0000
,  // measure 18
0100
0000
0001
0010
0000
0100
0000
1000
,  // measure 19
0000
0010
0000
0100
0001
0000
1000
0000
,  // measure 20
0001
0000
0001
0000
1000
0010
0000
0100
,  // measure 21
0000
0001
0000
0010
0100
0000
1000
0000
,  // measure 22
0001
0000
1000
0000
1000
0010
0000
0100
,  // measure 23
0000
0010
0000
1000
0100
0000
1000
0000
,  // measure 24
0001
0000
0001
0000
0100
0010
0000
1000
,  // measure 25
0000
0100
0000
1000
0010
0000
0100
0000
,  // measure 26
0001
0000
0001
0000
1000
0010
0000
0100
,  // measure 27
0000
0001
0000
1000
0100
0000
0010
0000
,  // measure 28
1001
0000
0000
0010
0000
0100
0000
0001
,  // measure 29
0000
0001
0000
1000
0100
0000
1000
0000
,  // measure 30
0010
0000
0100
0001
0000
0100
0000
0010
,  // measure 31
0000
1000
0000
0100
1000
0000
0010
0000
,  // measure 32
0100
0000
0001
0000
0001
1000
0000
0100
,  // measure 33
0000
0100
0000
0010
0001
0000
0100
0000
,  // measure 34
0010
0000
1000
0000
0000
0001
0000
0001
,  // measure 35
0000
0000
0000
0000
1000
0001
1000
0001
,  // measure 36
1000
0000
0000
0010
0000
0100
0000
1001
,  // measure 37
0000
0000
0000
0000
0100
0010
0100
0010
,  // measure 38
0100
0000
0000
1000
0000
0001
0000
0110
,  // measure 39
0000
0001
0000
0000
1000
0000
0100
0000
,  // measure 40
1000
0000
0001
0100
0000
0010
0000
1000
,  // measure 41
0000
0001
0000
0000
1000
0100
1000
0100
,  // measure 42
1000
0000
0001
0100
0000
0010
0000
1000
,  // measure 43
0000
0100
0000
0000
0010
0001
0010
0001
,  // measure 44
0010
0000
0000
0100
0000
0010
0000
1001
,  // measure 45
0000
0000
0000
0000
0001
0100
0001
0100
,  // measure 46
0001
0000
0000
1000
0000
0001
0000
0110
,  // measure 47
0000
0001
0000
0000
1000
0000
0010
0000
,  // measure 48
0100
0000
0001
0010
0000
0100
0000
1000
,  // measure 49
0000
0010
0000
0000
0100
0001
0100
0001
,  // measure 50
0100
0000
0001
0010
0000
0100
0000
1000
,  // measure 51
0000
0001
0000
0000
1000
0010
1000
0020
,  // measure 52
0000
0000
0100
0000
0000
0100
0000
1030
,  // measure 53
0000
0000
0000
0000
0001
0010
0001
0020
,  // measure 54
0000
0000
0100
0000
0000
0100
0000
0031
,  // measure 55
0000
0000
1000
0010
,  // measure 56
0100
0000
0001
1000
0000
0100
0000
0010
,  // measure 57
0000
0000
0000
0000
0001
1000
0001
1000
,  // measure 58
0001
0000
0000
0000
;

//---------------dance-single - ----------------
#NOTES:
     dance-single:
     :
     Easy:
     3:
     0.167,0.191,0.077,0.000,0.000: // measure 1
0000
0000
0000
0000
,  // measure 2
0000
0000
0000
0000
,  // measure 3
0000
0000
0000
0000
,  // measure 4
0000
0000
0000
0000
,  // measure 5
0000
0000
0000
0000
,  // measure 6
0000
0000
0000
0000
,  // measure 7
0000
0000
0000
0000
,  // measure 8
0000
0000
0000
0000
,  // measure 9
0000
0000
0000
0000
,  // measure 10
0000
0000
0000
0000
,  // measure 11
0000
0000
0000
0000
,  // measure 12
1000
0000
0010
0000
,  // measure 13
0100
0000
0001
0001
,  // measure 14
1000
0000
0010
0000
,  // measure 15
0100
0000
0001
0010
,  // measure 16
0001
0000
1000
0000
,  // measure 17
0010
0000
0100
0001
,  // measure 18
0100
0000
0010
0000
,  // measure 19
1000
0000
0001
1000
,  // measure 20
0001
0000
1000
0000
,  // measure 21
0010
0000
0100
0000
,  // measure 22
0001
0001
0000
1000
,  // measure 23
1000
0000
0010
0100
,  // measure 24
0001
0000
1000
0000
,  // measure 25
0100
0000
1000
1000
,  // measure 26
0010
0000
0100
0100
,  // measure 27
0001
0000
0010
0100
,  // measure 28
0010
0000
0001
0000
,  // measure 29
1000
0000
0010
0000
,  // measure 30
0100
0000
0001
1000
,  // measure 31
0001
0000
1000
0000
,  // measure 32
0100
0000
1000
0000
,  // measure 33
0010
0000
0100
0100
,  // measure 34
0001
0000
0000
0000
,  // measure 35
1000
0000
0001
0001
,  // measure 36
1001
0000
0010
0000
,  // measure 37
0100
0000
0010
0010
,  // measure 38
0110
0000
1000
0000
,  // measure 39
0100
0000
1000
0001
,  // measure 40
1000
0000
0010
0000
,  // measure 41
0100
0000
0001
0001
,  // measure 42
1001
0000
1000
0000
,  // measure 43
0100
0000
1000
0001
,  // measure 44
1001
0000
0010
0000
,  // measure 45
0100
0000
0010
0100
,  // measure 46
0110
0000
0001
0000
,  // measure 47
0010
0000
0100
1000
,  // measure 48
0001
0000
1000
0000
,  // measure 49
0010
0000
0100
0100
,  // measure 50
1001
0000
0001
0000
,  // measure 51
1000
0000
0010
0010
,  // measure 52
1001
0000
0100
0000
,  // measure 53
1000
0000
0100
0100
,  // measure 54
1001
0000
0010
0000
,  // measure 55
0100
0000
0001
0000
,  // measure 56
1000
0001
1000
0000
,  // measure 57
0010
0000
0100
0000
,  // measure 58
0001
0000
0000
0000
;
