#TITLE:JIVE INTO THE NIGHT;
#SUBTITLE:;
#ARTIST:GREEN OLIVES;
#TITLETRANSLIT:;
#SUBTITLETRANSLIT:;
#ARTISTTRANSLIT:;
#CREDIT:Xythar;
#BANNER:JIVE INTO THE NIGHT.png;
#BACKGROUND:JIVE INTO THE NIGHT-bg.png;
#LYRICSPATH:;
#CDTITLE:JIVE INTO THE NIGHT-cd.png;
#MUSIC:JIVE INTO THE NIGHT.mp3;
#OFFSET:-2.712;
#SAMPLESTART:49.033;
#SAMPLELENGTH:15.040;
#SELECTABLE:YES;
#BPMS:0.000=127.600;
#STOPS:;
#BGCHANGES:;

//---------------dance-single - ----------------
#NOTES:
     dance-single:
     :
     Hard:
     6:
     0.397,0.384,0.353,0.039,0.015:
0000
0000
0000
0000
,
1000
0010
0100
0010
,
1000
0000
0000
0000
0100
0000
0020
0000
0000
0000
0001
0000
0000
0001
0000
0000
,
0031
0100
0010
0100
,
0001
0000
0000
0000
1000
0000
0200
0000
0000
0000
0010
0000
0000
0010
0000
0000
,
0310
0001
0100
1000
,
0100
0000
0000
0000
0001
0000
0020
0000
0000
0000
1000
0000
0000
0100
0000
0000
,
0031
0100
0010
1000
,
0100
1000
0010
0000
1001
0000
0100
1000
,
0001
0000
0100
0000
0010
0000
1000
0100
,
0001
0000
0100
1000
0000
0010
0100
0000
,
0001
0000
1000
0000
0100
0000
1000
0010
,
0100
0000
1000
0100
0000
0001
0010
0100
,
1000
0000
0010
0000
0100
0000
0001
1000
,
0100
0000
1000
0000
0010
0000
0100
0001
,
1000
0000
0100
0000
0001
0000
0100
1000
,
0020
0000
0100
0000
1030
0000
0001
0010
,
0100
0000
1000
0000
0010
0000
0100
0001
,
0010
0000
1000
0010
0000
0001
0100
0000
,
0010
0000
1000
0000
0100
0000
0001
0100
,
1000
0000
0010
0100
0000
0001
0010
0000
,
1000
0000
0010
0000
0001
0000
0100
0010
,
1000
0000
0100
0000
1000
0000
0010
0010
,
0100
0000
0001
0000
0110
0000
1000
0100
,
0010
0000
0001
0100
,
0011
0000
0101
0000
0011
0000
0100
1000
,
0010
0000
0100
0001
0010
0000
0100
0000
,
1001
0000
0110
0000
1001
0000
0100
0010
,
0001
0000
0100
0010
1000
0000
0001
0000
,
1100
0000
0101
0000
1100
0000
0001
0100
,
1000
0000
1000
0100
0001
0000
0010
0000
,
1100
0010
0101
1001
,
0100
0011
1100
0000
,
0010
0100
0001
0000
0010
0000
1000
0000
,
0010
0001
1000
0001
0100
0000
0010
0000
,
0001
0010
1000
0100
0001
0100
1000
0000
,
0010
0100
0001
0000
0010
0000
1100
0000
,
0010
0100
0010
0100
1000
0100
1000
0100
,
0001
0100
0010
0100
0001
0010
0100
0000
,
1000
0010
0100
1000
0100
0001
0010
0000
,
1000
0010
0001
0000
0110
0000
0000
0000
,
0011
0000
1010
0000
0011
0000
0100
0010
,
1000
0010
0100
0000
1001
0000
0100
0000
,
1010
0000
1100
0000
1010
0000
0100
0001
,
0010
0001
0100
0000
1010
0000
0100
0000
,
1001
0000
0110
0000
1001
0000
0100
1000
,
0010
0100
0001
0010
0000
1000
0010
0001
,
0100
1010
1001
1100
,
0011
1001
0101
0010
,
1001
0000
0000
0000
;

//---------------dance-single - ----------------
#NOTES:
     dance-single:
     :
     Medium:
     4:
     0.296,0.336,0.196,0.000,0.000: // measure 1
0000
0000
0000
0000
,  // measure 2
1000
0001
1000
0000
,  // measure 3
0010
0000
0100
0000
,  // measure 4
0001
0010
0100
0000
,  // measure 5
1000
0100
0001
0000
0100
0000
1001
0000
,  // measure 6
0010
0100
0010
0000
,  // measure 7
1000
0000
0100
1000
,  // measure 8
0010
0000
0100
0000
,  // measure 9
1000
1000
0100
0000
0001
0001
0100
0000
,  // measure 10
1001
0000
0000
0000
0100
0000
1000
0100
,  // measure 11
0001
0100
1000
0010
,  // measure 12
0100
0000
0001
0000
,  // measure 13
1000
0100
0001
0000
0100
0000
0010
0000
,  // measure 14
1100
0000
0010
0000
,  // measure 15
0100
0001
1000
0000
,  // measure 16
1100
0010
0001
0100
,  // measure 17
1001
0000
0000
0000
0100
0000
1000
1000
,  // measure 18
0010
0000
0000
0000
0100
0000
0000
0001
,  // measure 19
1000
0000
1000
0001
0000
0000
0100
0000
,  // measure 20
0010
0000
1000
0100
0001
0000
0000
0000
,  // measure 21
0100
0000
1000
0010
,  // measure 22
0100
0000
0001
1000
0100
0000
0000
0000
,  // measure 23
1000
0000
0010
0100
0001
0000
0000
0000
,  // measure 24
1000
0000
0010
0000
0100
0000
1000
0100
,  // measure 25
0001
0000
1001
0100
,  // measure 26
1000
0010
0101
0000
,  // measure 27
0010
0000
1000
0100
0010
0000
0001
0000
,  // measure 28
0100
0010
1001
0100
,  // measure 29
1000
0000
0001
0000
,  // measure 30
0001
1000
0110
0000
,  // measure 31
0001
0000
1000
0100
0001
0000
0100
0000
,  // measure 32
1001
0010
0100
0001
,  // measure 33
1100
0010
0101
0000
,  // measure 34
1000
0001
0001
0001
,  // measure 35
1000
0100
0001
0000
0100
1000
0010
0000
,  // measure 36
0100
0001
1000
0100
,  // measure 37
1000
0000
0010
0000
0100
0001
1000
0000
,  // measure 38
0001
1000
0001
0000
0100
0010
0100
0000
,  // measure 39
0001
0010
0100
0010
0001
0000
1100
0000
,  // measure 40
0010
0100
0001
0000
0010
0100
1000
0000
,  // measure 41
0001
0100
1000
0000
0100
0000
1001
0000
,  // measure 42
0010
0010
1001
0000
,  // measure 43
0100
0000
1000
0010
0100
0000
0001
0000
,  // measure 44
0010
0010
1001
0100
,  // measure 45
1000
0010
0100
0000
0001
0000
1100
0000
,  // measure 46
0001
0001
0110
0001
,  // measure 47
1000
0100
0010
0000
0001
0000
1000
0000
,  // measure 48
0010
0010
0100
1001
,  // measure 49
0010
0100
0001
1100
,  // measure 50
0001
0000
0000
0000
;

//---------------dance-single - ----------------
#NOTES:
     dance-single:
     :
     Easy:
     2:
     0.193,0.192,0.059,0.000,0.000: // measure 1
0000
0000
0000
0000
,  // measure 2
1000
1000
1000
0000
,  // measure 3
0010
0000
0100
0000
,  // measure 4
0100
0000
0001
0000
,  // measure 5
1000
0000
1000
0000
,  // measure 6
0001
0001
0001
0000
,  // measure 7
0010
0000
0010
0000
,  // measure 8
0100
0000
1000
0000
,  // measure 9
0010
0100
0010
0100
,  // measure 10
0001
0000
1000
0000
,  // measure 11
0100
1000
0010
0000
,  // measure 12
0100
0000
0001
0000
,  // measure 13
1000
0000
1000
0010
,  // measure 14
0100
0000
0001
0000
,  // measure 15
1000
0000
0100
0010
,  // measure 16
0001
1000
0001
0000
,  // measure 17
0100
0000
0010
0000
,  // measure 18
1001
0000
0000
0000
,  // measure 19
0100
0000
1000
0010
,  // measure 20
0100
0000
0000
0000
,  // measure 21
0001
0000
1000
0100
,  // measure 22
0010
0000
0001
0000
,  // measure 23
1000
0000
0010
0000
,  // measure 24
1000
0100
0010
0001
,  // measure 25
1001
0000
0010
1000
,  // measure 26
0001
0001
0001
0000
,  // measure 27
0010
0000
0100
1000
,  // measure 28
0010
0010
0010
0000
,  // measure 29
0100
0000
0001
1000
,  // measure 30
0100
0100
0100
0000
,  // measure 31
0010
0000
0001
0100
,  // measure 32
0010
0000
1000
0000
,  // measure 33
0110
0000
1001
0000
,  // measure 34
0100
1000
0010
0000
,  // measure 35
0100
0001
0010
0000
,  // measure 36
0100
1000
0001
1000
,  // measure 37
0010
0000
0100
0000
,  // measure 38
0001
0010
0001
0010
,  // measure 39
0100
1000
0010
0000
,  // measure 40
0100
0001
1000
0001
,  // measure 41
0010
0000
0100
1000
,  // measure 42
0001
0001
0001
0000
,  // measure 43
0100
0000
0001
1000
,  // measure 44
0100
0100
0100
0000
,  // measure 45
0010
0000
0010
0001
,  // measure 46
1000
1000
1000
0000
,  // measure 47
0010
0000
0100
0001
,  // measure 48
1000
0000
0001
0000
,  // measure 49
1000
0001
1000
1001
,  // measure 50
1001
0000
0000
0000
;
