#TITLE:If You Buy This Record;
#SUBTITLE:;
#ARTIST:The Tamperer feat. Maya;
#TITLETRANSLIT:;
#SUBTITLETRANSLIT:;
#ARTISTTRANSLIT:;
#CREDIT:Xythar;
#BANNER:If You Buy This Record.png;
#BACKGROUND:If You Buy This Record-bg.png;
#LYRICSPATH:If You Buy This Record.lrc;
#CDTITLE:cdtitle.png;
#MUSIC:If You Buy This Record.mp3;
#OFFSET:-0.275;
#SAMPLESTART:60.273;
#SAMPLELENGTH:14.505;
#SELECTABLE:YES;
#BPMS:0.000=132.000;
#STOPS:;
#BGCHANGES:;

//---------------dance-single - ----------------
#NOTES:
     dance-single:
     :
     Hard:
     7:
     0.430,0.398,0.122,0.041,0.000: // measure 1
0000
0000
0000
0000
,  // measure 2
0000
0000
0000
0010
,  // measure 3
0000
0000
0000
0000
,  // measure 4
0000
0000
0000
0000
0000
0000
1000
0001
,  // measure 5
0010
0000
0001
1000
0010
0000
1000
0001
,  // measure 6
0100
0000
0001
1000
0100
0010
0100
0010
,  // measure 7
0001
0000
1000
0010
0100
0000
0001
0100
,  // measure 8
0010
0000
1000
0001
0010
0100
0010
0100
,  // measure 9
1000
0001
0100
0010
1000
0000
0001
0010
,  // measure 10
0100
0000
1000
0010
0100
0001
0100
0001
,  // measure 11
1000
0100
0010
0100
1000
0000
0001
0100
,  // measure 12
0010
0000
0100
0001
1000
0100
1000
0100
,  // measure 13
0010
0001
0100
0010
1000
0000
0100
1000
,  // measure 14
0001
0000
0100
0010
1000
0010
1000
0010
,  // measure 15
1000
0001
0010
0100
1000
0000
0010
0100
,  // measure 16
0001
0000
1000
0000
0100
0010
0001
1000
,  // measure 17
0001
0100
0010
0100
0001
0000
1000
0100
,  // measure 18
1000
0001
0010
0100
,  // measure 19
1000
0010
0100
0010
1000
0000
0001
0100
,  // measure 20
0010
0000
1000
0000
0100
0010
0100
0010
,  // measure 21
0001
0000
1000
0010
0100
0000
0001
1000
,  // measure 22
0100
1000
1010
0101
,  // measure 23
0001
0010
0100
0000
1000
0010
0100
0010
,  // measure 24
1000
0000
0001
0100
0010
0000
1100
0000
,  // measure 25
0010
0000
0001
0000
1000
0001
1000
0000
,  // measure 26
0001
0100
0010
0000
1000
0100
0010
0000
,  // measure 27
0100
1000
0001
1000
0001
0000
0100
0000
,  // measure 28
0010
1000
0100
0000
0010
0001
0100
0000
,  // measure 29
0010
0000
1100
0000
0011
0000
0100
1000
,  // measure 30
0010
0100
0010
0000
0100
0001
1000
0000
,  // measure 31
0100
0010
0001
0010
0100
0000
1010
0000
,  // measure 32
0100
0001
1000
0100
1000
0000
0001
0100
,  // measure 33
0010
1100
0011
1001
,  // measure 34
0010
0100
0001
1000
0100
0000
1000
0001
,  // measure 35
0000
0100
0010
0100
0000
0001
0010
0100
,  // measure 36
0000
1000
0001
0100
0000
0010
1000
0100
,  // measure 37
0000
1000
0010
0100
0001
0000
1100
0000
,  // measure 38
0010
0001
1000
0100
1000
0000
0001
0100
,  // measure 39
0000
0010
1000
0100
0000
0010
0001
1000
,  // measure 40
0000
0100
1000
0001
0000
0100
0010
1000
,  // measure 41
0100
0011
1100
1001
,  // measure 42
1000
0010
0100
0010
1000
0100
0010
0001
,  // measure 43
0000
1000
0001
0100
0001
0010
0100
1000
,  // measure 44
0000
0010
0100
1000
0100
0001
1000
0010
,  // measure 45
0200
1000
0010
0301
,  // measure 46
1000
0010
0100
0001
0100
0010
1000
0100
,  // measure 47
0000
0010
0001
1000
0100
1000
0001
1000
,  // measure 48
0000
0010
0100
0001
1000
0100
0010
0001
,  // measure 49
2000
0010
0001
3100
,  // measure 50
1000
0010
0100
0001
1000
0000
0100
0010
,  // measure 51
0001
0100
1010
0001
,  // measure 52
0010
0100
1000
0010
0100
0000
0001
0100
,  // measure 53
0020
0001
0100
1030
,  // measure 54
0001
0010
0100
1000
0001
0000
0100
0010
,  // measure 55
0100
0001
1000
0000
0100
0000
0011
0000
,  // measure 56
0010
0001
0100
0010
0100
0000
0010
1000
,  // measure 57
0002
0100
1000
0013
,  // measure 58
0100
0000
1000
0000
,  // measure 59
0010
0100
0001
0000
1000
0000
0000
0000
,  // measure 60
0100
0000
0010
0000
,  // measure 61
0001
1000
0100
0000
1000
0000
0000
0000
,  // measure 62
0010
0000
0100
0000
,  // measure 63
0001
0010
0100
0000
1000
0000
0000
0000
,  // measure 64
0010
0000
0000
0000
0100
0000
0001
1000
,  // measure 65
0200
0000
0000
0000
,  // measure 66
0310
0000
0000
0000
;

//---------------dance-single - ----------------
#NOTES:
     dance-single:
     :
     Medium:
     6:
     0.371,0.345,0.139,0.000,0.000:
0000
0000
0000
0000
,
0000
0000
0000
1000
,
0000
0000
0000
0000
,
0000
0000
0000
0001
,
1000
0010
0100
0001
,
0100
0000
0010
0000
1000
0001
1000
0000
,
0100
0010
0001
1000
,
0010
0000
0100
0000
0001
0100
0001
0000
,
1000
0000
0100
0010
0100
0000
0010
0001
,
0010
0000
0001
0000
1000
0010
0100
0000
,
0001
0000
0100
0010
0100
0000
0010
1000
,
0010
0000
1000
0000
0100
0010
0100
0000
,
0010
0000
0001
0010
0001
0000
1000
0001
,
1000
0000
0010
0000
0100
0001
0100
0000
,
0001
0010
0100
1000
,
0010
0000
0100
0000
0001
0100
0001
0100
,
0001
0000
1000
0010
0000
0100
0000
0001
,
0100
0010
0100
0000
0001
0000
1001
0000
,
0100
0000
0010
0001
0000
1000
0000
0010
,
0100
0010
1000
0000
0100
0000
0011
0000
,
0100
0000
1000
0001
0000
0100
0000
0010
,
1000
0001
1000
0000
0010
0000
0101
0000
,
0010
0000
1000
0100
0000
0010
0001
1000
,
0001
0100
0010
1001
,
0100
0000
0010
0000
0100
0001
1000
0000
,
0100
0010
0001
0100
,
1000
0000
0100
0000
0001
0000
1000
0100
,
0010
0001
0100
0010
,
1000
0000
0101
0000
1000
0000
0100
0010
,
0001
1000
0010
0100
,
1000
0000
0100
0000
0001
0000
1000
0001
,
1000
0000
0010
0000
0100
0000
0010
1000
,
0100
0010
0001
1001
,
1000
0000
0010
0000
0100
0000
0001
0100
,
0000
0010
1000
0010
0000
0000
1000
0100
,
0000
0010
0001
0010
0000
0000
0100
1000
,
0000
0001
0100
0001
0000
0000
1000
0000
,
0001
0000
0010
0000
0100
0000
1000
0001
,
0000
0100
0010
0100
0000
0001
0000
0010
,
0000
0100
0000
1000
0000
0001
1000
0001
,
1000
0010
0100
1001
,
0100
0010
0100
0000
0010
0001
1000
0000
,
0010
0100
0010
0000
0100
0001
1000
0000
,
0001
0010
0100
0000
1000
0010
0100
0000
,
0001
1000
1100
0101
,
1000
0010
0100
0000
0001
1000
0100
0000
,
0010
0001
0100
0000
0010
1000
0100
0000
,
0010
0100
0010
0000
0001
1000
0001
0000
,
1000
0001
1010
0011
,
0100
0000
1000
0001
0000
0100
0000
0010
,
0100
0010
1000
0000
0100
0000
0011
0000
,
0100
0000
1000
0001
0000
0100
0000
0010
,
1000
0010
0100
0000
0001
0000
1100
0000
,
0010
0000
0001
1000
0000
0100
0000
0010
,
0001
0010
0100
0000
1000
0000
0101
0000
,
1000
0000
0010
0100
0000
0001
0010
0100
,
1000
0010
0101
1100
,
1000
0010
0100
0000
0001
0000
1000
0000
,
0100
0010
0100
0000
0010
0000
0000
0000
,
0001
0100
0001
0000
1000
0000
0010
0000
,
0100
0001
1000
0000
,
0100
0010
0100
0000
0010
0000
0001
0000
,
1000
0010
0100
0000
1001
0000
0100
0000
,
0010
0000
0001
1000
0001
0000
1000
0010
,
0100
0000
0000
0000
,
0001
0000
0000
0000
;

//---------------dance-single - ----------------
#NOTES:
     dance-single:
     :
     Easy:
     3:
     0.210,0.239,0.033,0.000,0.000:
0000
0000
0000
0000
,
0000
0000
0000
0001
,
0000
0000
0000
0000
,
0000
0000
0000
1000
,
0000
0001
0000
1000
,
0000
0010
0100
0100
,
0010
0000
1000
0000
,
0001
0010
0100
0100
,
0010
0000
0010
0000
,
0010
0000
0001
0001
,
1000
0000
0010
0000
,
0100
0000
0001
0001
,
1000
0000
0100
0000
,
0010
0000
0100
0100
,
1000
0000
0010
0000
,
0100
0100
0100
0001
,
1001
1000
0100
0000
,
1000
0010
0100
0000
,
0001
0010
0100
0000
,
1000
0001
1000
0000
,
0010
0100
0001
0000
,
1000
0100
1000
0000
,
0001
0010
0001
1000
,
0010
0000
0010
0000
,
1000
1000
0001
0001
,
1000
0000
0100
0000
,
0010
0001
0010
0000
,
0100
0000
1000
0000
,
0010
0000
0100
0100
,
0001
0000
1000
0000
,
0001
0010
0100
0000
,
0010
0000
0001
0000
,
0100
0100
0100
0110
,
0010
1000
0001
0000
,
1000
0000
0100
0000
,
0010
0000
0001
0000
,
1000
0000
0010
0100
,
0100
0000
0001
0000
,
1000
0000
0100
0000
,
0010
0001
1000
0001
,
1000
1000
0010
0010
,
0110
1000
0100
0010
,
0000
0010
0001
1000
,
0000
0010
0100
0001
,
1000
1000
0001
0001
,
0100
0010
1000
0000
,
0100
0010
0001
0000
,
1000
0010
0100
0001
,
1000
1000
0100
0100
,
0010
0000
0001
0000
,
1000
0010
0100
0000
,
0001
0000
1000
0000
,
0100
0010
0001
0000
,
1000
0000
0010
0000
,
0100
0001
1000
0000
,
0001
0000
0010
0100
,
1000
0010
0010
0110
,
0001
0000
0010
0000
,
0100
1000
0010
0000
,
0100
0000
0001
0000
,
1000
0100
0010
0000
,
0001
0000
1000
0000
,
0010
0100
0010
0000
,
1000
0000
0100
0010
,
0001
0000
1000
0000
,
0001
0000
0000
0000
;
