#TITLE:Ievan Polkka;
#SUBTITLE:(Cursed Remix);
#ARTIST:Otomania / remixed by pupupipu;
#TITLETRANSLIT:;
#SUBTITLETRANSLIT:;
#ARTISTTRANSLIT:;
#CREDIT:Xythar;
#BANNER:Ievan Polkka (Cursed Remix) bn.png;
#BACKGROUND:Ievan Polkka (Cursed Remix) bg.png;
#LYRICSPATH:;
#CDTITLE:nicovideo.png;
#MUSIC:Ievan Polkka (Cursed Remix).ogg;
#OFFSET:0.833;
#SAMPLESTART:17.104;
#SAMPLELENGTH:16.140;
#SELECTABLE:YES;
#DISPLAYBPM:*;
#BPMS:0.000=119.000,131.000=238.000,191.000=119.000,222.125=-119.000,230.125=119.000,238.250=-119.000,246.250=119.000,254.667=-119.000,262.667=119.000,270.833=-119.000,278.833=119.000,287.125=-119.000,295.125=119.000,303.375=-119.000,311.375=119.000;
#STOPS:34.000=0.504
,191.000=0.504
;
#BGCHANGES:1.644=Ievan Polkka (Cursed Remix).avi=1.000=0=1=0,
99999=-nosongbg-=1.000=0=0=0 // don't automatically add -songbackground-
;

//---------------dance-single - ----------------
#NOTES:
     dance-single:
     :
     Hard:
     8:
     0.589,0.695,0.077,0.000,0.149: // measure 1
0000
0000
0000
0000
,  // measure 2
0000
0000
0000
0000
,  // measure 3
0000
0000
0000
0000
,  // measure 4
0000
0000
0000
0000
,  // measure 5
0000
0000
0000
0000
,  // measure 6
1000
0000
0100
0000
1000
0000
0001
0100
,  // measure 7
0010
0000
1000
0000
0001
0000
1000
0001
,  // measure 8
0010
0000
0100
0000
0010
0000
0001
1000
,  // measure 9
0100
0000
1000
0000
0001
0000
1000
0010
,  // measure 10
1000
0000
0001
0010
0001
1000
1000
0010
,  // measure 11
1000
0001
0010
0100
1000
0001
1000
1000
,  // measure 12
0010
0000
0000
0100
0001
0000
0100
0001
0000
0000
1000
0000
0001
0000
0001
0000
,  // measure 13
1000
0000
0010
0000
1000
0000
0001
0000
1000
0000
0001
1000
0001
0000
0100
0000
,  // measure 14
0010
0000
1000
0000
0100
0000
1000
0010
0000
0000
0100
0000
0001
0000
0001
0000
,  // measure 15
0010
0000
0001
0000
1000
0000
0001
1000
0000
0000
0000
0001
0100
0000
0010
0000
,  // measure 16
1000
0100
1000
0010
1000
0001
0001
0010
,  // measure 17
0100
1000
0010
0000
0000
0000
1000
0100
,  // measure 18
1000
0000
0001
0100
0010
0100
0001
0001
,  // measure 19
1000
1000
0001
1000
0001
0010
0100
1000
,  // measure 20
0010
0000
0000
0100
0001
0000
0100
0001
0000
0000
1000
0000
0001
0000
0001
0000
,  // measure 21
0001
0000
0100
0000
0010
0000
1000
0000
1000
0000
0001
0010
0001
0000
1000
0000
,  // measure 22
0010
1000
0001
1000
1000
0001
0100
0100
,  // measure 23
0100
0000
0010
0000
1000
0000
0001
1000
0000
0000
0000
0001
0010
0000
0001
0000
,  // measure 24
1000
0010
1000
0001
0100
1000
0100
0100
,  // measure 25
0001
0000
0010
0000
0001
0000
1000
0010
0000
0000
0000
0000
1000
0000
0000
0000
,  // measure 26
0010
0000
1000
0001
0001
0000
0010
0001
,  // measure 27
0001
0000
0100
0010
0100
0000
0001
1000
,  // measure 28
0001
0000
0000
0000
1000
0000
0000
1000
0000
0000
1000
0000
0001
0000
0001
0000
,  // measure 29
0100
0010
0100
0001
1000
0000
0001
0000
,  // measure 30
1100
0000
0001
0000
1000
0100
1000
0000
,  // measure 31
0011
0000
0100
0000
1000
0001
0010
0000
,  // measure 32
0001
0000
1100
0000
0001
0100
0001
0000
,  // measure 33
1000
0000
0000
0000
0001
0000
0000
0000
0110
0000
0000
0001
0100
0000
0000
0000
,  // measure 34
0010
0000
1000
0000
0001
1000
0001
1000
,  // measure 35
0010
0000
0100
0000
0001
0010
0001
0000
,  // measure 36
1000
0000
0010
0000
0100
0000
0001
0100
,  // measure 37
0001
0000
1000
0000
0001
0010
0001
0000
,  // measure 38
1000
0000
0010
0000
0100
0001
0100
0000
,  // measure 39
0010
1000
0000
0010
1000
0010
1000
0100
,  // measure 40
1000
0100
0010
0001
0010
0001
1000
0010
,  // measure 41
1000
0001
1000
0000
0001
0100
0001
0000
,  // measure 42
0010
1001
0100
1001
,  // measure 43
0100
1000
0001
0000
1000
0010
1000
0010
,  // measure 44
0100
0001
0100
0001
1000
0001
0010
0000
,  // measure 45
0100
1000
0001
0000
1000
0000
0101
0000
,  // measure 46
0010
1001
0100
1001
,  // measure 47
0010
0001
1000
0000
0001
1000
0010
1000
,  // measure 48
0010
1000
0001
0000
0010
0000
1001
0000
,  // measure 49
1000
0010
0010
0000
1000
0001
1000
0001
,  // measure 50
0010
0001
1000
0001
1000
0010
0010
0100
,  // measure 51
0001
0000
1000
0000
0001
0000
0000
1000
0010
0000
1000
0001
0000
0000
1000
0000
,  // measure 52
0001
0000
0001
0000
0001
0000
0010
0000
0100
0000
1000
0000
0010
0000
0100
0001
,  // measure 53
0100
0000
0001
0000
1000
0000
0100
0000
1000
0000
0001
0100
0000
0000
0010
0000
,  // measure 54
0100
0000
0001
0000
1000
0000
0100
0000
1000
0000
0001
0100
0000
0000
0010
0000
,  // measure 55
0100
0001
1000
0010
0100
0001
1000
0010
,  // measure 56
0100
0000
0001
0000
1000
0000
0001
0000
0100
0000
0001
0000
0100
0001
0100
0000
,  // measure 57
0010
1000
1000
0000
0001
0010
0001
1000
,  // measure 58
0010
0000
0000
0000
,  // measure 59
0000
0000
0000
0000
,  // measure 60
0000
0000
0000
0000
0000
0000
MMM0
0000
M00M
0000
M00M
0000
M10M
0001
MMM0
0000
,  // measure 61
0010
1000
1000
0000
0001
0010
0001
1000
,  // measure 62
0010
0000
0000
0000
,  // measure 63
0000
0000
0000
0000
,  // measure 64
0000
0000
0000
0000
0000
0000
0000
0000
0000
0000
0001
0000
0100
0001
0100
0000
,  // measure 65
0010
1000
1000
0000
0001
0010
0001
1000
,  // measure 66
0010
0000
0000
0000
,  // measure 67
0000
0000
0000
0000
,  // measure 68
0000
0000
0000
0000
0000
0000
0000
0000
0000
0000
MMMM
0000
0MM0
0001
0MM0
0000
,  // measure 69
0MM0
MMMM
1000
0000
0001
0010
0001
1000
,  // measure 70
0010
1000
0001
1000
1000
0000
0000
0000
,  // measure 71
0000
0000
0000
0000
,  // measure 72
0000
0000
0000
0000
0000
0000
0000
0000
0000
0000
0000
0000
0100
0001
0100
0000
,  // measure 73
0010
1000
1000
0000
0001
0010
0001
1000
,  // measure 74
0010
1000
0001
1000
1000
0000
0000
0000
,  // measure 75
0000
0000
0000
0000
,  // measure 76
0000
0000
0000
0000
0000
0000
0000
0000
0000
0000
0000
0000
0000
0000
0000
0000
0000
0000
0000
0000
0000
0000
0000
MMMM
0000
0000
0001
0000
MM00
0000
0000
0000
,  // measure 77
MMMM
MM00
MMMM
0000
0001
0010
0001
1000
,  // measure 78
0010
1000
0001
1000
1000
0000
0000
0000
,  // measure 79
0000
0000
0000
0000
,  // measure 80
0000
0000
0000
0000
0000
0000
0000
0100
,  // measure 81
0010
1000
1000
0000
0001
0010
0001
1000
,  // measure 82
0010
1000
0001
1000
1000
0001
1000
0001
,  // measure 83
0010
0000
0001
0000
1000
0000
0000
0001
0100
0000
0001
1000
0000
0000
0001
0000
,  // measure 84
0010
0000
0010
0000
0001
0000
1000
0000
0010
0000
1000
0000
1000
0000
0001
0010
,  // measure 85
0001
1000
0010
1000
0001
0010
0010
1000
,  // measure 86
0010
0000
0010
0000
0001
0000
1000
0000
0001
0000
1000
0010
0000
0000
0000
0100
,  // measure 87
0001
1000
0001
1000
0100
1000
0010
0010
,  // measure 88
0001
0001
0010
1000
0001
0000
0000
0000
,  // measure 89
1000
0010
0010
0000
1000
0100
0100
0000
,  // measure 90
0010
0001
0010
0001
1000
0010
0010
0000
,  // measure 91
0100
0000
0001
0000
1000
0000
0000
0001
1000
0000
0001
1000
0000
0000
0001
0000
,  // measure 92
0010
0000
0010
0000
0001
0000
0100
0000
1000
0000
0100
0000
0001
0000
1000
0100
,  // measure 93
1000
0000
0001
0000
0100
0000
0010
0000
1000
0000
0001
1000
0000
0000
0001
0100
,  // measure 94
0001
0000
0001
0000
1000
0000
1000
0000
0010
0000
0100
0001
0100
0000
0000
0001
,  // measure 95
0010
0000
0100
0000
1000
0000
0010
0000
1000
0000
0001
1000
0001
0000
1000
0000
,  // measure 96
0100
0100
0010
0001
1000
0000
0000
0000
;
