#TITLE:I'm Gonna SCREAM+;
#SUBTITLE:;
#ARTIST:Tommy heavenly6;
#TITLETRANSLIT:;
#SUBTITLETRANSLIT:;
#ARTISTTRANSLIT:;
#CREDIT:Xythar;
#BANNER:I'm Gonna SCREAM+.png;
#BACKGROUND:I'm Gonna SCREAM+-bg.png;
#LYRICSPATH:I'm Gonna SCREAM+.lrc;
#CDTITLE:Tommy CDTitle.png;
#MUSIC:I'm Gonna SCREAM+.mp3;
#OFFSET:-3.276;
#SAMPLESTART:60.186;
#SAMPLELENGTH:16.266;
#SELECTABLE:YES;
#BPMS:0.000=118.000;
#STOPS:;
#BGCHANGES:-10.246=I'm Gonna SCREAM+-leadin.avi=1.000=0=0=1,
14.000=I'm Gonna SCREAM+-bg.png=1.000=0=0=1,
16.000=I'm Gonna SCREAM+.avi=1.000=0=0=0,
275.000=I'm Gonna SCREAM+-eg.jpg=1.000=1=0=1,
99999=-nosongbg-=1.000=0=0=0 // don't automatically add -songbackground-
;

//---------------dance-single - ----------------
#NOTES:
     dance-single:
     :
     Hard:
     7:
     0.399,0.428,0.139,0.042,0.108: // measure 1
0000
0000
0000
0000
,  // measure 2
0000
0000
0000
0000
,  // measure 3
0000
0000
0000
0000
,  // measure 4
0000
0000
0000
0000
,  // measure 5
0010
0000
0000
0100
0000
0100
0001
0000
0000
1000
0000
1000
0100
0000
0000
0010
,  // measure 6
0000
0010
0100
0000
1000
0000
0000
0001
0000
0001
0100
0000
0010
0000
0000
0000
,  // measure 7
0100
0000
0000
0001
0000
0001
1000
0000
0000
0100
0000
0100
0010
0000
0000
0100
,  // measure 8
0000
0100
1000
0000
0001
0000
0000
1000
0000
1000
0010
0000
0100
0000
0010
0000
,  // measure 9
1000
0000
0000
0100
0000
0010
0001
0000
0000
0100
0000
1000
0010
0000
0000
0100
,  // measure 10
0000
0001
1000
0000
0010
0000
0000
1000
0000
0100
0010
0000
0001
0000
0000
0000
,  // measure 11
1000
0000
0000
0010
0000
0100
1000
0000
0000
0100
0000
0010
0100
0000
0000
0001
,  // measure 12
0000
1000
0001
0000
1000
0000
0000
0100
0000
0000
0010
0000
0001
0000
1000
0000
,  // measure 13
0001
0000
0001
0000
0001
0000
1000
0010
,  // measure 14
0100
0000
0001
1000
0100
0000
0011
0000
,  // measure 15
0100
1000
0001
1000
0010
0000
0100
0000
,  // measure 16
0001
0000
1000
0100
0000
1000
0001
0100
,  // measure 17
0010
0000
1000
0001
0010
0000
0100
1000
,  // measure 18
0001
0000
0100
0010
0100
0000
1001
0000
,  // measure 19
0010
0100
1000
0010
0100
0000
0001
1000
,  // measure 20
0100
0000
1000
0001
0000
0001
1000
0000
,  // measure 21
0001
0000
0000
1000
0010
0000
0010
0100
,  // measure 22
0001
0000
1000
0100
1000
0000
0101
0000
,  // measure 23
0010
0000
0000
1000
0100
0010
0001
0100
,  // measure 24
0010
0000
0100
0001
1000
0000
0100
0000
,  // measure 25
0010
0000
0001
0100
1000
0000
1000
0100
,  // measure 26
0001
0000
0010
0001
1000
0000
0110
0000
,  // measure 27
0001
0000
1000
0000
0100
0010
0100
0010
,  // measure 28
0011
0000
1100
0000
0001
0100
0010
1000
,  // measure 29
1001
0000
0100
1000
0001
0100
0010
0100
,  // measure 30
0000
0001
0001
1000
0100
1000
0001
0001
,  // measure 31
1001
0000
0010
0100
0001
1000
0100
0010
,  // measure 32
0000
0100
0100
1000
1000
0001
1000
0001
,  // measure 33
1000
0010
0001
0010
1000
0100
0001
0100
,  // measure 34
1000
0000
0010
0100
0001
0000
1100
0000
,  // measure 35
0010
1000
0001
1000
0100
1000
0001
1000
,  // measure 36
0010
0000
0100
0000
0001
0010
0100
1000
,  // measure 37
1001
0000
0010
0100
0101
0000
0010
1000
,  // measure 38
0001
0010
0100
1000
0010
0100
0001
1000
,  // measure 39
1100
0000
0010
0100
0101
0000
0010
1000
,  // measure 40
0001
1000
0010
0100
0001
0010
0100
1000
,  // measure 41
0001
0100
0010
1000
0001
0010
0100
1000
,  // measure 42
0001
0000
1000
0100
1000
0000
0011
0000
,  // measure 43
0100
1000
0010
1000
0100
1000
0010
0100
,  // measure 44
0001
0000
1100
0000
0010
0100
0001
0100
,  // measure 45
0010
1000
1000
0001
1000
1000
0100
1000
,  // measure 46
1000
0010
0100
0001
1001
0000
0000
0000
,  // measure 47
0002
0000
0000
1000
0000
0000
0100
0000
,  // measure 48
2003
0000
0000
0100
0000
0000
0010
0000
,  // measure 49
3200
0000
0000
0010
0000
0000
1000
0000
,  // measure 50
0320
0000
0000
0100
0000
0001
0001
0001
,  // measure 51
0031
0000
1000
0100
0010
0000
0001
0100
,  // measure 52
0020
0000
0000
0100
0000
0000
0130
0001
,  // measure 53
1000
0000
0100
0010
0000
0100
1000
0001
,  // measure 54
1000
0010
0010
0000
0100
0001
0100
0001
,  // measure 55
1001
0000
0010
0100
1000
0000
0010
0100
,  // measure 56
0001
0000
0010
0100
0001
0100
0010
1000
,  // measure 57
1100
0000
0010
0001
1000
0000
0010
1000
,  // measure 58
0001
0000
0010
1000
0001
1000
0100
0010
,  // measure 59
0001
0100
0010
1000
0100
0001
0100
1000
,  // measure 60
0001
0000
1000
0010
0100
0000
1001
0000
,  // measure 61
0010
0100
0001
0100
1000
0100
0010
0100
,  // measure 62
0001
0000
1001
0000
0010
0100
1000
0010
,  // measure 63
0100
1000
1000
0100
0001
0001
1000
0100
,  // measure 64
0100
0010
0001
1000
0200
0000
0000
0000
,  // measure 65
0000
0000
0000
0000
,  // measure 66
0000
0000
0000
0000
,  // measure 67
0000
0000
0000
0000
,  // measure 68
0000
0000
0000
0000
,  // measure 69
0000
0000
0000
0300
0000
0000
0000
0000
;

//---------------dance-single - ----------------
#NOTES:
     dance-single:
     :
     Medium:
     6:
     0.306,0.333,0.056,0.007,0.056:
0000
0000
0000
0000
,
0000
0000
0000
0000
,
0000
0000
0000
0000
,
0000
0000
0000
0000
,
1000
0000
0000
0010
0000
0000
1000
0000
0000
0001
0000
0000
1000
0000
0000
0100
,
0000
0000
0010
0000
0001
0000
0000
0100
0000
0000
0010
0000
1000
0000
0000
0000
,
0001
0000
0000
0010
0000
0000
0100
0000
0000
1000
0000
0000
0010
0000
0000
0100
,
0000
0000
0010
0000
1000
0000
0000
0001
0000
0000
1000
0000
0100
0000
0010
0000
,
0001
0000
0000
1000
0000
0000
0010
0000
0000
1000
0000
0000
0001
0000
0000
1000
,
0000
0000
0100
0000
0010
0000
0000
0001
0000
0000
0100
0000
0010
0000
0000
0000
,
0100
0000
0000
0001
0000
0000
1000
0000
0000
0100
0000
0000
1000
0000
0000
0010
,
0000
0000
0100
0000
0001
0000
0000
1000
0000
0000
0001
0000
0010
0000
0100
0000
,
1000
1000
1000
1000
,
0001
0001
0001
1001
,
1000
0000
0100
0010
0100
0000
0010
0000
,
0001
0000
0100
0010
0100
0000
0001
0000
,
1000
0000
0010
0010
,
0010
0100
0100
0110
,
0100
0000
0001
1000
0001
0000
1000
0000
,
0001
0000
1000
0001
1000
0000
1000
0000
,
0100
0000
0000
0100
0010
0000
0100
1000
,
0001
0100
0010
0110
,
1000
0000
0100
0000
0010
0000
0001
1000
,
0010
0100
0001
0010
,
0100
0000
1000
0001
,
0100
0000
0001
1100
,
0001
0000
0000
0000
0010
0000
0100
1000
,
0001
0000
0001
0000
1000
0001
1000
0001
,
1000
0000
0010
0100
0001
0000
1000
0000
,
0100
1000
0001
0000
0100
0001
1000
0000
,
1100
0000
0010
0001
1000
0000
0010
0000
,
1000
0001
0010
0000
0100
1000
0001
1000
,
0100
0000
0010
0000
0001
0000
0100
0010
,
1000
0000
0000
0001
0010
0000
0011
0000
,
0100
0000
1000
0000
0010
0000
0100
0001
,
1000
0000
0001
0000
0001
1000
0001
1000
,
0001
0000
1000
0010
0100
0000
0000
0000
,
0001
0010
0100
1000
,
1001
0000
0010
0100
0001
0000
0000
0000
,
1000
0100
0010
0001
,
1000
0010
0100
0000
0010
1000
0001
1000
,
0100
0000
1000
0001
1000
0000
1001
0000
,
0010
0100
0001
0000
0010
1000
0001
1000
,
0100
0000
0010
0000
0010
0001
0010
0001
,
1000
0010
0000
0100
0001
0000
1000
0100
,
0000
0010
0001
1000
0001
0000
0000
0000
,
1000
0000
0000
1000
0000
0000
0010
0000
,
0100
0000
0000
0100
0000
0000
0100
0000
,
0001
0000
0000
0010
0000
0000
0100
0000
,
1000
0000
0000
0001
0000
1000
0001
1000
,
0010
0000
0100
0010
0000
0100
0001
0000
,
1000
0000
0000
0100
0000
1000
0001
0000
,
0010
0000
0100
1000
0000
0001
0100
0001
,
1000
0000
0100
0000
1000
0001
1000
0001
,
1000
0000
0010
0100
0001
0000
0100
0010
,
1000
0000
0001
0010
0100
0000
1000
0000
,
0001
0000
1000
0010
0100
0000
0001
0010
,
0100
0000
1000
0001
0100
0000
0010
0000
,
1000
0000
0100
0000
0010
0000
0001
0100
,
0010
0000
0000
0100
0001
1000
0001
0000
,
0010
0000
0100
0000
1000
0000
0010
0100
,
0001
0000
1000
0000
0100
1000
0001
0000
,
1000
0010
0100
0010
0100
0001
0010
0001
,
1000
0100
1000
0001
2000
0000
0000
0000
,
0000
0000
0000
0000
,
0000
0000
0000
0000
,
0000
0000
0000
0000
,
0000
0000
0000
0000
,
0000
0000
0000
3000
0000
0000
0000
0000
;

//---------------dance-single - ----------------
#NOTES:
     dance-single:
     :
     Easy:
     3:
     0.186,0.238,0.035,0.007,0.000:
0000
0000
0000
0000
,
0000
0000
0000
0000
,
0000
0000
0000
0000
,
0000
0000
0000
0000
,
1000
0100
0010
0001
,
1000
0010
0100
0010
,
0100
0001
0010
0100
,
1000
0001
1000
0001
,
1000
0010
0100
0010
,
1000
0100
0010
0001
,
1000
0010
0100
0010
,
1000
0100
1000
0001
,
1000
0000
0000
0000
,
0001
0000
0000
0100
,
0010
0000
0100
0000
,
0001
0000
0000
0010
,
0100
0000
1000
0000
,
0001
0000
0100
0010
,
0100
0000
0001
0000
,
0010
0000
0100
0000
,
1000
0000
0000
0000
,
0001
0000
0000
1000
,
0001
0000
0000
1000
,
0100
0000
1000
0000
,
0010
0000
0000
0100
,
0001
0000
0000
0100
,
0010
0000
1000
0100
,
0010
0010
0001
0001
,
1001
0010
0010
0000
,
0100
0001
1000
0100
,
1001
0010
0100
0000
,
0001
0010
0100
1000
,
0010
0100
0100
0010
,
0100
0000
0001
1000
,
0100
0010
0010
0100
,
0010
0001
0001
1000
,
1001
0010
0100
0000
,
0010
1000
0100
0010
,
0110
0100
1000
0000
,
0001
0100
0010
1000
,
0100
0010
0001
0100
,
0010
0000
0100
0001
,
1000
0100
1000
0010
,
0100
0001
0010
0100
,
1000
1000
0001
0001
,
1000
1000
1001
0000
,
0010
0000
0000
0000
,
0100
0000
0000
0000
,
0001
0000
0000
0000
,
1000
0000
0000
0000
,
0100
1000
0001
1000
,
0010
0000
0000
0000
,
0100
0001
1000
0100
,
1000
0000
0001
0001
,
0001
0000
1000
0000
,
0010
0000
0100
0001
,
1000
1000
1000
0100
,
0100
0010
0010
0010
,
0001
1000
0010
0100
,
0010
0000
0100
0001
,
1000
0100
0010
0001
,
0100
0000
0010
0100
,
0001
0001
0001
0001
,
1000
1000
2000
0000
,
0000
0000
0000
0000
,
0000
0000
0000
0000
,
0000
0000
0000
0000
,
0000
0000
0000
0000
,
0000
0000
0000
3000
0000
0000
0000
0000
;

//---------------dance-single - ----------------
#NOTES:
     dance-single:
     :
     Beginner:
     1:
     0.105,0.132,0.000,0.000,0.000:
0000
0000
0000
0000
,
0000
0000
0000
0000
,
0000
0000
0000
0000
,
0000
0000
0000
0000
,
0001
0000
0000
0000
,
0100
0000
0000
0000
,
0010
0000
0000
0000
,
1000
0000
0100
0000
,
0100
0000
0000
0000
,
0010
0000
0000
0000
,
0001
0000
0000
0000
,
1000
1000
0000
0000
,
0001
0000
0000
0000
,
0100
0000
0000
0000
,
0010
0000
0000
0000
,
1000
0000
0000
0000
,
0100
0000
0000
0000
,
1000
0000
0000
0000
,
0001
0000
0000
0000
,
0100
0000
0000
0000
,
0010
0000
0000
0000
,
1000
0000
0000
0000
,
0100
0000
0000
0000
,
1000
0000
0000
0000
,
0001
0000
0000
0000
,
1000
0000
0010
0000
,
0100
0000
0000
0000
,
0001
0001
0001
0000
,
1000
1000
1000
0000
,
0100
0000
0010
0000
,
0001
0001
0001
0000
,
1000
0000
0010
0000
,
0100
0000
0010
0000
,
0100
0000
0001
0001
,
0001
0000
1000
0000
,
0100
0000
0010
0010
,
0010
0000
0001
0000
,
1000
0000
0010
0000
,
0100
0100
0100
0000
,
0001
0000
1000
0000
,
0100
0000
1000
0000
,
0010
0000
0100
0000
,
0001
0000
1000
0000
,
0100
0000
0010
0010
,
0010
0000
0001
0000
,
1000
0000
0001
0000
,
1000
0000
0000
0000
,
0010
0000
0000
0000
,
0100
0000
0000
0000
,
0010
0000
0000
0000
,
1000
0000
0100
0000
,
0010
0000
0001
0000
,
1000
0000
0010
0000
,
0100
0000
0001
0001
,
0001
0000
1000
0000
,
0001
0000
0010
0000
,
0100
0000
1000
0000
,
0010
0000
0100
0000
,
0001
0000
1000
0000
,
0001
0000
1000
1000
,
1000
0000
0100
0000
,
0010
0000
0001
0000
,
1000
1000
1000
0000
,
0000
0001
0001
0000
;
