#TITLE:I can fly, I've got reason;
#SUBTITLE:;
#ARTIST:Yu Takami;
#TITLETRANSLIT:;
#SUBTITLETRANSLIT:;
#ARTISTTRANSLIT:;
#CREDIT:Xythar;
#BANNER:I can fly, I've got reason.png;
#BACKGROUND:I can fly, I've got reason-bg.png;
#LYRICSPATH:;
#CDTITLE:bmiidx.png;
#MUSIC:I can fly, I've got reason.mp3;
#OFFSET:-10.691;
#SAMPLESTART:56.350;
#SAMPLELENGTH:10.900;
#SELECTABLE:YES;
#BPMS:0.000=88.000;
#STOPS:;
#BGCHANGES:;

//---------------dance-single - ----------------
#NOTES:
     dance-single:
     :
     Hard:
     9:
     0.446,0.514,0.131,0.066,0.586: // measure 1
0000
0000
0000
0000
,  // measure 2
1000
0000
1000
0000
0100
0000
0000
1000
0000
0001
0100
0000
0010
0000
0000
0000
,  // measure 3
0100
0000
0100
0000
0001
0000
0000
1000
0000
0100
1000
0000
0010
0000
0000
1000
,  // measure 4
0100
0000
0100
0000
0000
0100
0000
0000
0020
0000
0001
0000
0031
0000
0100
0010
,  // measure 5
0100
0000
0001
0000
0000
0001
0000
0000
1000
0100
1000
0000
0001
0000
1000
0000
,  // measure 6
0100
0000
0100
0000
1000
0001
0000
0100
0000
0010
0100
0000
0001
0000
0000
1000
,  // measure 7
0100
0000
0100
0000
0010
0100
0000
0010
0000
0001
0100
0000
0010
0000
0000
1000
,  // measure 8
0100
0000
1000
0000
0000
1000
0000
0000
0002
0000
1000
0000
1003
0000
0000
0010
,  // measure 9
0100
0000
0001
0000
0000
0001
0000
0000
1000
0100
1000
0000
0001
1000
0001
1000
,  // measure 10
0001
0100
0001
0000
1010
0000
0100
1000
0100
1000
0100
0000
0011
0000
0100
1000
,  // measure 11
0001
1000
0001
0000
0110
0000
0001
0100
0010
0100
0001
0000
1100
0000
0010
0000
,  // measure 12
2000
0000
0000
0000
3010
0010
0000
1000
0000
0010
0000
0100
0000
0001
0000
0000
,  // measure 13
1000
0000
0100
0000
1000
1000
0000
0001
0000
0001
1000
0001
1000
0010
0000
0000
,  // measure 14
2000
0000
0000
0000
3100
0100
0000
1000
0000
0010
0000
0100
0000
0001
0000
0000
,  // measure 15
0010
0000
0001
0000
1000
0001
0000
0001
0000
0001
1000
0001
1000
0100
1000
0100
,  // measure 16
1000
0010
0100
0000
1001
0000
0100
0010
0001
0010
0100
0000
1001
0000
0010
0100
,  // measure 17
0001
0100
0010
0000
1001
0000
0100
1000
0001
1000
0010
0000
0100
0001
0000
0000
,  // measure 18
1000
0100
1000
0000
0101
0000
0010
1000
0001
1000
0001
0000
1100
0000
0010
0001
,  // measure 19
0010
0001
0010
0000
1100
0000
0001
1000
0001
1000
0001
0000
0110
0000
0001
0100
,  // measure 20
0010
0100
0001
0000
1100
0000
0010
1000
0001
1000
0010
0000
0101
0000
0010
1000
,  // measure 21
0001
1000
0100
0000
0011
0000
0100
1000
0001
1000
0001
0000
0110
0000
1000
0010
,  // measure 22
0100
0010
1000
0100
1000
0000
0001
0010
0100
0010
0001
0100
0010
0000
0100
0001
,  // measure 23
1000
0100
1000
0001
1000
0000
0010
0100
0001
0100
0010
1000
0001
0000
1000
0100
,  // measure 24
1000
0001
0100
0001
1000
0000
0100
0010
0001
0010
0100
1000
0001
0000
1000
0010
,  // measure 25
1000
0010
1000
0100
1000
0100
1000
0001
1000
0001
0100
0001
0100
0001
0010
0001
,  // measure 26
0010
0001
0010
0100
0010
0100
1000
0100
1000
0100
1000
0001
1000
0001
0100
0001
,  // measure 27
0100
0001
1000
0100
1000
0100
0010
0001
0010
0001
1000
0010
1000
0010
1000
0001
,  // measure 28
1000
0001
0100
0010
0100
0010
0100
0001
1000
0001
1000
0100
1000
0010
0100
0001
,  // measure 29
1000
0100
1000
0010
0100
0001
1000
0100
,  // measure 30
1000
0010
0100
0001
1000
0100
1000
0101
,  // measure 31
0000
0000
0000
0010
0000
0000
1000
0001
,  // measure 32
0000
0000
1000
0000
0000
0001
0000
0000
1000
0000
0001
0000
1000
0001
1000
0001
,  // measure 33
2000
0000
0100
0000
0000
0100
0000
0000
0010
0000
0000
0020
0000
0000
3030
0000
,  // measure 34
0000
0100
0000
0001
1000
0001
0000
1000
0000
0000
0000
0000
0000
0001
0100
0001
,  // measure 35
0100
0001
0000
0000
0000
1000
0100
1000
0100
1000
0000
0000
0000
0020
0000
0000
,  // measure 36
0000
0000
0000
0000
0000
0030
0000
0000
,  // measure 37
1000
0000
0100
0000
0000
0000
0000
0000
0000
0000
0000
0000
1000
0001
1000
0001
,  // measure 38
2000
0000
0000
0000
,  // measure 39
3000
0000
0000
0000
;

//---------------dance-single - ----------------
#NOTES:
     dance-single:
     :
     Easy:
     3:
     0.191,0.203,0.197,0.148,0.000:
0000
0000
0000
0000
,
1000
0001
1000
0100
,
1000
0010
0100
0010
,
0100
0000
0002
0000
,
1003
0000
0200
0000
,
0310
0001
0100
0010
,
0100
0001
0010
0100
,
1000
0000
2000
0000
,
3010
0000
0020
0000
,
0130
0110
0001
1001
,
1000
1001
0100
0110
,
0020
0000
2030
0000
,
3200
0000
0320
0000
,
0032
0000
0203
0000
,
0320
0000
2030
0000
,
3100
1001
0100
1001
,
0010
1001
0010
1001
,
0010
0100
0010
1001
,
0100
0010
0100
1001
,
0010
0100
0010
1001
,
0100
0010
0100
1001
,
0001
1000
0001
0110
,
1000
0001
1000
0110
,
0001
1000
0001
0110
,
1000
0110
0001
0110
,
1000
0110
0001
0110
,
1000
1001
0010
1001
,
0100
1001
0010
1001
,
0200
0000
0000
0000
,
0320
0000
0000
0000
,
0032
0000
1000
1000
,
1003
0010
0100
0001
,
2000
0000
0100
0100
,
3100
1000
0010
0100
,
0001
0010
0100
0010
,
0001
0100
0010
1000
,
0100
0010
0001
1000
,
2002
0000
0000
0000
,
3003
0000
0000
0000
;

//---------------dance-single - ----------------
#NOTES:
     dance-single:
     :
     Beginner:
     1:
     0.096,0.125,0.098,0.074,0.000:
0000
0000
0000
0000
,
1000
0000
0001
0000
,
1000
0000
0001
0000
,
2000
0000
0000
0000
,
3002
0000
0000
0000
,
1003
0000
0100
0000
,
1000
0000
0010
0000
,
0200
0000
0000
0000
,
0302
0000
0000
0000
,
1003
0000
1001
0000
,
0001
0000
1001
0000
,
2000
0000
0000
0000
,
3020
0000
0000
0000
,
0230
0000
0000
0000
,
0302
0000
0000
0000
,
1003
0000
0110
0000
,
0110
0000
0110
0000
,
0001
0000
0010
0000
,
0100
0000
1000
0000
,
0010
0000
0100
0000
,
0001
0000
1000
0000
,
1001
0000
0010
0000
,
0100
0000
0001
0000
,
1001
0000
1000
0000
,
0110
0000
0010
0000
,
1001
0000
0001
0000
,
0110
0000
1000
0000
,
1001
0000
0100
0000
,
0110
0000
0000
0000
,
0000
0000
0000
0000
,
0001
0000
1000
0000
,
0001
0000
1000
0000
,
0100
0000
0010
0000
,
0100
0000
0000
0000
,
1000
0000
0010
0000
,
0100
0000
0001
0000
,
1000
0000
0001
0000
,
2000
0000
0000
0000
,
3000
0000
0000
0000
;

//---------------dance-single - ----------------
#NOTES:
     dance-single:
     :
     Medium:
     6:
     0.273,0.343,0.197,0.123,0.057:
0000
0000
0000
0000
,
1000
0000
0010
0000
0100
0000
0000
0001
0000
0000
0001
0000
1000
0000
0000
0000
,
0100
0000
0010
0000
0001
0000
0000
0100
0000
0000
0100
0000
0010
0000
0000
0000
,
1000
0000
0001
0000
0000
0001
0000
0000
0002
0000
0000
0000
0000
0000
0000
0000
,
1003
0000
0100
0000
0000
0100
0000
0000
0200
0000
0000
0000
0000
0000
0000
0000
,
0310
0000
0001
0000
0100
0000
0000
0010
0000
0000
0010
0000
1000
0000
0000
0000
,
0100
0000
0010
0000
0001
0000
0000
0100
0000
0000
0010
0000
1000
0000
0000
0000
,
0100
0000
1000
0000
0000
1000
0000
0000
2000
0000
0000
0000
0000
0000
0000
0000
,
3001
0000
0100
0000
0000
0100
0000
0000
0200
0000
0000
0000
0010
0000
0010
0000
,
0310
1000
0100
0000
0010
0001
1000
0000
,
0010
0100
0001
0000
1000
0100
0010
0000
,
0002
0000
1000
0000
0000
1000
0000
0000
2000
0000
0000
0000
0003
0000
0000
0000
,
3100
0000
0010
0000
0000
0010
0000
0000
0020
0000
0000
0000
0000
0000
0000
0000
,
0032
0000
0100
0000
0000
0100
0000
0000
2000
0000
0000
0000
0003
0000
0000
0000
,
3200
0000
0010
0000
0000
0010
0000
0000
2000
0000
0000
0000
0300
0000
0000
0000
,
3010
0100
0101
0000
0010
1000
1001
0000
,
0100
0010
1001
0000
0010
0100
1001
0000
,
0010
0010
0100
0100
0001
0001
1001
0000
,
0100
0100
0010
0010
0001
0001
1010
0000
,
0100
0100
0001
0001
1000
1000
0101
0000
,
0010
0010
1000
1000
0001
0001
1100
0000
,
0010
0100
0011
0100
1000
0100
1001
0000
,
0010
1000
0101
0010
1000
0100
0011
0000
,
0100
1000
0101
0010
1000
0100
0011
0000
,
1000
0010
0101
0010
1000
0100
0011
0100
,
1000
0010
0101
0010
1000
0100
0011
0100
,
1000
0001
1010
0100
0001
0100
1010
0100
,
0010
0001
1100
0010
0100
0001
1100
0001
,
1100
0000
0000
0000
,
0000
0000
0000
0000
0000
0000
0000
1000
,
0000
0000
0000
0001
0000
0000
1000
0001
,
0000
0000
1000
0000
0000
0010
0000
0000
0100
0000
0001
0000
1000
0000
0100
0000
,
2002
0000
0003
0010
,
3010
0000
0000
0000
0100
0000
0000
0001
0000
0000
0000
0000
0000
0000
1000
0000
,
0100
0000
0000
1000
0010
0000
0000
0100
,
0002
0000
0000
0000
1003
0100
1000
0010
,
0100
0000
0000
0001
1000
0000
0000
1000
,
0002
0000
0000
0000
,
0003
0000
0000
0000
;
