#TITLE:I♡XMAS;
#SUBTITLE:;
#ARTIST:Tommy heavenly6;
#TITLETRANSLIT:I LOVE XMAS;
#SUBTITLETRANSLIT:;
#ARTISTTRANSLIT:;
#CREDIT:Xythar;
#BANNER:I LOVE XMAS.png;
#BACKGROUND:I LOVE XMAS-bg.png;
#LYRICSPATH:I LOVE XMAS.lrc;
#CDTITLE:Tommy CDTitle.png;
#MUSIC:I LOVE XMAS.mp3;
#OFFSET:1.630;
#SAMPLESTART:48.766;
#SAMPLELENGTH:10.906;
#SELECTABLE:YES;
#BPMS:0.000=88.020;
#STOPS:;
#BGCHANGES:2.750=I LOVE XMAS.avi=1.000=1=0=1,
121.500=I LOVE XMAS-eg.png=1.000=1=0=1,
99999=-nosongbg-=1.000=0=0=0 // don't automatically add -songbackground-
;

//---------------dance-single - ----------------
#NOTES:
     dance-single:
     :
     Hard:
     5:
     0.317,0.289,0.099,0.187,0.005: // measure 1
0000
0000
0000
0000
,  // measure 2
1000
0100
1000
0002
0000
0103
0010
0000
,  // measure 3
0100
0001
0100
0002
0000
1003
0100
0000
,  // measure 4
0010
0001
0010
0200
0000
1300
0001
0000
,  // measure 5
1000
0010
1000
0002
0000
1003
0100
0000
,  // measure 6
1000
0000
0001
1000
0001
0000
0010
0100
,  // measure 7
0010
0000
0000
0000
0200
0000
1300
0001
,  // measure 8
0000
0001
0100
0010
0000
0010
1000
0001
,  // measure 9
1000
0000
0000
0000
0000
0000
0010
0000
0100
0000
0001
0000
2000
0000
0000
3001
,  // measure 10
0000
1000
0001
1000
0001
0000
1000
0100
,  // measure 11
1000
0000
0000
0001
0100
0001
1000
0001
,  // measure 12
0000
0001
1000
0100
1000
0000
0001
0100
,  // measure 13
0001
0000
0000
0001
1000
0001
1000
0000
,  // measure 14
1000
0100
0010
0001
0102
0000
1003
0000
,  // measure 15
0001
0100
0010
1000
2001
0000
3100
0000
,  // measure 16
1000
0010
0100
0010
1020
0000
0130
0000
,  // measure 17
0001
0010
0000
1100
0000
1000
0001
1000
,  // measure 18
0010
0100
0001
0100
0010
1000
0001
0000
,  // measure 19
1000
0100
0010
0000
0012
0000
1003
0000
,  // measure 20
0010
0100
0001
1000
0001
0000
1001
0000
,  // measure 21
0010
0100
1000
0010
0100
0000
0001
0100
,  // measure 22
0010
0000
1000
0100
0010
0000
0100
1000
,  // measure 23
0001
1000
0001
0000
1020
0000
0130
0000
,  // measure 24
0001
1000
0001
1000
0200
0000
0310
0000
,  // measure 25
0100
1000
0001
1000
0002
0000
0103
0000
,  // measure 26
0010
1000
0001
1000
0100
1000
0010
1000
,  // measure 27
1001
0000
0110
0000
0100
0001
1000
0000
,  // measure 28
0001
0010
0100
2000
0000
3001
1000
0000
,  // measure 29
0010
0100
0001
0200
0000
0310
1000
0000
,  // measure 30
0100
0010
0001
0020
0000
0130
1000
0000
,  // measure 31
0001
0100
0010
2000
0000
0000
0000
0000
,  // measure 32
3000
0000
0000
0000
;

//---------------dance-single - ----------------
#NOTES:
     dance-single:
     :
     Medium:
     3:
     0.190,0.221,0.044,0.198,0.000:
0000
0000
0000
0000
,
2000
0000
0000
0001
0000
0000
3001
0000
,
0200
0000
0000
0010
0000
0000
0310
0000
,
2000
0000
0000
0100
0000
0000
3001
0000
,
0200
0000
0000
0010
0000
0000
0301
0000
,
1000
0010
0100
0001
,
0001
0000
0010
0100
,
1000
0010
0100
0010
,
0010
0000
1000
0100
,
0010
0100
0100
1000
,
0001
0000
0001
0100
,
0010
1000
0001
1000
,
0100
0000
1000
0010
,
0100
0000
0000
0001
0000
0000
1000
0000
,
0001
0000
0000
0010
0000
0000
0100
0000
,
1000
0000
0000
0010
0000
0000
0100
0000
,
0001
0000
0000
1000
0000
0000
0001
0000
,
1000
0100
0010
0001
,
1000
0010
0100
0001
,
2000
0000
0000
0010
0000
0000
3100
0000
,
0020
0000
0000
0100
0000
0000
0031
0000
,
0100
0010
1000
0001
,
1000
0100
0010
0001
,
2000
0000
0000
0010
0000
0000
3100
0000
,
0002
0000
0000
0100
0000
0000
0013
0000
,
0100
1000
0001
1000
,
0010
0100
0110
1001
,
2000
0000
0000
3020
0000
0000
0230
0000
,
0302
0000
0000
2003
0000
0000
3200
0000
,
2300
0000
0000
3002
0000
0000
1003
0000
,
1001
0000
0000
2002
0000
0000
0000
0000
,
3003
0000
0000
0000
;

//---------------dance-single - ----------------
#NOTES:
     dance-single:
     :
     Easy:
     1:
     0.133,0.132,0.000,0.000,0.000:
0000
0000
0000
0000
,
1000
0000
0000
0010
,
0100
0000
0000
0001
,
1000
0000
0000
0100
,
1000
0000
0000
0010
,
0100
0001
1000
1000
,
0001
0000
0100
0000
,
0010
1000
1000
0001
,
0001
0000
0010
0000
,
0100
1000
0010
1000
,
0001
0000
0010
0000
,
0100
1000
1000
0001
,
0001
0000
1000
0001
,
1000
0000
0010
0000
,
0100
0000
0001
0000
,
1000
0100
1000
0001
,
1000
0000
0010
0000
,
0100
0001
1000
0001
,
0010
0100
1000
0010
,
0100
0000
0001
0000
,
1000
0100
1000
0000
,
0010
0100
0001
1000
,
0001
0001
0010
0100
,
1000
0000
0010
0100
,
0001
0000
1000
0100
,
1000
1000
0001
0001
,
0010
0010
0100
0100
,
1000
0000
0000
0010
,
0100
0000
0000
0001
,
1000
0000
0000
1000
,
0001
0000
0000
0000
;

//---------------dance-single - ----------------
#NOTES:
     dance-single:
     :
     Beginner:
     1:
     0.072,0.099,0.033,0.000,0.000:
0000
0000
0000
0000
,
1000
0000
0000
0000
,
0001
0000
0000
0000
,
1000
0000
0000
0000
,
0001
0000
0000
0000
,
1000
0000
0001
0000
,
1000
0000
0100
0000
,
1000
0000
0010
0000
,
1000
0000
0001
0000
,
0010
0000
0100
0000
,
1000
0000
0010
0000
,
1000
0000
0001
0000
,
1000
0000
0100
0000
,
1000
0000
0000
0000
,
0001
0000
0000
0000
,
1001
0000
0000
0000
,
0110
0000
0000
0000
,
1001
0000
0010
0000
,
0100
0000
0010
0000
,
0001
0000
0000
0000
,
1000
0000
0000
0000
,
0010
0000
0100
0000
,
0010
0000
0000
0000
,
1000
0000
0000
0000
,
0001
0000
0000
0000
,
1000
0000
0100
0000
,
0010
0000
0001
0000
,
1000
0000
0000
0000
,
0001
0000
0000
0000
,
1000
0000
0000
0000
,
0001
0000
0000
0000
;
