#TITLE:ヒャダインのカカカタ☆カタオモイ-C;
#SUBTITLE:;
#ARTIST:ヒャダイン;
#TITLETRANSLIT:Hyadain no Kakakata Kataomoi-C;
#SUBTITLETRANSLIT:;
#ARTISTTRANSLIT:Hyadain;
#CREDIT:Xythar;
#BANNER:Hyadain no Kakakata Kataomoi-C-bn.avi;
#BACKGROUND:Hyadain no Kakakata Kataomoi-C-bg.png;
#LYRICSPATH:Hyadain no Kakakata Kataomoi-C.lrc;
#CDTITLE:cdtitle.png;
#MUSIC:Hyadain no Kakakata Kataomoi-C.ogg;
#OFFSET:-0.402;
#SAMPLESTART:54.398;
#SAMPLELENGTH:21.280;
#SELECTABLE:YES;
#BPMS:0.000=180.000,96.000=90.000,128.000=180.000;
#STOPS:;
#BGCHANGES:0.250=Hyadain no Kakakata Kataomoi-C.avi=1.000=0=0=1,
232.000=Hyadain no Kakakata Kataomoi-C-eg.png=1.000=0=0=1,
99999=-nosongbg-=1.000=0=0=0 // don't automatically add -songbackground-
;

//---------------dance-single - ----------------
#NOTES:
     dance-single:
     :
     Hard:
     8:
     0.587,0.543,0.375,0.132,0.000:
0000
0000
0000
0000
0000
0000
1000
0001
,
0020
0000
0100
0000
0130
1000
0001
1000
,
0000
0010
0000
0100
0000
0001
0010
0100
,
0000
0100
1000
0001
1000
0010
0100
0010
,
0000
1100
0000
0011
0000
0100
1000
0020
,
0000
0000
0100
0000
1030
0010
1000
0001
,
0000
0100
0000
0010
0000
1000
0100
0010
,
0000
0001
0100
0010
1000
0100
1000
0001
,
0000
1100
0000
0101
0000
0010
1000
0001
,
0000
0000
1000
0000
0001
0010
0100
1000
,
0000
0001
0100
0010
0000
1000
0001
0010
,
0000
0100
1000
0000
0001
0200
0000
1000
,
0000
0010
0000
0301
0000
1000
0000
1001
,
0000
0001
0100
0010
0000
1000
0001
0020
,
0000
0100
0000
0031
0000
0100
0010
1000
,
0000
0001
0010
0001
1000
0010
0100
0010
,
0000
1000
0100
0010
0000
0001
0100
0000
,
1100
0000
0101
0000
1100
0001
0100
0010
,
0000
1000
0100
0010
0000
0001
1000
0000
,
1010
0000
0011
0000
1010
0010
0100
0001
,
0000
1000
0100
0010
0000
0001
0100
0000
,
1010
0000
1100
0000
1010
0010
0100
0001
,
0000
0010
0100
1000
0000
0001
0100
0010
,
1000
0001
0000
0010
0000
0001
0000
1000
,
0000
0000
0000
0000
0001
1000
1000
0010
,
0100
0000
0001
0000
1000
0001
0010
0010
,
0001
0000
0100
0000
1001
0100
0100
1000
,
0010
0000
0100
0001
1000
0010
0010
1000
,
0001
0000
0000
1000
0200
0010
0310
0001
,
0200
0010
0310
1000
0100
1000
0010
0100
,
0010
1001
1001
0000
0001
0100
1000
0100
,
0001
0010
0100
1000
0010
0000
0010
0000
,
0010
0000
0010
0000
0010
0100
0001
0010
,
0000
0100
1000
0010
0000
0100
0001
0010
,
0000
0100
1000
0001
0000
1000
0100
0011
,
0000
0001
0100
1010
0000
0100
0010
1001
,
0000
0010
0100
1001
0000
0001
0100
0010
,
0000
1000
0001
0010
0000
0100
1000
0010
,
0000
0100
0001
1000
0000
0001
0010
1100
,
0000
1000
0010
0101
0000
0001
1000
0110
,
0000
1000
0001
0110
0000
0001
0100
0010
,
0000
0100
0001
0010
0000
0100
1000
0010
,
0000
0100
0010
1000
0000
0100
0010
1001
,
0000
0001
0100
1010
0000
0001
0010
1100
,
0000
0010
0100
1001
0000
1000
0010
1000
,
0001
0010
0001
0100
1000
0100
0010
0100
,
0000
0001
0010
0100
0000
1000
0010
0101
,
0000
0001
0010
1100
0000
0010
0100
2001
,
0000
0000
3100
1000
0001
0000
0100
0010
,
2000
0000
0100
0000
3001
0100
0010
1000
,
0000
0001
0010
0100
0000
1000
0010
0100
,
0000
1000
0100
0010
0100
0001
0010
0200
,
0000
0001
0000
1300
0000
0001
0100
0020
,
0000
0000
1030
0000
0001
0010
0100
1000
,
0000
0001
0100
0010
0000
1000
0100
0020
,
0000
0000
0100
0000
0031
0100
0010
1000
,
0000
0011
0000
1100
0000
0001
0100
0020
,
0000
0000
0000
0000
,
0030
0000
0000
0000
;

//---------------dance-single - ----------------
#NOTES:
     dance-single:
     :
     Medium:
     7:
     0.482,0.416,0.287,0.110,0.000:
0000
0000
0000
0000
0000
0000
0010
1000
,
0002
0000
0100
0000
0103
0000
0010
1000
,
0000
0001
0000
0010
0000
0001
1000
0010
,
0000
1000
0001
0000
1000
0100
1000
0010
,
0000
0100
0000
1001
0000
0001
0100
0020
,
0000
0000
1030
0000
0001
0100
0001
1000
,
0000
0100
0000
0010
0000
0001
0000
2000
,
0000
0000
0001
0000
3001
0000
1000
0010
,
0000
0100
0000
0010
0000
1000
0001
0010
,
0000
0000
0100
0000
1000
0000
0001
0100
,
0000
0010
0000
1000
0000
0001
0000
0010
,
0000
0000
0100
0000
1000
0010
0000
0200
,
0000
0001
0000
0301
0000
0010
0000
1001
,
0000
0000
0001
0100
0000
0010
0000
1000
,
0000
0001
0000
0010
0000
0100
1000
0001
,
0000
1000
0010
0000
0100
0000
0010
1000
,
0000
0001
0000
1000
0000
0100
0010
0000
,
2100
0000
0001
0000
3010
0100
0001
0100
,
0000
0010
1000
0001
0000
1000
0010
0000
,
0102
0000
1000
0000
0013
0100
1000
0100
,
0000
1000
0010
1000
0000
0001
0100
0000
,
0120
0000
1000
0000
0130
0001
1000
0001
,
0000
1000
0010
1000
0000
0001
0010
0100
,
1000
0000
0000
0001
0000
0100
0000
0010
,
0000
0000
1000
0001
,
0100
0010
0100
0001
,
1000
0100
0100
0000
0010
0000
0001
0000
,
0100
0010
0100
0001
,
1000
0010
0010
0000
1000
0100
0010
0000
,
0010
0100
1000
0000
0000
1000
0100
0010
,
0001
1001
1001
0000
1000
0000
0010
0000
,
0100
0001
0010
0010
,
0010
0000
0010
0000
0010
0000
0100
1000
,
0000
0001
0000
0100
0000
0010
1000
0100
,
0000
0010
0001
0100
0000
0010
0000
1100
,
0000
0010
0000
0101
0000
1000
0000
0101
,
0000
0010
0000
1001
0000
1000
0000
0001
,
0000
0100
0010
1000
0000
0001
0000
0010
,
0000
0100
1000
0001
0000
0100
0000
1001
,
0000
0010
0000
1001
0000
0100
0000
1010
,
0000
0100
0000
0011
0000
0100
1000
0001
,
0000
0100
0010
1000
0000
0001
0000
1000
,
0000
0100
0010
0001
0000
1000
0000
0110
,
0000
0001
0000
0110
0000
1000
0000
0101
,
0000
0010
0000
1100
0000
0001
0100
0001
,
1000
0000
0000
0000
0001
0100
0010
1000
,
0000
0101
0000
1100
0000
0001
0100
0010
,
0000
1000
0100
0010
0000
0001
1000
0020
,
0000
0100
0130
0010
,
1100
0000
0001
0000
0100
0010
1000
0010
,
0000
0100
0000
0001
0000
0010
0100
1000
,
0000
0001
0100
0001
1000
0000
0100
0010
,
0000
0011
0000
1100
0000
0001
0100
0010
,
0000
0000
1001
0000
0001
0100
0010
1000
,
0000
0001
0000
0010
0000
0001
0000
2000
,
0000
0000
3001
0000
1000
0100
0010
0001
,
0000
0100
0000
1001
0000
1000
0100
0020
,
0000
0000
0000
0000
,
0030
0000
0000
0000
;

//---------------dance-single - ----------------
#NOTES:
     dance-single:
     :
     Easy:
     4:
     0.309,0.416,0.353,0.110,0.000: // measure 1
0000
0000
0000
1000
,  // measure 2
0020
0000
0000
0000
0000
0000
0000
0130
,  // measure 3
0000
0001
0000
0010
0000
0001
0000
1001
,  // measure 4
0000
0000
0000
0000
1000
0000
0000
0010
,  // measure 5
0000
0100
0000
0110
0000
1000
0000
0002
,  // measure 6
0000
0000
0000
0000
1003
0000
0000
0001
,  // measure 7
0000
0100
0000
0010
0000
1000
0000
0002
,  // measure 8
0000
0000
0000
0000
1003
0000
0000
1001
,  // measure 9
0000
0010
0000
0100
0000
0000
0000
1001
,  // measure 10
0000
0001
0100
0010
,  // measure 11
1000
0001
0010
0001
,  // measure 12
1000
0000
0000
0000
0000
0000
0000
0001
,  // measure 13
0000
1000
0000
0010
0000
1000
0000
0001
,  // measure 14
0000
1000
0100
1000
,  // measure 15
0010
0100
0010
1000
,  // measure 16
0001
0000
0000
0000
1000
0000
0000
0002
,  // measure 17
0000
0000
0000
1003
0000
0000
0000
0000
,  // measure 18
0001
1000
1001
0000
,  // measure 19
1000
0000
0010
0000
,  // measure 20
0100
0010
0110
0000
,  // measure 21
0001
0000
0100
0000
,  // measure 22
0001
1000
1001
0000
,  // measure 23
0010
0000
0100
0000
,  // measure 24
0001
0000
0000
1000
0000
0010
0000
0010
,  // measure 25
0000
0000
1000
1000
,  // measure 26
0001
0001
1001
0000
,  // measure 27
0000
0000
0010
0010
,  // measure 28
0100
0100
0110
0000
,  // measure 29
1001
0000
2000
0000
,  // measure 30
3002
0000
1003
0010
,  // measure 31
0200
0301
1000
0100
,  // measure 32
1000
0010
0100
0100
,  // measure 33
0100
0000
0000
0000
0001
0000
0000
0100
,  // measure 34
0000
0000
0000
0010
0000
0000
0000
1000
,  // measure 35
0000
0000
0000
0001
0000
0000
0000
1001
,  // measure 36
0000
0000
0000
0110
0000
0000
0000
1001
,  // measure 37
0000
0000
0000
0110
0000
0000
0000
1000
,  // measure 38
0000
0000
0000
0100
0000
0000
0000
0010
,  // measure 39
0000
0000
0000
0001
0000
0000
0000
0110
,  // measure 40
0000
0000
0000
1001
0000
0000
0000
0110
,  // measure 41
0000
0000
0000
1001
0000
0000
0000
0100
,  // measure 42
0000
0000
0000
0010
0000
0000
0000
1000
,  // measure 43
0000
0000
0000
0001
0000
0000
0000
1001
,  // measure 44
0000
0000
0000
1001
0000
0000
0000
0110
,  // measure 45
0000
0000
0000
0110
0000
0000
1000
0000
,  // measure 46
0001
0000
0000
0000
1000
0000
0000
0010
,  // measure 47
0000
0110
0000
0110
0000
0001
0000
1001
,  // measure 48
0000
1000
0000
1001
0000
0010
0000
0110
,  // measure 49
0000
0001
1000
0001
,  // measure 50
0200
0000
0000
0000
0310
0000
0000
1000
,  // measure 51
0000
0001
0000
0010
0000
0001
0000
1000
,  // measure 52
0000
0000
0000
0000
0001
0000
0000
1000
,  // measure 53
0000
0001
0000
1001
0000
0010
0000
0110
,  // measure 54
0000
0000
0000
0000
0001
0000
0000
0100
,  // measure 55
0000
0010
0000
1000
0000
0001
0000
1000
,  // measure 56
0000
0000
0000
0000
0001
0000
0000
1001
,  // measure 57
0000
0000
0000
0110
0000
0000
0000
2002
,  // measure 58
0000
0000
0000
0000
,  // measure 59
3003
0000
0000
0000
;

//---------------dance-single - ----------------
#NOTES:
     dance-single:
     :
     Beginner:
     1:
     0.117,0.192,0.000,0.011,0.000: // measure 1
0000
0000
0000
0000
,  // measure 2
1000
0000
0000
0000
,  // measure 3
0001
0000
0000
0000
,  // measure 4
1000
0000
1000
0000
,  // measure 5
0010
0000
0010
0000
,  // measure 6
1000
0000
0000
0000
,  // measure 7
0001
0000
0000
0000
,  // measure 8
1000
0000
0000
0000
,  // measure 9
0001
0000
0001
0000
,  // measure 10
0001
0000
0000
0000
,  // measure 11
1000
0000
0000
0000
,  // measure 12
0010
0000
0000
0000
,  // measure 13
0100
0000
0100
0000
,  // measure 14
0100
0000
0000
0000
,  // measure 15
0001
0000
0000
0000
,  // measure 16
1000
0000
0000
0000
,  // measure 17
0001
0000
0001
0000
,  // measure 18
1000
1000
1000
0000
,  // measure 19
0000
0000
0000
0000
,  // measure 20
0001
0001
0001
0000
,  // measure 21
0000
0000
0000
0000
,  // measure 22
1000
1000
1000
0000
,  // measure 23
0000
0000
0000
0000
,  // measure 24
0001
0000
0000
0000
,  // measure 25
0000
0000
1000
0000
,  // measure 26
0000
0000
0001
0000
,  // measure 27
0000
0000
1000
0000
,  // measure 28
0000
0000
0001
0000
,  // measure 29
0000
0000
1000
0000
,  // measure 30
0001
0000
1000
1000
,  // measure 31
1000
0000
0001
0001
,  // measure 32
0001
0000
1000
0000
,  // measure 33
1000
0000
0000
0000
,  // measure 34
0001
0000
0000
0000
,  // measure 35
1000
0000
0000
0000
,  // measure 36
0001
0000
0000
0000
,  // measure 37
1000
0000
0000
0000
,  // measure 38
0010
0000
0000
0000
,  // measure 39
0100
0000
0000
0000
,  // measure 40
0010
0000
0000
0000
,  // measure 41
0100
0000
0000
0000
,  // measure 42
0010
0000
0000
0000
,  // measure 43
1000
0000
0000
0000
,  // measure 44
0001
0000
0000
0000
,  // measure 45
1000
0000
0000
0000
,  // measure 46
0001
0000
0000
0000
,  // measure 47
1000
0000
0000
0000
,  // measure 48
0001
0000
1000
0000
,  // measure 49
0001
0000
0000
0000
,  // measure 50
1000
0000
0000
0000
,  // measure 51
0010
0000
0000
0000
,  // measure 52
0100
0000
0100
0000
,  // measure 53
0001
0000
0000
0000
,  // measure 54
0010
0000
0000
0000
,  // measure 55
0100
0000
0000
0000
,  // measure 56
1000
0000
0000
0000
,  // measure 57
0001
0000
0001
0000
,  // measure 58
0002
0000
0000
0000
,  // measure 59
0003
0000
0000
0000
;
