#TITLE:Here's Johnny;
#SUBTITLE:;
#ARTIST:Deepack;
#TITLETRANSLIT:;
#SUBTITLETRANSLIT:;
#ARTISTTRANSLIT:;
#CREDIT:Xythar;
#BANNER:Here's Johnny.png;
#BACKGROUND:Here's Johnny-bg.png;
#LYRICSPATH:;
#CDTITLE:Bitte Ein Beat 7.png;
#MUSIC:Here's Johnny.mp3;
#OFFSET:-0.212;
#SAMPLESTART:80.190;
#SAMPLELENGTH:15.000;
#SELECTABLE:YES;
#BPMS:0.000=147.000;
#STOPS:;
#BGCHANGES:;

//---------------dance-single - ----------------
#NOTES:
     dance-single:
     :
     Hard:
     8:
     0.519,0.698,0.429,0.086,0.078: // measure 1
0000
0000
0000
0000
,  // measure 2
0000
0000
0000
0000
,  // measure 3
1000
0001
0100
1010
,  // measure 4
0001
0000
0000
0000
0100
0000
0000
0000
0010
0000
0000
0000
1000
0000
0001
1000
,  // measure 5
0001
0010
0100
1100
,  // measure 6
1000
0000
0010
0000
0100
0000
0001
0100
,  // measure 7
0001
1000
0100
0011
,  // measure 8
0100
0000
0000
0000
1000
0000
0000
0000
0001
0000
0000
0000
1000
0100
0000
0100
,  // measure 9
1000
0010
0100
0101
,  // measure 10
1000
0000
0000
0000
0100
0000
0000
0000
0010
0000
0000
0000
0001
0000
1000
0001
,  // measure 11
1000
0001
0100
1010
,  // measure 12
0100
0010
0001
1000
,  // measure 13
0100
1000
0010
0101
,  // measure 14
0010
1000
0100
0010
,  // measure 15
0001
1000
0100
0000
0100
1000
1001
0000
,  // measure 16
0001
0100
0010
0000
0010
0100
0001
0000
,  // measure 17
1000
0010
0100
0000
0100
0010
1010
0000
,  // measure 18
0001
0010
0100
1000
,  // measure 19
0001
0100
0010
0100
0001
1000
0100
0010
,  // measure 20
0100
0010
0001
0010
0100
1000
0010
0100
,  // measure 21
0001
1000
0100
1000
0001
0100
0010
1000
,  // measure 22
0010
0100
0001
0100
0010
1000
0100
0010
,  // measure 23
0001
0100
1000
0100
0001
0010
0100
1000
,  // measure 24
0001
0010
1000
0010
0001
1000
0010
0100
,  // measure 25
0001
0010
0100
0001
0100
1000
0010
0100
,  // measure 26
0001
0100
0010
0100
0001
1000
0100
0000
0000
1001
0000
0000
,  // measure 27
1000
0100
0010
0100
1000
0001
0100
0100
,  // measure 28
0010
0100
0001
0100
0010
1000
0100
0100
,  // measure 29
1000
0010
0100
0010
1000
0001
0010
0010
,  // measure 30
0001
0010
0100
0010
0001
1000
0001
0001
,  // measure 31
0100
0010
1000
0100
0010
0001
1000
1000
,  // measure 32
0001
0010
0100
1000
0001
1000
0100
0010
,  // measure 33
0001
0000
0100
0000
0001
0000
0100
0000
0001
0000
1000
0000
0001
0000
1000
0001
,  // measure 34
1000
0000
0001
1000
0001
0000
1000
0001
1000
0000
0001
1000
0001
1000
0001
1000
,  // measure 35
0002
0000
0000
0000
,  // measure 36
0000
0000
0000
0000
,  // measure 37
0003
1000
0000
0100
0000
0010
0000
0001
,  // measure 38
0000
1000
0000
0010
0000
0100
0000
0001
,  // measure 39
0000
1000
0000
0100
0000
1000
0000
0010
,  // measure 40
0000
0100
0000
0001
0000
0100
0000
0010
,  // measure 41
0000
1000
0000
0001
0000
0010
0000
0100
,  // measure 42
0000
1000
0000
0010
0000
0100
0000
0001
,  // measure 43
0000
1000
0000
0100
0000
1000
0000
0001
,  // measure 44
0000
0100
0000
0010
0000
0100
0000
0001
,  // measure 45
0000
0010
0000
0100
0000
0001
0000
0100
,  // measure 46
0000
1000
0000
0010
0000
0001
0000
0010
,  // measure 47
0000
1000
0000
0100
0000
1000
0000
0001
,  // measure 48
0000
0100
0000
1000
0000
0100
0000
0001
,  // measure 49
0000
1000
0000
0010
0000
0100
0000
0010
,  // measure 50
2000
0000
0000
3001
,  // measure 51
1000
0100
0010
0001
0100
0000
1010
0000
,  // measure 52
0100
0000
0001
0000
1000
0000
0100
1000
0100
0000
0000
0000
1100
0000
0000
0000
,  // measure 53
0001
0100
0010
1000
0001
0000
1100
0000
,  // measure 54
0021
0100
0130
1000
,  // measure 55
1001
1000
0010
0100
0001
0000
1100
0000
,  // measure 56
0001
0000
0010
0000
0100
0000
0010
0100
0010
0000
0000
0000
0011
0000
0000
0000
,  // measure 57
0001
0100
0010
1000
0100
0000
1001
0000
,  // measure 58
0201
0010
0310
1000
,  // measure 59
0200
0000
0000
0000
,  // measure 60
0320
0000
0000
0000
,  // measure 61
0032
0000
0000
0003
,  // measure 62
0101
1010
1100
0011
,  // measure 63
1001
0001
0010
0100
1000
0000
1010
0000
,  // measure 64
0100
0000
0001
0000
0001
0000
1000
0001
1000
0000
0000
0000
1001
0000
0000
0000
,  // measure 65
0001
1000
0010
1000
0001
0000
0101
0000
,  // measure 66
2010
0001
3001
0010
,  // measure 67
0110
0100
1000
0001
0100
0000
1010
0000
,  // measure 68
0100
0000
0001
0000
1000
0000
0010
1000
0010
0000
0000
0000
0101
0000
0000
0000
,  // measure 69
1000
0100
0010
0100
1000
0000
0011
0000
,  // measure 70
1200
0010
0310
0001
,  // measure 71
0101
0110
1010
1100
,  // measure 72
0110
0000
0000
0000
0010
0000
0001
0010
0001
0000
0000
0000
0101
0000
0000
0000
,  // measure 73
1001
0110
1001
1010
,  // measure 74
0102
1000
1003
0110
,  // measure 75
1100
1001
0101
1010
,  // measure 76
1100
0000
0000
0000
1000
0000
0001
1000
0001
0000
0000
0000
1100
0000
0000
0000
,  // measure 77
0011
0110
1100
1001
,  // measure 78
1200
0000
0000
0310
;

//---------------dance-single - ----------------
#NOTES:
     dance-single:
     :
     Easy:
     4:
     0.272,0.425,0.164,0.086,0.000: // measure 1
0000
0000
0000
0000
,  // measure 2
0000
0000
0000
0000
,  // measure 3
1000
0000
0000
1001
,  // measure 4
0001
0000
0000
0100
,  // measure 5
0010
0000
0000
0110
,  // measure 6
0100
0000
0000
0001
,  // measure 7
1000
0000
0000
1100
,  // measure 8
0100
0000
0000
0010
,  // measure 9
0001
0000
0000
0011
,  // measure 10
0010
0100
1000
0010
,  // measure 11
0100
0000
0001
0000
,  // measure 12
1000
0000
0100
0000
,  // measure 13
0010
0000
0001
0000
,  // measure 14
1000
0000
0010
0000
,  // measure 15
0100
0000
0001
0000
,  // measure 16
1000
0000
0100
0000
,  // measure 17
1000
0000
0010
0000
,  // measure 18
0100
0000
0001
0000
,  // measure 19
1000
0100
1000
0001
,  // measure 20
0100
0010
0100
0001
,  // measure 21
0010
0100
0010
0001
,  // measure 22
0100
0010
1000
0010
,  // measure 23
0100
0001
1000
0010
,  // measure 24
1000
0100
1000
0010
,  // measure 25
0100
0001
0100
0010
,  // measure 26
1000
0001
1000
1001
,  // measure 27
0001
0010
0100
0110
,  // measure 28
0100
1000
0001
1001
,  // measure 29
1000
0010
0100
0110
,  // measure 30
0010
0100
0001
1001
,  // measure 31
0001
0010
0100
1000
,  // measure 32
0010
0100
0001
1000
,  // measure 33
0001
0001
1000
1000
,  // measure 34
1001
1001
1001
1001
,  // measure 35
2002
0000
0000
0000
,  // measure 36
0000
0000
0000
0000
,  // measure 37
0000
0000
0000
0000
,  // measure 38
0000
0000
0000
0000
,  // measure 39
0000
0000
0000
0000
,  // measure 40
3003
0000
0000
0000
,  // measure 41
0000
0000
0000
0000
,  // measure 42
0000
0001
0000
0000
0000
0010
0000
0000
,  // measure 43
0000
0100
0000
0000
0000
1000
0000
0000
,  // measure 44
0000
0010
0000
0000
0000
0100
0000
0000
,  // measure 45
0000
0001
0000
0000
0000
1000
0000
0000
,  // measure 46
0000
0001
0000
0000
0000
0100
0000
0000
,  // measure 47
0000
0010
0000
0000
0000
1000
0000
0000
,  // measure 48
0000
0100
0000
0000
0000
0010
0000
0000
,  // measure 49
0000
0001
0000
0000
0000
0000
0000
0000
,  // measure 50
0000
0000
0000
0001
,  // measure 51
1000
0010
0100
0000
,  // measure 52
0001
0010
0100
0000
,  // measure 53
1000
0001
0100
0010
,  // measure 54
2000
0100
3100
1000
,  // measure 55
0010
0100
0001
0000
,  // measure 56
1000
0100
1000
0000
,  // measure 57
0001
0010
0100
0010
,  // measure 58
0002
1000
1003
0010
,  // measure 59
0200
0000
0000
0000
,  // measure 60
0320
0000
0000
0000
,  // measure 61
2030
0000
0000
0000
,  // measure 62
3100
0100
0100
0100
,  // measure 63
1000
0010
0100
0001
,  // measure 64
1000
0100
0010
0001
,  // measure 65
1000
0001
0100
0001
,  // measure 66
2000
0010
3010
0100
,  // measure 67
0001
0010
0100
1000
,  // measure 68
0010
0100
0001
1000
,  // measure 69
0001
0010
0100
0010
,  // measure 70
0002
1000
1003
0010
,  // measure 71
0110
0100
1000
0001
,  // measure 72
1001
1000
0010
0100
,  // measure 73
0110
0010
1000
0001
,  // measure 74
1002
0100
0103
0010
,  // measure 75
1000
0001
0100
0101
,  // measure 76
0001
1000
0100
1100
,  // measure 77
1000
0001
0010
0011
,  // measure 78
0200
0000
0000
0310
;

//---------------dance-single - ----------------
#NOTES:
     dance-single:
     :
     Medium:
     6:
     0.390,0.516,0.203,0.078,0.008: // measure 1
0000
0000
0000
0000
,  // measure 2
0000
0000
0000
0000
,  // measure 3
1000
0010
0100
0001
,  // measure 4
1000
0100
0010
0100
,  // measure 5
1000
0010
0100
0001
,  // measure 6
1000
0010
0100
0010
,  // measure 7
1000
0001
0010
1000
,  // measure 8
0010
0001
1000
0010
,  // measure 9
0100
0010
1000
0001
,  // measure 10
1000
0100
0010
0001
,  // measure 11
1000
0010
0100
0001
,  // measure 12
0100
0010
1000
0100
,  // measure 13
0010
0100
0010
0001
,  // measure 14
1000
0010
0100
0010
,  // measure 15
1000
0010
0100
0001
,  // measure 16
1000
0100
0010
0100
,  // measure 17
0010
0100
1000
0001
,  // measure 18
0100
0010
1000
0001
,  // measure 19
0010
0100
1000
0010
,  // measure 20
0100
0000
0001
0000
1000
0000
0100
0010
,  // measure 21
0001
0100
0010
0100
,  // measure 22
0001
0000
0010
0000
0100
0000
1000
0010
,  // measure 23
0100
0001
0001
1000
,  // measure 24
0001
0000
0100
0000
0010
0000
1000
0100
,  // measure 25
0010
0001
1000
0001
,  // measure 26
0100
0000
0100
0010
0000
0010
1000
0000
0000
0100
0000
0000
,  // measure 27
0010
0001
0100
0000
0010
0000
1000
0000
,  // measure 28
0100
0010
0100
0000
1000
0000
0010
0000
,  // measure 29
0100
0001
0010
0000
0100
0000
1000
0000
,  // measure 30
0010
0100
0001
0000
1000
0000
0001
0000
,  // measure 31
0010
0100
1000
0000
1000
0001
0100
0000
,  // measure 32
0100
0010
1000
0000
1000
0100
0010
0000
,  // measure 33
0100
0010
0100
0010
0001
0010
0001
0010
,  // measure 34
0001
1000
0001
1000
0001
1000
0010
0100
,  // measure 35
0002
0000
0000
0000
,  // measure 36
0000
0000
0000
0000
,  // measure 37
0003
1000
0000
0000
0000
0100
0000
0000
,  // measure 38
0000
0010
0000
0000
0000
0001
0000
0000
,  // measure 39
0000
0100
0000
0000
0000
0010
0000
0000
,  // measure 40
0000
1000
0000
0000
0000
0100
0000
0000
,  // measure 41
0000
1000
0000
0000
0000
0010
0000
0000
,  // measure 42
0000
0100
0000
0000
0000
0001
0000
0000
,  // measure 43
0000
0010
0000
0100
0000
1000
0000
0010
,  // measure 44
0000
0100
0000
0010
0000
0100
0000
0001
,  // measure 45
0000
1000
0000
0010
0000
0100
0000
0001
,  // measure 46
0000
0010
0000
0100
0000
1000
0000
0001
,  // measure 47
0000
0100
0000
0001
0000
1000
0000
0100
,  // measure 48
0000
0010
0000
0100
0000
1000
0000
0010
,  // measure 49
0000
0100
0000
0010
0000
1000
0000
0000
,  // measure 50
0000
0000
0000
0000
,  // measure 51
0001
0100
0010
0000
1000
0000
1100
0000
,  // measure 52
0010
0001
0010
0100
0010
0000
0001
0000
,  // measure 53
0100
0010
1000
0000
0001
0000
1001
0000
,  // measure 54
0200
0010
0310
1000
,  // measure 55
1000
0100
1000
0000
0001
0000
0101
0000
,  // measure 56
1000
0100
0010
0100
1000
0000
0001
0000
,  // measure 57
0100
0010
0100
0000
0001
0000
1001
0000
,  // measure 58
2000
0100
3100
1000
,  // measure 59
0020
0000
0000
0000
,  // measure 60
0230
0000
0000
0000
,  // measure 61
0302
0000
0000
0000
,  // measure 62
1003
0100
0010
0011
,  // measure 63
0001
0100
0001
0100
0001
0000
1001
0000
,  // measure 64
1000
0100
1000
0100
1000
0000
1001
0000
,  // measure 65
0010
0100
0010
0100
0010
0000
0110
0000
,  // measure 66
2000
0100
3100
0010
,  // measure 67
0001
0010
0100
0010
0001
0000
0011
0000
,  // measure 68
1000
0010
0100
0010
1000
0000
1010
0000
,  // measure 69
0001
1000
0100
1000
0001
0000
1001
0000
,  // measure 70
0200
0010
0310
1000
,  // measure 71
1100
0100
0110
0010
,  // measure 72
0011
0000
0001
1000
0001
0000
0101
0000
,  // measure 73
0110
0010
1010
1000
,  // measure 74
1002
0000
0100
0000
0103
0000
0010
1000
,  // measure 75
0100
0110
0010
0011
,  // measure 76
0001
1000
0001
1000
0010
0000
0110
0000
,  // measure 77
1010
1001
0011
0110
,  // measure 78
2100
0000
0000
3010
;
